#TITLE:Sky Drive;
#SUBTITLE:;
#ARTIST:Powerless;
#TITLETRANSLIT:;
#SUBTITLETRANSLIT:;
#ARTISTTRANSLIT:;
#GENRE:;
#CREDIT:;
#BANNER:Sky Drive.png;
#BACKGROUND:Sky Drive-bg.png;
#LYRICSPATH:;
#CDTITLE:;
#MUSIC:Sky Drive.ogg;
#OFFSET:0.558000;
#SAMPLESTART:33.747715;
#SAMPLELENGTH:16.457142;
#SELECTABLE:YES;
#BPMS:0.000000=175.000000
;
#STOPS:
;
#BGCHANGES:;
#KEYSOUNDS:;
#ATTACKS:;

//---------------dance-single - ----------------
#NOTES:
     dance-single:
     :
     Hard:
     9:
     0.514945,0.629187,0.432208,0.466785,0.051865,417.000000,367.000000,50.000000,54.000000,0.000000,0.000000,0.514945,0.629187,0.432208,0.466785,0.051865,417.000000,367.000000,50.000000,54.000000,0.000000,0.000000:
0000
0000
0000
0000
,
0000
0000
0000
0000
,
0000
0000
0000
0000
,
0000
0000
0000
0000
,
0000
0000
0000
0000
,
0001
0000
0000
0100
0000
0000
0010
0000
0000
1000
0000
0000
1001
0000
0000
0000
,
1000
0000
0000
0010
0000
0000
0100
0000
0000
0001
0000
0000
1001
0000
0000
0000
,
0001
0000
0000
0010
0000
0000
0100
0000
0000
1000
0000
0000
1001
0000
0000
0000
,
0220
0000
0030
0300
,
1020
0000
0130
0001
0000
0010
0100
1000
,
0000
0100
1000
0020
0000
0000
0130
0000
,
0002
0000
1003
0001
0000
0010
0001
0100
,
0000
0010
1000
0001
1000
0001
1000
0000
,
0101
0000
0001
0010
0000
0100
0010
0001
,
0000
0010
0100
1000
0001
0100
0010
1000
,
0002
0000
0013
0001
0000
0010
0001
0100
,
0000
0010
1000
0100
0000
0010
0200
0000
,
0320
0000
0031
0010
0000
0001
0010
1000
,
0000
1000
0010
0001
0010
0100
1000
0000
,
0002
0000
0103
0010
0000
1000
0100
0001
,
0000
0001
0100
1000
0100
1000
0100
0010
,
0011
0000
1000
0001
0000
0001
0010
1000
,
0000
1000
0010
0001
0100
1000
0100
0001
,
2000
0000
3010
0100
0000
0010
1000
0200
,
0000
0000
0000
0000
,
0310
0001
0100
0001
1000
0000
1001
0000
,
0100
1000
0010
1000
0001
0000
1001
0000
,
0001
1000
0100
1000
0010
0000
0101
0000
,
1000
0001
0010
0001
0100
0000
1010
0000
,
1000
0001
0100
0001
0010
0000
0011
0000
,
0001
1000
0100
1000
0010
0000
0101
0000
,
0001
0010
1000
0000
1000
0010
0000
0100
,
0000
0010
0001
0100
0010
1000
0000
0001
,
0100
0010
1000
0100
1000
0000
0001
0020
,
0000
0000
0000
0000
0200
0000
0000
0330
,
0000
0100
0010
0001
1000
0000
1010
0000
,
2000
3200
0320
0032
,
1003
0001
0010
0001
1000
0000
1100
0000
,
1000
0001
0100
0001
1000
0000
1001
0000
,
1000
0100
0001
0000
0001
0100
0000
0010
,
0001
1000
0001
1000
0001
1000
0001
1000
,
1001
0000
0000
0011
0000
0000
2200
0000
,
0000
3300
0000
0000
,
0000
0000
0000
0000
,
0000
0000
0000
0000
0000
0000
0200
0320
,
0031
0000
0000
1100
0000
0000
0022
0000
,
0000
0000
0033
0000
,
0000
0000
0000
0000
,
0000
0000
0000
0000
,
0201
0000
0000
0310
0000
0000
1001
0000
,
1000
0001
0000
1000
0001
0000
0100
0000
,
2010
0000
0000
3001
0000
0000
0101
0000
,
0001
0010
0000
0001
0010
0000
0100
0000
,
2100
0000
0000
3010
0000
0000
0101
0000
,
1000
0010
0000
1000
0010
0000
0100
0000
,
0021
0000
0000
0130
0000
0000
1100
0000
,
1000
0001
0000
1000
0001
0000
0100
0000
,
0101
0101
0011
0011
,
0110
0110
1100
1100
,
1001
1001
1010
1010
,
0101
0101
0011
0011
,
0001
0000
0000
0100
0000
0000
0010
0000
0000
1000
0000
0000
1001
0000
0000
0000
,
1000
0000
0000
0001
0000
0000
0010
0000
0000
0001
0000
0000
0101
0000
0000
0000
,
0001
0000
0000
1000
0000
0000
0010
0000
0000
1000
0000
0000
2200
0000
0000
0000
,
0000
0000
0300
3000
,
1002
0000
0013
0200
0000
1300
0010
0200
,
0000
0310
1000
0002
0000
1000
1003
0000
,
0200
0000
0310
0002
0000
0013
0100
2000
,
0000
3100
1000
0010
1000
0010
1000
0100
,
2000
0000
3001
0020
0000
0130
0010
0002
,
0000
0103
0010
1000
0001
0100
0010
1000
,
0002
0000
0013
0002
0000
1003
0010
0200
,
0000
0310
1000
0200
0000
0310
0100
1000
,
1001
0000
0001
0020
0000
1030
0010
0002
,
0000
0013
0100
2000
0000
3010
0100
0001
,
0020
0000
0130
0020
0000
0031
0010
2000
,
0000
3010
0001
0100
0010
0100
0001
1000
,
0100
0000
1000
0020
0000
0031
0010
2000
,
0000
3010
0100
1000
0010
0100
0010
1000
,
0002
0000
1003
0020
0000
0031
0010
2000
,
0000
3100
0010
0100
1000
0001
0000
0100
;

//---------------dance-single - ----------------
#NOTES:
     dance-single:
     :
     Medium:
     6:
     0.376639,0.489368,0.242037,0.319834,0.051865,305.000000,277.000000,28.000000,37.000000,0.000000,0.000000,0.376639,0.489368,0.242037,0.319834,0.051865,305.000000,277.000000,28.000000,37.000000,0.000000,0.000000:
0000
0000
0000
0000
,
0000
0000
0000
0000
,
0000
0000
0000
0000
,
0000
0000
0000
0000
,
0000
0000
0000
0000
,
0001
0000
0000
0100
0000
0000
0001
0000
0000
0100
0000
0000
0101
0000
0000
0000
,
1000
0000
0000
0010
0000
0000
1000
0000
0000
0010
0000
0000
1010
0000
0000
0000
,
1000
0000
0000
0001
0000
0000
1000
0000
0000
0001
0000
0000
1001
0000
0000
0000
,
0020
0000
0030
0000
,
0201
0000
0000
0310
0000
0000
1000
0001
,
0000
0000
1000
0100
0000
0000
1000
0000
,
0102
0000
0013
0001
0000
0000
1000
0100
,
0000
0000
0010
0001
0100
0010
1000
0000
,
0001
0000
0001
1000
0000
0000
0001
0100
,
0000
0000
0001
1000
0000
0000
0100
0000
,
2000
0000
3010
1000
0000
0000
1000
0100
,
0000
0000
0010
0100
0000
0000
0020
0000
,
0031
0000
1000
0010
0000
0000
0100
0001
,
0000
0000
0001
1000
0000
0000
0100
0000
,
1000
0000
0000
0010
0000
0000
0100
0010
,
0000
0000
1000
0010
0000
0000
0100
0000
,
0001
0000
1000
0100
0000
0000
0100
0010
,
0000
0000
0010
0001
0000
0000
1000
0000
,
0001
0000
0100
0001
0000
0000
0001
0020
,
0000
0000
0000
0000
0000
0000
0000
0030
,
0100
0000
0010
0000
0001
0010
0001
0000
,
0010
0000
0100
0000
1000
0100
1000
0000
,
0001
0000
0100
0000
0010
1000
0010
0000
,
0100
0000
0010
0000
1000
0001
0100
0000
,
0001
0000
1000
0000
0100
0010
0001
0000
,
0010
0000
0100
0000
0100
1000
0010
0000
,
0100
0010
1000
0000
0001
1000
0000
0100
,
0000
1000
0010
0100
0001
1000
0000
0001
,
0000
1000
0100
0010
0001
0000
0001
0020
,
0000
0000
0200
0000
,
0000
0000
0000
0330
,
2000
3200
0320
0032
,
0003
1000
0010
1000
0010
0000
0100
0000
,
0000
0010
0100
0010
0100
0000
0001
0000
,
0100
0001
0100
0000
0010
0100
0000
0001
,
0000
1000
0000
0000
0000
0000
0000
0000
,
1001
0000
0000
0101
0000
0000
1010
0000
,
0000
0000
0000
0000
,
0000
0000
0000
0000
,
0000
0000
0000
0000
,
1010
0000
0000
0011
0000
0000
1001
0000
,
0000
0000
0000
0000
,
0000
0000
0000
0000
,
0000
0000
0000
0000
,
0101
0000
0000
1010
0000
0000
1001
0000
,
1000
0000
0000
1000
0000
0000
1000
0000
,
0101
0000
0000
0011
0000
0000
0110
0000
,
0100
0000
0000
0100
0000
0000
0100
0000
,
1100
0000
0000
0110
0000
0000
0011
0000
,
0001
0000
0000
0001
0000
0000
0001
0000
,
0101
0000
0000
1010
0000
0000
1001
0000
,
1000
0000
0000
1000
0000
0000
1000
0000
,
0001
0100
0010
1000
,
0001
0000
0100
0000
0010
0000
1000
0001
,
0010
0001
0100
0000
0010
0000
1000
0000
,
0001
0100
0010
1000
,
0001
0000
0000
0100
0000
0000
0010
0000
0000
1000
0000
0000
1001
0000
0000
0000
,
1000
0000
0000
0010
0000
0000
0100
0000
0000
0001
0000
0000
1001
0000
0000
0000
,
0001
0000
0000
0010
0000
0000
0100
0000
0000
1000
0000
0000
1001
0000
0000
0000
,
0200
0000
0300
0000
,
1001
0000
0001
2000
0000
0000
3100
0020
,
0000
0000
0031
0020
0000
0000
0130
0000
,
0010
0000
0001
0020
0000
0000
0130
2000
,
0000
0000
3010
0200
0000
0000
0310
0000
,
0100
0000
0001
2000
0000
0000
3100
0020
,
0000
0000
0130
2000
0000
0000
3100
0000
,
0010
0000
0001
0020
0000
0000
0031
0200
,
0000
0000
0310
2000
0000
0000
3002
0000
,
1003
0000
0001
0020
0000
0000
0031
0200
,
0000
0000
0310
2000
0000
0000
3100
0000
,
0010
0000
0001
0020
0000
0000
0031
0200
,
0000
0000
0310
0200
0000
0000
0301
0000
,
1000
0000
0001
0020
0000
0000
0031
2000
,
0000
0000
3001
0200
0000
0000
0310
0000
,
0100
0000
0010
2000
0000
0000
3010
0200
,
0000
0000
0310
0100
0001
1000
0000
1001
;

//---------------dance-single - ----------------
#NOTES:
     dance-single:
     :
     Easy:
     4:
     0.225983,0.314593,0.146951,0.146951,0.000000,183.000000,166.000000,17.000000,17.000000,0.000000,0.000000,0.225983,0.314593,0.146951,0.146951,0.000000,183.000000,166.000000,17.000000,17.000000,0.000000,0.000000:
0000
0000
0000
0000
,
0000
0000
0000
0000
,
0000
0000
0000
0000
,
0000
0000
0000
0000
,
0000
0000
0000
0000
,
0001
0000
0000
0000
,
0001
0000
0000
0000
,
0001
0000
0000
0000
,
0002
0000
0003
0000
,
1002
0000
0000
0103
0000
0000
0000
0100
,
0000
0000
0000
0200
0000
0000
0000
0300
,
0010
0000
0000
1000
0000
0000
0000
1000
,
0000
0000
0000
0002
0000
0000
0003
0000
,
1000
0000
0000
0100
0000
0000
0000
0100
,
0000
0000
0000
0200
0000
0000
0300
0000
,
0010
0000
0000
0001
0000
0000
0000
0001
,
0000
0000
0000
2000
0000
0000
3000
0000
,
0001
0000
0000
0100
0000
0000
0000
0100
,
0000
0000
0000
0200
0000
0000
0300
0000
,
0010
0000
0000
1000
0000
0000
0000
1000
,
0000
0000
0000
2000
0000
0000
3000
0000
,
0001
0000
0000
1000
0000
0000
0000
1000
,
0000
0000
0000
0200
0000
0000
0300
0000
,
0010
0000
0000
0100
0000
0000
0000
0200
,
0000
0000
0000
0000
,
0310
0001
1000
1001
,
0000
0001
1000
0010
,
0000
1000
0100
0110
,
0000
0010
0001
0100
,
0000
0001
1000
1001
,
0000
1000
0010
0100
,
0002
0103
0002
1003
,
0002
0013
0100
1000
,
0100
0000
1000
0000
0010
0000
0100
0020
,
0000
0000
0200
0000
,
0000
0000
0000
0330
,
0100
0010
1000
0001
,
0000
1000
0001
0100
,
0000
0001
1000
0010
,
1000
0000
0001
0000
,
0200
0000
0000
0000
,
0310
0000
0000
0100
0000
0000
1001
0000
,
0000
0000
0000
0000
,
0000
0000
0000
0000
,
0000
0000
0000
0000
,
0100
0000
0000
0010
0000
0000
1001
0000
,
0000
0000
0000
0000
,
0000
0000
0000
0000
,
0000
0000
0000
0000
,
0001
0000
0000
1000
0000
0000
1010
0000
,
1000
0000
0000
1000
0000
0000
0010
0000
,
0100
0000
0000
0001
0000
0000
0101
0000
,
0001
0000
0000
0001
0000
0000
1000
0000
,
0010
0000
0000
1000
0000
0000
1100
0000
,
0100
0000
0000
0100
0000
0000
0010
0000
,
0001
0000
0000
0010
0000
0000
0010
0000
,
0100
0000
0000
0100
0000
0000
1000
0000
,
0001
1000
0001
1000
,
0001
1000
0001
1000
,
0010
0100
0010
0100
,
0010
0100
0010
0100
,
0001
0000
0000
0000
,
0001
0000
0000
0000
,
0001
0000
0000
0000
,
0002
0000
0003
0000
,
1001
0000
0000
0001
0000
0000
0000
0100
,
0000
0000
0000
0010
0000
0000
0000
0000
,
1010
0000
0000
1000
0000
0000
0000
0010
,
0000
0000
0000
0100
0000
0000
0000
0000
,
1001
0000
0000
0001
0000
0000
0000
1000
,
0000
0000
0000
0100
0000
0000
0000
0000
,
0110
0000
0000
0010
0000
0000
0000
0001
,
0000
0000
0000
1000
0000
0000
0000
0000
,
0101
0000
0000
0001
0000
0000
0000
1000
,
0000
0000
0000
0010
0000
0000
0000
0000
,
1001
0000
0000
1000
0000
0000
0000
0100
,
0000
0000
0000
1000
0000
0000
0000
0000
,
1001
0000
0000
0001
0000
0000
0000
0100
,
0000
0000
0000
0010
0000
0000
0000
0000
,
0110
0000
0000
0100
0000
0000
0000
0010
,
0000
0000
1000
0000
0010
0100
0000
0001
;

//---------------dance-single - ----------------
#NOTES:
     dance-single:
     :
     Beginner:
     1:
     0.104965,0.173964,0.043221,0.000000,0.000000,85.000000,80.000000,5.000000,0.000000,0.000000,0.000000,0.104965,0.173964,0.043221,0.000000,0.000000,85.000000,80.000000,5.000000,0.000000,0.000000,0.000000:
// measure 0
0000
0000
0000
0000
,  // measure 1
0000
0000
0000
0000
,  // measure 2
0000
0000
0000
0000
,  // measure 3
0000
0000
0000
0000
,  // measure 4
0000
0000
0000
0000
,  // measure 5
1000
0000
0000
0000
,  // measure 6
1000
0000
0000
0000
,  // measure 7
1000
0000
0000
0000
,  // measure 8
0000
0000
0010
0010
,  // measure 9
1001
0000
0000
0000
,  // measure 10
0001
0000
0000
0000
,  // measure 11
1000
0000
0000
0000
,  // measure 12
0001
0000
0000
0000
,  // measure 13
0100
0000
0000
0000
,  // measure 14
0010
0000
0000
0000
,  // measure 15
1000
0000
0000
0000
,  // measure 16
0001
0000
0000
1000
,  // measure 17
0001
0000
0000
0000
,  // measure 18
0100
0000
0000
0000
,  // measure 19
0010
0000
0000
0000
,  // measure 20
1000
0000
0000
0000
,  // measure 21
0100
0000
0000
0000
,  // measure 22
1000
0000
0000
0000
,  // measure 23
0001
0000
0000
0000
,  // measure 24
0000
0000
0000
0000
,  // measure 25
0100
0000
0000
0000
,  // measure 26
0010
0000
0000
0000
,  // measure 27
1000
0000
0000
0000
,  // measure 28
0001
0000
0000
0000
,  // measure 29
0010
0000
0000
0000
,  // measure 30
0001
0000
0000
0000
,  // measure 31
1000
0000
0001
0000
,  // measure 32
1000
0000
0000
0000
,  // measure 33
0001
0000
0000
0000
,  // measure 34
0010
0000
0010
0000
,  // measure 35
0000
0000
0000
0000
,  // measure 36
0100
0100
0100
0100
,  // measure 37
0000
0000
0000
0000
,  // measure 38
1000
0000
0000
0000
,  // measure 39
0001
0000
1000
0000
,  // measure 40
0010
0000
0000
0000
,  // measure 41
0100
0000
0000
1001
,  // measure 42
0000
0000
0000
0000
,  // measure 43
0000
0000
0000
0000
,  // measure 44
0000
0000
0000
0000
,  // measure 45
0010
0000
0000
1001
,  // measure 46
0000
0000
0000
0000
,  // measure 47
0000
0000
0000
0000
,  // measure 48
0000
0000
0000
0000
,  // measure 49
1000
0000
0000
0000
,  // measure 50
0001
0000
0000
0000
,  // measure 51
1000
0000
0000
0000
,  // measure 52
0010
0000
0000
0000
,  // measure 53
1000
0000
0000
0000
,  // measure 54
0100
0000
0000
0000
,  // measure 55
1000
0000
0000
0000
,  // measure 56
0001
0000
0000
0000
,  // measure 57
1001
0000
0000
0000
,  // measure 58
0000
0000
0000
0001
,  // measure 59
1000
0001
0000
0000
,  // measure 60
0000
0000
0000
0000
,  // measure 61
1000
0000
0000
0000
,  // measure 62
0001
0000
0000
0000
,  // measure 63
0100
0000
0000
0000
,  // measure 64
0000
0000
0010
0010
,  // measure 65
1001
0000
0000
0000
,  // measure 66
1000
0000
0000
0000
,  // measure 67
0001
0000
0000
0000
,  // measure 68
0100
0000
0000
0000
,  // measure 69
0001
0000
0000
0000
,  // measure 70
0010
0000
0000
0000
,  // measure 71
0100
0000
0000
0000
,  // measure 72
1000
0000
0000
0001
,  // measure 73
1000
0000
0000
0000
,  // measure 74
0010
0000
0000
0000
,  // measure 75
0100
0000
0000
0000
,  // measure 76
0001
0000
0000
0000
,  // measure 77
1000
0000
0000
0000
,  // measure 78
0010
0000
0000
0000
,  // measure 79
0001
0000
0000
0000
,  // measure 80
0100
0000
0010
0000
;
