#TITLE:Six Shooter;
#SUBTITLE:;
#ARTIST:Coyote Kisses;
#TITLETRANSLIT:;
#SUBTITLETRANSLIT:;
#ARTISTTRANSLIT:;
#GENRE:;
#CREDIT:;
#BANNER:Six Shooter.png;
#BACKGROUND:Six Shooter-bg.png;
#LYRICSPATH:;
#CDTITLE:;
#MUSIC:Six Shooter.ogg;
#OFFSET:-5.908000;
#SAMPLESTART:94.211983;
#SAMPLELENGTH:12.000000;
#SELECTABLE:YES;
#BPMS:0.000000=162.000000
,208.000000=81.000000
,224.000000=162.000000
,254.000000=81.000000
,271.000000=162.000000
;
#STOPS:
;
#BGCHANGES:;
#KEYSOUNDS:;
#ATTACKS:;

//---------------dance-single - ----------------
#NOTES:
     dance-single:
     :
     Hard:
     9:
     0.573761,0.671868,0.363618,0.132225,0.185941,426.000000,44.000000,16.000000,0.000000,0.000000,0.000000,0.573761,0.671868,0.363618,0.132225,0.185941,426.000000,44.000000,16.000000,0.000000,0.000000,0.000000:
0000
0000
0001
0000
0010
0000
0100
0010
,
0100
1000
0001
0000
0010
0000
0100
0010
,
0000
0000
1100
0000
0101
0000
0001
1000
,
0100
1000
0001
0000
0010
0010
0001
1000
,
0100
0000
1000
0010
0000
0100
0001
0100
,
0000
0010
1000
0000
0001
0000
0010
0000
,
0100
1000
0010
0100
0001
0010
1000
0010
,
0100
0010
0001
0100
1000
0100
0010
1000
,
0001
1001
1010
1000
,
0001
0011
1100
1000
,
0001
0010
1000
0010
0100
0010
0001
0100
,
1000
0100
0010
1000
0001
0010
0100
1000
,
0001
0000
1000
0010
0000
0010
0100
0001
,
0000
0001
0010
0000
0110
0000
0000
0000
,
0100
1000
0010
0100
0001
0010
1000
0010
,
0100
0010
0001
1000
0010
0100
0001
1000
,
1010
0011
1010
0011
,
0101
1100
0101
1100
,
1000
0010
0100
0001
0010
0100
0010
0001
,
1000
1000
0001
0001
1000
0010
0100
0010
,
1000
0000
1002
0000
0003
0000
1000
0010
,
0100
0001
0010
0001
0000
0010
0100
1000
,
1001
0000
0110
0000
1001
0001
1000
0100
,
1000
0001
0010
0100
0000
0010
0001
1000
,
0010
0000
2010
0000
3000
0000
0010
1000
,
0100
1000
0001
0100
0000
0001
0010
0100
,
0010
0100
1000
0000
1010
0000
0101
0000
,
0001
0010
0100
0000
0010
0000
0100
1000
,
2001
0000
0020
0000
3030
0000
1000
0010
,
0100
0010
1000
0001
0000
0001
0010
0100
,
0110
0000
1001
0000
0110
0010
1000
0001
,
0010
0001
1000
0100
0000
1000
0010
1000
,
0001
0000
0020
0000
0030
0000
0100
1000
,
0010
0100
0001
0010
0000
0001
0010
0100
,
0010
0001
1000
0000
1001
0000
0101
0000
,
0001
1000
0100
0000
0010
0000
0100
0000
,
1000
0000
0010
0000
0100
0000
0010
1000
,
0001
0010
0001
0000
1000
0000
0100
0010
,
0000
0000
0100
0000
0010
0000
0100
1000
,
0010
0100
0001
0000
2000
0000
0000
0000
,
3000
0000
0101
0000
0011
0000
0001
0010
,
0001
1000
0100
0000
1000
0000
0010
0100
,
0000
0000
0101
0000
1100
0000
1000
0100
,
0001
0000
0100
0000
0010
0000
0100
1000
0001
0000
0100
0000
0001
0000
1000
0000
,
0000
0001
0100
0001
1000
0100
1000
0100
,
0000
0000
0000
0000
,
0000
1000
0100
1000
0010
0100
0001
0000
,
1001
0000
0000
0000
,
0000
0001
0010
0001
0100
0001
1000
0020
,
0000
0000
0000
0000
0000
0130
0001
2000
,
0000
0000
0000
3001
1000
0000
0100
1000
,
0000
0000
1000
0000
0100
0010
0100
0010
0100
1000
0100
1000
0001
0000
1000
0000
,
0100
0000
0100
0000
1000
0000
1000
0000
0001
1000
0001
0100
0000
0001
0100
0010
,
1000
0000
0010
0100
0001
0010
0100
1000
0001
0000
0000
1000
0100
0010
0100
1000
,
0000
0001
0100
0010
0100
0001
1000
0002
0000
0000
0000
0000
0000
0013
0100
2000
,
0000
0000
0000
3100
0010
0000
0010
0001
0000
0001
0010
0100
0010
0001
1000
0010
,
0110
0000
2002
0000
3003
0000
0001
1000
,
0010
1000
0100
0010
0000
0100
1000
0010
,
1010
0000
0101
0000
0011
0010
0100
0010
,
0001
1000
0010
0100
0000
0010
1000
0001
,
0020
0000
0200
0000
0330
0000
0100
1000
,
0010
0100
0001
0010
0000
0001
0010
0100
,
0010
0001
1000
0000
1010
0000
0101
0000
,
0001
0000
1000
0000
0001
0000
0000
0000
0020
0000
0000
0000
0130
0000
0000
1000
,
0100
0000
1000
0000
0000
0010
0100
0010
0000
0100
0010
0100
0001
0000
1000
0000
,
0100
1000
0010
0100
0001
1000
0001
0100
0000
0100
0010
1000
0001
0000
0002
0000
,
0003
0000
0100
0001
0001
0010
0100
1000
0000
0100
1000
0010
0100
0001
1000
0000
,
1010
0000
0101
0000
0001
0010
0100
0000
0010
0000
0110
0000
1001
0000
0000
0000
;

//---------------dance-single - ----------------
#NOTES:
     dance-single:
     :
     Medium:
     7:
     0.446259,0.503901,0.421467,0.206601,0.000000,302.000000,51.000000,25.000000,0.000000,0.000000,0.000000,0.446259,0.503901,0.421467,0.206601,0.000000,302.000000,51.000000,25.000000,0.000000,0.000000,0.000000:
0000
1001
1001
0001
,
1000
0010
0200
0300
,
0010
0000
1010
0000
0011
0000
0010
0100
,
1000
0100
0010
0000
0220
0000
0330
0000
,
0010
0000
0000
0001
0000
1000
0010
1000
,
0000
0010
0100
0000
0001
0000
1000
0000
,
0001
0010
1000
0010
,
0001
0100
1000
0100
,
0010
0000
0110
0000
1001
0000
0001
0100
,
0000
0010
1000
0000
1000
0000
0001
0000
,
0100
0010
1000
0010
,
0100
0001
1000
0010
0100
0001
1000
0100
,
0010
1100
2200
3300
,
0000
0011
1100
0000
,
0100
1000
0010
0001
,
0010
0100
0001
1000
,
1001
1001
1001
1001
,
0110
0110
0110
0110
,
1010
1010
0011
0011
,
1100
0000
0101
0000
1001
0000
0001
0010
,
0200
0020
0330
0100
,
0010
0001
1000
0010
,
0110
0101
0110
0001
,
1000
0100
0010
0100
0000
0000
0010
0001
,
2000
0020
3030
0001
,
0100
0010
1000
0001
,
0010
0100
1000
0000
0100
0000
1100
0000
,
1000
0001
0100
0000
0010
0000
0100
0001
,
2000
0002
3003
0001
,
0100
0001
0010
0100
,
0110
1001
0110
0100
,
0010
1000
0010
0100
0000
0000
0010
1000
,
0001
2002
3003
1000
,
0100
1000
0001
0100
,
0001
0010
0100
0000
0110
0000
1001
0000
,
0001
0100
0010
0000
0100
0000
0010
0000
,
0011
0000
0010
0000
0100
0000
1000
0100
,
0010
0001
0010
0000
0002
0000
0000
0000
,
0003
0000
1000
0000
0001
0000
0100
0001
,
1000
0100
0010
0000
0200
0000
0000
0000
,
0300
0000
0010
0000
0001
0000
1000
0001
,
0100
0001
2000
0000
3100
0000
1000
0100
,
0000
0000
1100
0000
0100
0000
0100
0010
,
0001
0010
0100
0000
0020
0000
0000
0000
,
0130
0000
1000
0000
0010
0000
0100
0010
,
0000
0000
0100
0010
0000
0000
0100
0010
,
0100
0001
1000
0010
,
1010
0000
0000
0000
,
0000
1000
0010
0100
0001
0010
0100
0020
,
0000
0000
0000
0000
0030
0100
1000
0100
,
0000
0000
0000
1000
0001
0000
0001
0100
,
0000
0000
0000
0000
,
0010
1000
0100
0001
0000
0100
0000
0010
,
0100
1000
0010
0100
0001
0000
0100
0001
,
0100
0010
1000
0001
0020
0000
0030
0000
,
0100
0000
0010
0000
0001
0010
0100
1000
,
1001
2002
3003
0001
,
0100
0001
0010
0100
,
1100
0101
1100
0001
,
1000
0001
0010
0100
0000
0000
0010
0001
,
2000
0020
3030
0010
,
0100
0001
0010
0100
,
1000
0100
0010
0000
0001
0000
0011
0000
,
0001
0010
0100
0000
2100
0000
3100
0000
,
1000
0000
0010
0100
0001
1000
0100
0100
,
1000
0010
0001
0010
0100
0001
0101
1020
,
0030
1000
0010
0100
0001
0010
0100
0010
,
0001
0011
0001
0100
0010
1001
0110
0000
;

//---------------dance-single - ----------------
#NOTES:
     dance-single:
     :
     Easy:
     5:
     0.349451,0.531895,0.280978,0.082641,0.000000,252.000000,34.000000,10.000000,0.000000,0.000000,0.000000,0.349451,0.531895,0.280978,0.082641,0.000000,252.000000,34.000000,10.000000,0.000000,0.000000,0.000000:
0000
0001
0001
1000
,
0001
1000
0010
1000
,
0000
0110
0110
0100
,
0010
1000
1001
0000
,
0001
0000
1000
0000
,
0010
0000
1000
0000
,
0010
0100
0001
0010
,
0001
1000
0100
0001
,
0000
0100
0200
0300
,
0000
0010
0020
0030
,
0100
1000
0010
0100
,
0001
0001
0001
1000
,
0000
1000
0002
0003
,
0000
0100
0010
0000
,
0100
0001
1000
0100
,
1000
0001
1000
0010
,
0100
0100
0100
0100
,
0001
0001
0001
0001
,
1000
0001
0100
0010
,
0110
0110
0110
0000
,
0010
0010
0000
0100
,
0001
1000
0100
1000
,
0001
1000
1001
0001
,
0010
1000
0100
1000
,
0010
0020
0030
0100
,
0001
1000
0100
1000
,
0001
0010
0110
0010
,
0001
1000
1001
0001
,
0101
0202
0303
0001
,
1000
0100
1000
0001
,
0100
0100
0010
1000
,
0001
0010
0100
0010
,
0001
2000
3000
0001
,
1000
0100
1000
0010
,
0100
0010
1010
1010
,
0010
0100
0101
0101
,
0000
0001
1000
0100
,
1000
1000
0010
0100
,
0000
0010
0100
0001
,
1000
1000
0100
0000
,
0000
1000
0001
0100
,
0001
0001
0010
0001
,
0000
1000
1000
0001
,
0100
0001
0010
0000
,
0100
0010
0001
1000
,
0001
0000
0000
0000
,
1000
0001
0100
0100
,
0001
0000
0000
0000
,
0000
0000
0100
0000
0010
0000
1000
0002
,
0000
0003
0000
1000
,
0001
0000
0000
0000
0100
0000
0000
0010
,
0000
1000
0010
0100
,
0001
1000
0100
1000
,
0010
0000
0100
0001
1000
0000
0100
0000
,
1000
0010
0100
0001
0010
0000
0100
0000
,
0010
0000
0001
1000
0010
0000
0100
0010
,
1001
1001
0000
0001
,
0100
0001
1000
0100
,
0110
1001
0110
0010
,
0100
0001
1000
0100
,
1100
0101
0000
0001
,
1000
0010
1000
0001
,
0010
0100
1100
1100
,
0100
0000
0010
0000
2002
3003
0101
0101
,
0000
0001
1000
0100
1000
0001
0100
0100
,
0010
1000
0010
0100
0001
0010
0110
0110
,
0000
0100
0010
0001
1000
0010
0100
0001
,
0101
0101
1000
0100
0110
1001
0110
0000
;

//---------------dance-single - ----------------
#NOTES:
     dance-single:
     :
     Beginner:
     3:
     0.165281,0.251950,0.016528,0.000000,0.000000,138.000000,2.000000,0.000000,0.000000,0.000000,0.000000,0.165281,0.251950,0.016528,0.000000,0.000000,138.000000,2.000000,0.000000,0.000000,0.000000,0.000000:
// measure 0
0000
1000
1000
0000
,  // measure 1
0001
0000
0100
0000
,  // measure 2
0000
0010
0010
0000
,  // measure 3
0100
0000
0001
0000
,  // measure 4
1000
0000
0000
0000
,  // measure 5
0001
0000
0000
0000
,  // measure 6
0100
0000
0010
0000
,  // measure 7
1000
1000
1000
0000
,  // measure 8
0001
0000
0000
0100
,  // measure 9
0000
0000
0001
0000
,  // measure 10
1000
0000
1000
0000
,  // measure 11
0010
0010
0010
0000
,  // measure 12
0100
0000
0000
0000
,  // measure 13
0001
0000
0000
0000
,  // measure 14
1000
0000
1000
0000
,  // measure 15
1000
1000
1000
0000
,  // measure 16
0010
0000
0010
0000
,  // measure 17
0100
0000
0100
0000
,  // measure 18
0001
0000
1000
0000
,  // measure 19
0010
0010
0010
0000
,  // measure 20
1001
0000
0000
0000
,  // measure 21
1000
0000
0000
0000
,  // measure 22
0001
0000
0001
0000
,  // measure 23
0100
0000
0000
0000
,  // measure 24
0001
0000
0000
0000
,  // measure 25
1000
0000
0000
0000
,  // measure 26
0100
0000
1000
0000
,  // measure 27
0010
0010
0010
0000
,  // measure 28
0100
0000
0000
0000
,  // measure 29
0001
0000
0000
0000
,  // measure 30
1000
0000
0001
0000
,  // measure 31
0100
0000
0000
0000
,  // measure 32
0001
0001
0000
0000
,  // measure 33
0100
0000
0000
0000
,  // measure 34
0010
0000
1000
0000
,  // measure 35
0001
0001
0010
0001
,  // measure 36
0000
1000
0000
0001
,  // measure 37
0000
0100
0100
0000
,  // measure 38
0000
0001
0000
1000
,  // measure 39
1000
0000
0001
0000
,  // measure 40
0000
1000
1000
0001
,  // measure 41
1000
1000
1000
0000
,  // measure 42
0000
0010
0010
0100
,  // measure 43
0010
0010
0010
0000
,  // measure 44
0100
0000
0000
0000
,  // measure 45
0000
0010
0000
0010
,  // measure 46
1000
0000
1000
0000
,  // measure 47
0001
0000
0000
0000
,  // measure 48
0000
1000
0000
0001
,  // measure 49
0000
0000
0000
0000
,  // measure 50
0100
0000
0010
0000
,  // measure 51
1000
0000
0000
0000
,  // measure 52
0001
0001
0001
0000
,  // measure 53
0000
1000
1000
0000
,  // measure 54
0010
0010
0010
0000
,  // measure 55
0100
0010
0100
0000
,  // measure 56
0010
0010
0000
0000
,  // measure 57
1000
0000
1000
0000
,  // measure 58
0001
0001
0001
0000
,  // measure 59
1000
1000
1000
0000
,  // measure 60
0010
0000
0000
0000
,  // measure 61
0100
0000
0000
0000
,  // measure 62
0001
0001
0001
0000
,  // measure 63
1000
1000
0010
0100
,  // measure 64
0000
0010
0000
1000
,  // measure 65
0000
0001
0000
0010
,  // measure 66
0000
0000
0001
0000
0000
0000
1000
1000
,  // measure 67
1000
0000
0001
0001
0001
0000
0110
0000
;
