#TITLE:Sigmund;
#SUBTITLE:;
#ARTIST:Gram;
#TITLETRANSLIT:;
#SUBTITLETRANSLIT:;
#ARTISTTRANSLIT:;
#GENRE:;
#CREDIT:;
#BANNER:Sigmund.png;
#BACKGROUND:Sigmund-bg.png;
#LYRICSPATH:;
#CDTITLE:;
#MUSIC:Sigmund.mp3;
#OFFSET:-1.754000;
#SAMPLESTART:97.734009;
#SAMPLELENGTH:9.599998;
#SELECTABLE:YES;
#BPMS:0.000000=100.000000
,32.000000=200.000000
,160.000000=100.000000
,176.000000=200.000000
,204.000000=100.000000
,206.000000=200.000000
,262.000000=100.000000
,266.000000=200.000000
;
#STOPS:
;
#BGCHANGES:;
#KEYSOUNDS:;
#ATTACKS:;

//---------------dance-single - ----------------
#NOTES:
     dance-single:
     :
     Hard:
     12:
     0.888684,1.000000,0.032400,0.105300,1.000000,751.000000,4.000000,13.000000,0.000000,0.000000,0.000000,0.888684,1.000000,0.032400,0.105300,1.000000,751.000000,4.000000,13.000000,0.000000,0.000000,0.000000:
0000
0000
0000
0000
,
0000
0000
0000
0000
,
0000
0000
0000
0000
,
0000
0000
0000
0000
,
1000
0000
0100
0000
0010
0000
0100
0010
0001
1000
0001
0000
1000
0001
0010
0001
,
0100
0000
0001
0000
1000
0000
0010
0100
0010
1000
0100
0000
0100
1000
0001
0100
,
0010
0000
1000
0000
0100
0000
0010
0001
0100
0010
1000
0000
0001
1000
0100
0010
,
0100
0000
0000
0010
0000
0000
0001
1000
0001
2000
0000
0000
3001
0010
0100
1000
0001
0010
0100
1000
0100
0020
0000
0000
,
0031
0100
0010
0000
0100
0010
1000
0010
,
0100
0001
1000
0000
0001
1000
0100
1000
,
0100
0010
0001
0000
0001
0010
0100
0010
,
0100
1000
0010
0000
0100
0001
0010
0100
,
0010
0001
1000
0000
0001
0010
0100
0010
,
0001
1000
0010
0000
0100
0010
1000
0001
,
1000
0100
0010
0000
0100
1000
0010
0100
,
1000
0000
0000
0100
0000
0000
0001
0000
0010
0000
0100
0010
0100
0000
1000
0000
,
0001
0000
0100
0000
0010
0000
0000
1000
0000
0001
0000
0010
0000
0100
0000
1000
,
0100
0000
0010
0000
0100
0000
0000
0010
0000
0001
0000
1000
0000
0010
0000
0100
,
0001
0000
1000
0000
0100
0000
0000
0010
0000
0100
0000
1000
0000
0001
0000
0100
,
0001
0000
0010
0000
0100
0000
0000
0010
0000
0001
0000
1000
0000
0010
0000
0100
,
0001
0000
1000
0000
0100
0000
0000
0010
0000
0010
0000
0001
0000
0001
0000
1000
,
0001
0000
0100
0000
0010
0000
0000
0100
0000
0100
0000
0010
0000
0010
0000
1000
,
0001
0000
0000
0010
0000
0000
0100
0000
1000
0000
0100
0000
0010
0001
0010
0001
,
0020
0000
0000
0000
,
0130
1000
0010
0100
0001
1000
0010
1000
,
0001
0100
0010
0100
0001
1000
0010
1000
,
0100
0010
0001
0010
0100
1000
0001
0100
,
0010
1000
0001
0010
0100
1000
0001
1000
,
0010
0100
0001
0100
1000
0100
0010
0001
,
0010
1000
0010
0100
0010
1000
0001
0010
,
0200
0000
0310
0200
0000
0310
0100
1000
,
0002
0000
1003
0002
0000
1003
0002
0000
,
1003
0100
0010
0001
0010
0100
0010
0001
,
0010
0100
1000
0100
0010
0100
1000
0001
,
1000
0010
1000
0001
0100
0001
0010
0100
,
0010
0001
1000
0100
0010
0100
1000
0001
,
0100
0001
0010
0100
1000
0100
0010
0100
,
1000
0001
0010
0001
1000
0100
0010
0100
,
1000
0000
0000
0010
0000
0000
0100
0000
0001
0000
0001
0000
1000
0100
1000
0100
,
0020
0000
0000
0032
0000
0000
2003
0000
,
3010
0000
0100
0000
0101
0000
0001
0100
0010
1000
0010
0000
0100
0010
1000
0000
,
0001
0000
0010
0000
1100
0000
0100
0010
0001
0010
0100
0000
0010
0001
1000
0000
,
0001
0000
0100
0000
1010
0000
1000
0100
0010
0001
0010
0000
0001
0010
0100
0000
,
1000
0000
0100
0000
0110
0000
0100
1000
0010
0100
0001
0000
1000
0001
0100
0000
,
0001
0000
1000
0001
0000
0001
1000
0100
0010
0100
1000
0001
,
0100
0000
0010
0100
0000
0100
0010
0100
0010
1000
0001
0010
,
0100
0000
1000
0100
0000
0100
1000
0100
1000
0010
0100
0001
,
0010
0000
0100
1000
0000
0100
0010
0001
1000
0010
0100
0001
,
1000
0100
0010
0001
1000
0100
0010
0001
1000
0100
0010
0001
,
1000
0001
0100
0010
1000
0001
0100
0010
1000
0001
0100
0010
,
1000
0010
0100
0010
1000
0001
0100
0010
0100
0001
1000
0100
,
0010
0001
0100
1000
0100
0010
1000
0001
0010
0100
0010
0001
1000
0000
0010
0000
0100
0000
0001
0000
0000
0000
0100
0000
,
0010
1000
0001
0010
0000
0100
0010
0001
1000
0010
0000
0100
,
0010
1000
0001
0010
0100
0010
0001
1000
0010
1000
0000
0010
,
0100
0001
0010
0100
0000
0010
0100
1000
0010
0100
0000
0010
,
1000
0001
0010
0001
0100
0010
1000
0001
0010
0100
0000
0010
,
0100
1000
0010
0100
0000
0010
1000
0001
0010
0001
0000
0010
,
0100
1000
0010
0100
0001
1000
0001
1000
0010
1000
0000
0001
,
1000
0010
1000
0001
0000
0001
1000
0100
1000
0100
0010
0100
,
0010
0001
0010
0001
0010
0100
1000
0000
1000
0100
0000
0100
,
0010
0000
0010
0001
0000
0001
0010
0000
0010
0100
0000
0100
,
1000
0000
1000
0100
1000
0010
0100
0000
0001
0100
0000
0010
,
1000
0000
1000
0100
0000
0010
0001
0000
0010
0100
0000
1000
,
0001
0010
0100
1000
0100
0010
0001
0000
0001
0100
0000
0100
,
0010
1000
0010
0100
0001
1000
0100
0000
0100
0010
0001
0010
,
0001
0000
0010
0000
0100
0000
1000
0000
0010
0000
0100
0000
0001
0010
0100
1000
0001
0010
0100
1000
0001
1000
0010
0100
,
0001
1000
0010
0000
1000
0001
0010
0000
0001
1000
0100
0000
1000
0001
0200
0000
0310
0000
0000
0000
0000
0000
1000
0000
0000
0000
0000
0000
0100
0000
0000
0000
,
0010
0000
0000
0001
0000
0000
0010
0000
0000
0100
1000
0100
1000
0000
0001
0000
,
0100
0010
0100
0000
0010
1000
0010
1000
0010
0000
0000
0100
0000
0000
0010
0000
,
1000
0000
0000
0001
0000
0000
0010
0000
0000
0100
1000
0001
1000
0000
0001
0000
,
0100
0010
0100
0000
0010
1000
0001
0010
0100
0000
0000
1000
0000
0000
0100
0000
,
0010
0000
0000
0001
0000
0000
0010
0000
0000
0100
1000
0100
1000
0000
0100
0000
,
0010
0001
0010
0000
0001
0100
0010
1000
0001
0100
0010
0000
0100
0000
0010
1000
,
0100
0000
0010
0000
0001
0010
0100
1000
0001
1000
0010
0100
0001
0000
1000
0000
,
0001
0100
0010
1000
0001
0010
0001
1000
0001
0000
0000
0001
0000
0000
0010
0000
,
0100
0000
0000
1000
0000
0000
0100
0000
0000
0010
0001
0010
0001
0000
1000
0000
,
0010
0100
0010
0000
0100
0001
0100
0001
0100
0000
0000
0010
0000
0000
0100
0000
,
0001
0000
0000
1000
0000
0000
0100
0000
0000
0010
0001
1000
0001
0000
1000
0000
,
0010
0100
0010
0000
0100
0001
1000
0100
0010
0000
0010
0000
0001
0000
0001
0000
,
1000
0000
1000
0000
0010
0000
0010
0000
0100
0001
0100
0000
0010
0000
1000
0010
,
1000
0000
0001
0000
0010
0100
0010
0100
0001
0000
1000
0001
0010
0000
0010
0100
,
1000
0001
1000
0010
0100
0001
0010
0100
1000
0010
0100
0001
0100
0001
0100
0001
,
0100
0001
0100
0001
0100
0001
1000
0001
0020
0000
0000
0000
0000
0000
0000
0000
,
0000
0000
0130
0000
;

//---------------dance-single - ----------------
#NOTES:
     dance-single:
     :
     Medium:
     9:
     0.615599,0.642531,0.048600,0.413099,0.291600,475.000000,6.000000,51.000000,0.000000,0.000000,0.000000,0.615599,0.642531,0.048600,0.413099,0.291600,475.000000,6.000000,51.000000,0.000000,0.000000,0.000000:
0000
0000
0000
0000
,
0000
0000
0000
0000
,
0000
0000
0000
0000
,
0000
0000
0000
0000
,
1000
0000
0100
0000
0010
0000
0001
0100
0001
0100
0001
0000
0100
0000
0000
0000
,
0010
0000
1000
0000
0010
0000
0100
0010
0100
0010
0100
0000
0010
0000
0000
0000
,
0100
0100
0001
0001
1000
1000
0100
0100
,
0010
0000
0001
0000
0010
0100
1000
0001
2000
0000
0000
0000
0000
0000
0000
0000
,
3010
1000
0100
1000
,
0010
0100
0010
0100
,
0001
0100
0001
0100
,
0001
0000
1000
0000
0001
0000
1000
0001
,
0100
0001
0100
0001
,
0100
0010
0100
0010
,
0100
0001
0100
0001
,
0100
0000
0000
0001
0000
0000
1000
0000
0100
0000
0000
0000
0010
0000
0001
0000
,
1000
0000
0100
0000
0010
0001
0010
0000
,
0001
0000
0100
0000
0010
1000
0010
0000
,
0100
0000
0010
0000
1000
0010
1000
0000
,
0010
0000
0100
0000
0001
1000
0010
0000
,
0100
0000
0010
0000
1000
0100
0001
0000
,
0100
0000
1000
0000
0010
0001
0010
0000
,
0100
0000
0000
0100
0000
0000
0100
0000
0010
0000
1000
0000
0100
0000
0010
0000
,
0002
0000
0000
0000
,
0013
0100
1000
0001
0000
0001
0100
0001
,
0000
0100
0010
0100
0000
0010
1000
0010
,
0000
1000
0100
1000
0000
0100
0010
0100
,
0000
0010
0001
0010
0000
0001
1000
0001
,
0000
1000
0010
0100
0000
0010
1000
0001
,
0000
0010
0100
1000
0000
0100
1000
0010
,
0200
0000
0310
0200
0000
0310
0200
0000
,
0302
0000
1003
0002
0000
1003
0002
0000
,
0103
0010
1000
0100
0000
0010
0001
0100
,
0000
0010
1000
0001
0000
0010
0100
1000
,
0100
0010
0001
0100
0000
0010
1000
0001
,
0000
1000
0100
0010
0000
0100
1000
0010
,
0100
0001
0010
0100
0000
0010
0001
0100
,
0000
0010
1000
0001
0000
0010
0100
1000
,
0002
0000
1003
0002
0000
1003
0010
0100
,
0002
0000
0013
0002
0000
0013
0002
0000
,
1003
0100
0001
0100
1000
0010
0000
1001
,
0001
0010
1000
0010
0100
0000
0000
1001
,
0001
0010
0100
0010
0001
0000
0000
1001
,
1000
0100
0001
0100
1000
0000
0000
1100
,
0200
0320
0032
0023
,
0230
0320
0032
0023
,
0230
2300
3200
0320
,
0230
2300
3200
0320
,
0032
2003
3002
2003
,
3020
2030
3020
2030
,
3020
0230
0320
2030
,
0002
0000
0000
0000
0000
0000
0000
0000
0000
3003
0000
0000
0001
0000
0000
0000
1000
0000
0100
0000
0000
0000
0000
0000
,
0010
0000
0001
0100
0000
0000
0010
0000
1000
0010
0000
0000
,
0100
0000
0010
1000
0000
1000
0001
0000
0010
0100
0000
0000
,
1000
0000
0100
0010
0000
0000
0001
0000
1000
0010
0000
0000
,
0100
0000
0001
0100
0000
0100
0010
0000
0010
1000
0000
0000
,
0001
0000
0010
0100
0000
0000
1000
0000
0100
0010
0000
0000
,
0001
0000
1000
0010
0000
0100
0001
0000
1000
0001
0000
0000
,
0010
0000
0100
1000
0000
0000
0100
0000
0010
0001
0000
0001
,
0010
0000
0010
0100
0000
0100
1000
0001
1000
0000
0000
0001
,
1000
0001
1000
0000
0000
1000
0001
1000
0001
0000
0000
0001
,
1000
0001
1000
0100
0010
0100
0010
0001
0010
0001
0000
0010
,
0100
0010
0100
0010
0000
0100
1000
0100
1000
0100
0000
0100
,
0020
0000
0000
0032
0000
0000
1003
0000
0001
0100
0000
0010
,
1000
0000
1000
0100
0000
0100
0010
0000
0010
0001
0000
0001
,
1000
0000
1000
0010
0100
0001
0020
0000
0000
0000
0000
0000
,
0230
0000
2300
0000
3020
0000
0230
0000
0301
0000
0000
1000
0000
0000
0100
0000
,
1000
0000
0000
0010
0000
0000
0100
0000
0000
0000
0010
0000
1000
0000
0010
0000
,
0100
0000
0001
0000
0010
0000
0100
0000
1000
0000
0000
0100
0000
0000
1000
0000
,
0001
0000
0000
0100
0000
0000
0010
0000
0000
0000
0100
0000
0001
0000
0010
0000
,
0001
0000
1000
0000
0100
0000
0010
0000
0001
0000
0000
0010
0000
0000
0001
0000
,
1000
0000
0000
0100
0000
0000
0010
0000
0000
0000
0100
0000
0010
0000
0001
0000
,
1000
0010
0100
0001
0010
0100
0000
0010
,
0100
0000
0010
0100
1000
0001
0000
1000
,
0001
0000
0000
0000
1000
0000
0001
0000
1000
0000
0000
0001
0000
0000
0010
0000
,
0001
0000
0000
0100
0000
0000
0010
0000
0000
0000
0100
0000
0001
0000
0100
0000
,
0010
0000
1000
0000
0100
0000
0010
0000
0001
0000
0000
0010
0000
0000
0001
0000
,
1000
0000
0000
0010
0000
0000
0100
0000
0000
0000
0010
0000
1000
0000
0100
0000
,
1000
0000
0001
0000
0010
0000
0100
0000
1000
0000
0000
0100
0000
0000
1000
0000
,
0001
0000
0000
0010
0000
0000
0100
0000
0000
0000
0010
0000
0100
0000
1000
0000
,
0001
0100
0010
1000
0001
0010
0100
1000
,
0001
0010
0100
1000
0100
0010
0001
0010
,
0100
1000
0100
0010
2002
0000
0000
0000
,
0000
0000
0000
3003
0110
0000
0000
0000
;

//---------------dance-single - ----------------
#NOTES:
     dance-single:
     :
     Easy:
     6:
     0.394585,0.405809,0.032400,0.307799,0.000000,299.000000,4.000000,38.000000,0.000000,0.000000,0.000000,0.394585,0.405809,0.032400,0.307799,0.000000,299.000000,4.000000,38.000000,0.000000,0.000000,0.000000:
0000
0000
0000
0000
,
0000
0000
0000
0000
,
0000
0000
0000
0000
,
0000
0000
0000
0000
,
1000
0000
0001
0000
0100
0001
0100
0000
,
0010
0000
1000
0000
0100
1000
0100
0000
,
1000
0000
0100
0000
0010
0001
0010
0000
,
0001
0010
0100
1000
0002
0000
0000
0000
,
1003
0001
0000
0001
,
0100
0010
0000
0100
,
0010
1000
0000
0010
,
0100
0001
0000
1000
,
0001
1000
0000
0100
,
1000
0010
0000
0100
,
0001
1000
0000
0010
,
0200
0000
0000
0300
,
0010
1000
0010
0010
,
1000
0001
0010
0010
,
0001
1000
0100
0100
,
1000
0001
0100
0100
,
0001
1000
0100
0010
,
0100
1000
0010
0100
,
0001
0100
0010
1000
,
0001
0000
0000
0000
,
1000
0000
0010
0100
0000
0000
0010
0100
,
0000
0000
0010
0100
0000
0000
0010
0100
,
0000
0000
0001
1000
0000
0000
0001
1000
,
0000
0000
0001
1000
0000
0000
0001
1000
,
0000
0000
0010
1000
0000
0000
0010
1000
,
0000
0000
0010
1000
0000
0000
1010
0000
,
0020
0000
0000
0230
0000
0000
0302
0000
,
2003
0000
0000
3200
0000
0000
0320
0000
,
0031
0000
0010
0100
0000
0000
0010
0100
,
0000
0000
0010
0100
0000
0000
0010
0100
,
0000
0000
0100
1000
0000
0000
0100
1000
,
0000
0000
0100
1000
0000
0000
0100
1000
,
0000
0000
1000
0001
0000
0000
1000
0001
,
0000
0000
1000
0001
0000
0000
1000
0001
,
0200
0000
0000
0320
0000
0000
2030
0000
,
3002
0000
0000
0023
0000
0000
0230
0000
,
2300
0000
3200
0320
,
0002
0000
0000
0030
0023
0000
0230
0000
,
2000
0000
0000
0300
3200
0000
0320
0000
,
0002
0000
0000
0030
2003
0000
3002
0000
,
1003
1000
1000
1000
,
0100
0100
0100
0100
,
1000
1000
1000
1000
,
0100
0100
0100
0100
,
0010
0010
0001
0001
,
0010
0010
0001
0001
,
1000
0100
0010
0001
,
2000
0000
3001
0100
,
0010
1000
0001
0010
,
0100
0100
0010
0001
,
1000
0010
0100
0001
,
1000
1000
0001
0010
,
0100
0010
0001
1000
,
0010
0010
1000
0001
,
0010
0100
1000
1000
,
1000
1000
0200
1000
,
0000
1000
2300
0000
,
3020
0000
0230
0001
,
0000
0010
0320
0000
,
2030
0000
3200
1000
,
0000
0010
0001
0320
,
0000
0230
0020
0000
,
0000
0000
0000
0330
1001
0000
0001
0000
,
1000
0010
1000
0001
,
0100
0001
0100
0001
1000
0000
0001
0000
,
0010
0100
0010
0001
,
1000
0001
1000
0001
1000
0000
0001
0000
,
0100
0001
0010
0100
,
1000
0000
0100
0000
1100
0000
0000
0011
,
0000
0000
1000
0000
0100
0000
0000
0010
,
0000
0001
1000
0001
,
0100
0010
1000
0001
,
0100
0010
0100
0010
0100
0000
0010
0000
,
1000
0001
0010
0100
,
1000
0100
1000
0100
1000
0000
0100
0000
,
0010
0001
0010
0100
,
1000
0000
0001
0000
0100
0001
0100
0000
,
0010
0100
0010
0000
1000
0010
1000
0000
,
0010
0100
0001
1000
0020
0000
0000
0000
,
0000
0000
0130
0000
;

//---------------dance-single - ----------------
#NOTES:
     dance-single:
     :
     Beginner:
     3:
     0.247628,0.371992,0.315899,0.040500,0.000000,170.000000,39.000000,5.000000,0.000000,0.000000,0.000000,0.247628,0.371992,0.315899,0.040500,0.000000,170.000000,39.000000,5.000000,0.000000,0.000000,0.000000:
// measure 0
0000
0000
0000
0000
,  // measure 1
0000
0000
0000
0000
,  // measure 2
0000
0000
0000
0000
,  // measure 3
0000
0000
0000
0000
,  // measure 4
1000
0000
0001
1000
,  // measure 5
0100
0000
0100
0010
,  // measure 6
0001
0000
1000
0001
,  // measure 7
0100
0000
0010
0000
,  // measure 8
0100
0000
0000
0000
,  // measure 9
0010
0000
0000
0000
,  // measure 10
1000
0000
0000
0000
,  // measure 11
0001
0000
1000
0000
,  // measure 12
0001
0000
0000
0000
,  // measure 13
0100
0000
0000
0000
,  // measure 14
0010
0000
0000
0000
,  // measure 15
1001
0000
0010
0000
,  // measure 16
1001
0000
0001
0001
,  // measure 17
0001
0000
1000
1000
,  // measure 18
1000
0000
0010
0010
,  // measure 19
0010
0000
0100
0000
,  // measure 20
0010
0100
0000
0100
,  // measure 21
0000
0010
0000
0010
,  // measure 22
0100
0000
0010
0000
,  // measure 23
1001
0000
0000
0000
,  // measure 24
0000
1000
0000
1000
,  // measure 25
0000
1000
0000
1000
,  // measure 26
0000
0010
0000
0010
,  // measure 27
0000
0010
0000
0010
,  // measure 28
0000
0100
0000
0100
,  // measure 29
0000
0100
0000
0100
,  // measure 30
0002
0000
0000
0003
,  // measure 31
2000
0000
0000
3000
,  // measure 32
0000
0010
0000
0010
,  // measure 33
0000
0010
0000
0010
,  // measure 34
0100
0100
0000
0100
,  // measure 35
0000
0100
0000
0100
,  // measure 36
0001
1000
0000
0001
,  // measure 37
0000
0100
0000
0010
,  // measure 38
2000
0000
0000
3000
,  // measure 39
0002
0000
0000
0003
,  // measure 40
1000
0000
0001
1000
,  // measure 41
0100
0000
0010
0001
,  // measure 42
1000
0000
0001
1000
,  // measure 43
0010
0000
0100
0010
,  // measure 44
1001
0000
0000
0000
,  // measure 45
0110
0000
0000
0000
,  // measure 46
1001
0000
0000
0000
,  // measure 47
0110
0000
0000
0000
,  // measure 48
1001
0000
1001
0000
,  // measure 49
0110
0000
0110
0000
,  // measure 50
1001
0110
1001
0110
,  // measure 51
1001
0000
0001
0000
,  // measure 52
0001
0000
0001
0000
,  // measure 53
0001
1000
0010
0000
,  // measure 54
0010
0000
0010
0000
,  // measure 55
0010
0100
0001
0000
,  // measure 56
1000
0000
0001
0000
,  // measure 57
1000
0001
0100
0000
,  // measure 58
0010
0000
0100
0100
,  // measure 59
0010
0010
1001
0000
,  // measure 60
0110
0000
1001
0000
,  // measure 61
0110
0110
1001
0000
,  // measure 62
0110
0000
1001
0000
,  // measure 63
0110
0110
1001
0000
,  // measure 64
0110
0000
1001
0000
,  // measure 65
0110
0110
1001
0000
,  // measure 66
0000
0000
1000
0000
,  // measure 67
0001
0000
0100
0000
,  // measure 68
0010
1000
0010
0000
,  // measure 69
0100
0000
0001
0000
,  // measure 70
1000
0001
0100
0000
,  // measure 71
0010
0000
0100
0000
,  // measure 72
0010
0000
1000
0000
,  // measure 73
1000
0000
0001
0000
,  // measure 74
0001
0000
1000
0000
,  // measure 75
0001
0000
0100
0100
,  // measure 76
0010
0000
0100
0000
,  // measure 77
0010
0000
1000
1000
,  // measure 78
0001
0000
1001
0000
,  // measure 79
0010
0000
1001
0000
,  // measure 80
0100
0000
1001
0000
,  // measure 81
0110
0000
1001
0000
,  // measure 82
0110
0000
0002
0000
,  // measure 83
0000
0003
1001
0000
;
