#VERSION:0.83;
#TITLE:Sick Seduction;
#SUBTITLE:;
#ARTIST:Ephexis;
#TITLETRANSLIT:;
#SUBTITLETRANSLIT:;
#ARTISTTRANSLIT:;
#GENRE:;
#ORIGIN:;
#CREDIT:;
#BANNER:Sick Seduction.png;
#BACKGROUND:Sick Seduction-bg.png;
#PREVIEWVID:;
#JACKET:Sick Seduction-jacket.png;
#CDIMAGE:;
#DISCIMAGE:;
#LYRICSPATH:;
#CDTITLE:;
#MUSIC:Sick Seduction.mp3;
#OFFSET:-0.070000;
#SAMPLESTART:42.154263;
#SAMPLELENGTH:11.403511;
#SELECTABLE:YES;
#BPMS:0.000=171.000,
216.000=85.500,
240.000=171.000;
#STOPS:;
#DELAYS:;
#WARPS:;
#TIMESIGNATURES:0.000=4=4;
#TICKCOUNTS:0.000=4;
#COMBOS:0.000=1;
#SPEEDS:0.000=1.000=0.000=0;
#SCROLLS:0.000=1.000;
#FAKES:;
#LABELS:0.000=Song Start;
#BGCHANGES:;
#KEYSOUNDS:;
#ATTACKS:
;

//---------------dance-single - ----------------
#NOTEDATA:;
#CHARTNAME:;
#STEPSTYPE:dance-single;
#DESCRIPTION:;
#CHARTSTYLE:;
#DIFFICULTY:Hard;
#METER:10;
#RADARVALUES:0.665844,1.092788,0.455328,0.289754,0.509140,563.000000,508.000000,55.000000,35.000000,0.000000,0.000000,4.000000,0.000000,0.000000,0.665844,1.092788,0.455328,0.289754,0.509140,563.000000,508.000000,55.000000,35.000000,0.000000,0.000000,4.000000,0.000000,0.000000;
#CREDIT:;
#NOTES:
0000
0000
0000
0000
,
0000
0000
0000
0000
,
1001
0000
1000
0010
0100
0000
0001
0100
,
0010
0000
0100
0001
1000
0000
0100
0000
,
0010
0000
0001
1000
0100
0000
1000
0010
,
0100
0000
0001
0010
0100
0000
0020
0000
,
0031
0000
1000
0010
0100
0000
0010
1000
,
0001
0000
1000
0100
0010
0000
0100
0000
,
1000
0000
0001
0100
0010
0000
0100
0001
,
0010
0000
0100
1000
0001
0000
2010
0000
,
3001
0100
0010
1000
0001
0010
0001
1000
,
0100
0000
0000
0010
0001
0000
0000
0001
0100
0000
0000
0100
0010
0000
0000
0010
,
1000
0001
1000
0001
1000
0000
0000
0000
0010
0100
0010
0100
0010
0000
0000
0000
,
2010
0000
3002
0000
0103
0010
2000
0000
,
3100
0000
0010
0002
0100
0000
1003
0000
,
0010
0100
0000
0001
0100
0000
0010
0000
,
0100
0000
0001
1000
1100
0000
1100
0000
,
1000
0000
0000
1000
0001
0000
0000
0001
0100
0000
0000
0100
0010
0000
1000
0001
,
1000
0000
0001
0200
0010
0000
0301
0000
,
1000
0000
0001
0000
0000
0000
1000
0000
0100
0000
0000
0000
0010
0000
0000
0100
,
1000
0000
0000
0000
0001
0000
0000
0000
0100
0010
0100
0010
0000
0000
0000
0000
,
0100
0000
0001
0000
0000
0000
0001
0000
1000
0001
1000
0000
0001
1000
0001
0000
,
0100
0000
0010
2000
0100
0000
3001
0000
,
1000
0010
0000
0010
0100
0000
0001
0000
,
0010
0100
1100
0011
,
0001
0000
0000
1000
0010
0000
0000
0100
0001
0000
0000
1000
0010
1000
0001
1000
,
0001
0000
0010
0100
1000
0100
0010
0001
,
0100
0001
0100
0010
1000
0010
1000
0001
1000
0001
0010
0001
1000
0100
1000
0004
,
4000
0000
0000
3003
,
0102
0013
2100
3010
,
1001
0000
0001
0200
0000
0310
2000
0000
,
3100
0010
0100
1000
0002
0023
0200
0330
,
0100
1000
0101
0011
,
0001
0000
0000
1000
0010
0000
0000
0010
0100
0000
0000
0100
0010
0000
1000
0000
,
0001
0000
0010
0000
1000
0000
0010
0000
0100
0000
1000
0000
0001
0000
0000
1000
,
0100
1000
0010
0100
0002
2003
3020
0000
,
0130
0000
0001
0000
0010
0000
1000
0000
0000
0000
0010
0100
1000
0000
0001
0000
,
0000
0000
1000
0010
0100
0000
0001
0000
0010
0100
1000
0000
1001
0000
0000
0000
,
1010
0000
1000
0020
0000
0130
0002
0000
,
0013
0000
0100
0000
2000
3200
0002
0303
,
0100
0010
0011
1100
,
1000
0000
0000
0001
0010
0000
0000
0001
1000
0000
0000
1000
0100
1000
0001
1000
,
0001
0000
0100
0001
0010
0001
1000
0100
,
0010
0001
0100
0010
1000
0001
0010
0001
1000
0100
1000
0010
0100
0001
0010
0100
,
4000
0004
0000
0000
0000
0000
0000
0000
0000
0000
0000
0000
0000
0000
3003
0000
,
1001
0000
0001
0100
1001
0010
1001
0000
,
0110
0000
0000
0000
,
0000
0000
0000
0000
,
0000
0000
0000
0000
,
0020
0000
0000
0000
0000
0000
0230
0300
,
2002
0000
0000
0000
0000
0000
0000
3000
,
0000
0000
0003
0000
,
0000
1000
0100
0001
0100
0000
0010
0001
,
0100
0000
0010
1000
0001
0010
0100
0000
,
0010
0010
0100
1000
0001
0000
0000
0000
0000
1000
0000
0010
0100
0000
0001
0000
,
1000
0000
0000
0000
0100
0000
1000
0000
0000
0010
0000
0100
0001
0000
1000
0000
,
0001
0100
0001
0000
0010
0000
0000
0000
0100
1000
0100
0000
0010
0000
0000
0000
0001
1000
0001
0000
0100
0000
0000
0000
0010
1000
0010
0000
0100
0000
0000
0000
,
0010
0001
0010
0000
0100
0000
0000
0000
1000
0001
1000
0000
0010
0000
0000
0000
0100
0001
0100
0000
0010
0000
0000
0000
0100
1000
0100
0000
0010
0000
0000
0000
,
0001
1000
1000
0001
1000
1000
0001
0000
0000
1000
0000
0001
1000
0000
0010
0000
,
0100
0100
0010
0100
0100
0010
0100
0000
0001
0000
0100
0000
0010
0000
1000
0000
,
2002
0000
0000
0000
0000
0000
0000
3003
,
0001
0100
0010
1000
0001
0100
0010
1000
0001
0100
0010
1000
0001
0100
0010
1000
,
0001
0010
0100
0010
0001
0100
0010
1000
0100
0010
0100
1000
0001
0100
0010
1000
,
0200
0000
0000
0300
,
0110
0011
0110
0011
,
0110
0011
0110
0011
,
1010
0011
1010
0011
,
1100
0101
1100
0101
,
1001
0000
0001
0000
1000
0010
0000
1000
0010
0000
1000
0000
0100
0000
1000
0000
,
0000
0000
0000
0000
0100
0010
0000
0010
0100
0000
1000
0000
0001
0000
1000
0000
,
0000
0000
0000
0000
0001
0100
0000
0100
0001
0000
0010
0000
0100
0000
0010
0000
,
0000
0000
0000
0000
0100
1000
0000
1000
0100
0000
0010
0000
0001
1000
0001
1000
,
1001
1001
1010
1010
,
1100
1100
0011
0011
,
0101
1010
0101
1010
,
1100
0011
1100
0011
,
0001
0100
0010
1000
0100
1000
0010
0100
0001
1000
0100
0010
0100
1000
0010
0100
,
0001
1000
0100
0010
0001
0010
0100
0010
0001
0100
0010
1000
0100
1000
0010
0100
,
0020
0000
0000
0030
0020
0030
0020
2030
,
0002
0000
0000
0000
,
3003
0000
0000
0000
;

//---------------dance-single - ----------------
#NOTEDATA:;
#CHARTNAME:;
#STEPSTYPE:dance-single;
#DESCRIPTION:;
#CHARTSTYLE:;
#DIFFICULTY:Easy;
#METER:6;
#RADARVALUES:0.392647,0.594203,0.240082,0.273197,0.000000,332.000000,303.000000,29.000000,33.000000,0.000000,0.000000,0.000000,0.000000,0.000000,0.392647,0.594203,0.240082,0.273197,0.000000,332.000000,303.000000,29.000000,33.000000,0.000000,0.000000,0.000000,0.000000,0.000000;
#CREDIT:;
#NOTES:
0000
0000
0000
0000
,
0000
0000
0000
0000
,
1001
0001
0010
0001
,
1000
0010
1000
0001
,
1000
0100
1000
0001
,
0100
0001
1000
0200
,
0310
0001
0010
0100
,
0010
0001
0010
0100
,
1000
0100
0010
0100
,
1000
0100
0010
0002
,
0013
0001
0100
0010
,
1000
0001
0100
0010
,
1000
0001
1000
0000
0001
1000
0001
0000
,
2000
3100
0002
0103
,
0010
0000
0100
0001
2000
0000
3001
0000
,
1000
0100
1000
0010
,
0100
0001
1001
1001
,
0001
1000
0100
1000
,
0010
0000
0100
0001
0200
0000
0301
0000
,
0100
0010
1000
0100
,
1000
0000
1001
0000
0001
0001
0001
0000
,
1000
0000
0010
0000
0100
0000
0001
1000
,
0001
0000
1000
0010
2000
0000
3010
0000
,
0100
0001
0010
0100
,
0010
0001
1001
1001
,
0001
0100
0010
1000
,
0001
0000
0100
0001
0200
0000
0310
0000
,
0100
0010
1000
0001
,
2000
0000
3002
0000
,
2000
0000
0000
3003
,
0001
0000
0100
0001
0000
2000
0000
0000
,
3200
0000
0000
0000
0310
0001
0020
0000
,
0030
0000
0011
0011
,
0002
0000
0103
0000
0200
0000
0310
1000
,
0100
0000
0100
0010
0000
0002
0000
0000
,
0003
0000
0000
0000
1000
0001
0200
0000
,
0310
1000
0010
0100
,
0001
0000
1000
0000
0001
1000
0001
0000
,
1000
0000
0100
1000
0000
0010
0000
0000
,
0200
0000
0000
0000
0310
0100
0002
0000
,
0003
0000
1001
1001
,
2000
0000
0000
0000
3002
0000
0000
0103
,
0001
0000
0100
0010
0000
1000
0000
0000
,
0020
0000
0000
0000
0130
0001
2000
0000
,
3010
0000
0100
0000
0001
0000
1000
0001
,
0100
0000
0001
0100
0010
1000
0001
0000
,
1001
0000
0000
0000
,
0000
0000
0000
0000
,
0000
0000
0000
0000
,
0020
0000
0000
0230
,
0301
0000
0000
0000
,
0000
0000
0000
0000
,
1000
0100
1000
0010
,
0100
0000
0001
0000
0010
0100
1000
0000
,
0001
1000
0001
1000
0001
1000
0001
1000
,
0010
0100
0010
0100
0001
0100
0001
0100
,
0001
1000
0100
1000
,
0010
0100
0001
0100
,
0010
1000
0010
1000
0010
1000
0010
1000
,
0001
0100
0001
0100
0001
0100
0001
0100
,
2002
0000
0000
0000
,
0000
0000
0000
3003
,
1000
0100
0010
0001
1000
0100
0010
0002
,
2000
0000
0000
3003
,
0001
1000
0001
1000
,
0001
1000
0001
1000
,
0010
1000
0010
1000
,
0010
0100
0010
0100
,
0001
0000
0100
0000
0001
1000
0001
0000
,
1000
0000
0100
0000
0010
0001
0010
0000
,
0001
0000
0100
0000
0010
0100
0010
0000
,
0100
0000
0001
0000
1000
0000
0001
1000
,
1001
1001
1001
1001
,
1001
1001
1001
1001
,
0110
0110
0110
0110
,
1001
1001
1001
1001
,
0110
0000
0000
0100
0010
0000
0100
0010
,
0000
0200
0000
0000
0000
0000
0000
0000
,
0310
0000
1000
0002
,
2000
0000
0000
3003
;

//---------------dance-single - ----------------
#NOTEDATA:;
#CHARTNAME:;
#STEPSTYPE:dance-single;
#DESCRIPTION:;
#CHARTSTYLE:;
#DIFFICULTY:Medium;
#METER:7;
#RADARVALUES:0.464790,0.594203,0.405656,0.289754,0.000000,393.000000,344.000000,49.000000,35.000000,0.000000,0.000000,6.000000,0.000000,0.000000,0.464790,0.594203,0.405656,0.289754,0.000000,393.000000,344.000000,49.000000,35.000000,0.000000,0.000000,6.000000,0.000000,0.000000;
#CREDIT:;
#NOTES:
0000
0000
0000
0000
,
0000
0000
0000
0000
,
1001
0000
0001
0100
0001
0000
0100
0001
,
0100
0000
0001
0100
0001
0000
1000
0000
,
0100
0000
1000
0100
1000
0000
0100
1000
,
0100
0000
1000
0100
1000
0000
0020
0000
,
0130
0000
0001
1000
0001
0000
1000
0001
,
1000
0000
0001
1000
0001
0000
1000
0000
,
0010
0000
0100
0010
0100
0000
0010
0100
,
0010
0000
0100
0010
0100
0000
0002
0000
,
1003
0010
0100
0001
,
1000
0010
0100
0000
0001
0100
0010
0000
,
1000
0001
1000
0000
0001
1000
0001
0000
,
0102
0013
2100
3010
,
1000
0000
0001
0100
0020
0000
0130
0000
,
0001
1000
0000
1000
0001
0000
1000
0000
,
0100
0010
0011
0011
,
0001
0000
0010
0000
0100
0000
1000
0001
,
0010
0000
0100
0010
0002
0000
1003
0000
,
0001
0100
0000
0100
0010
0000
0100
0000
,
0001
0000
1000
0000
0001
0001
0001
0000
,
1000
0000
0010
0000
0100
0001
0100
0010
,
1000
0000
0001
0010
0200
0000
0310
0000
,
0001
0010
0000
0010
0001
0000
0100
0000
,
0010
1000
1010
0101
,
0001
0000
1000
0000
0001
0000
0010
0001
,
0100
0000
0010
1000
0002
0000
1003
0000
,
0001
0010
0100
1000
0001
0010
0100
4000
,
0004
0000
0000
3003
,
0001
0100
0010
1000
,
0001
0000
0100
0010
0000
1000
0000
0000
,
0200
0000
0000
0000
1300
0001
0020
0000
,
0130
0010
0011
0101
,
0001
0000
0100
0000
0010
0000
0100
0001
,
0100
0010
1000
0100
0010
0001
0010
0000
,
0200
0000
0000
0000
1300
0100
0020
0000
,
0030
0100
0010
0001
0000
0001
0010
1000
,
0000
1000
0010
0001
0100
0010
1001
0000
,
1000
0000
0100
1000
0000
0001
0000
0000
,
0020
0000
0000
0000
0130
0010
0002
0000
,
1003
0010
0110
1010
,
0010
0000
1000
0000
0001
0000
1000
0001
,
0100
0000
0010
1000
0001
1000
0100
0010
,
0001
0010
0100
0010
0001
1000
0010
0000
,
0000
1000
0010
0001
0010
0000
1000
0100
,
0001
0000
0001
0100
0010
0001
1000
0000
,
1001
0000
0000
0000
,
0000
0000
0000
0000
,
0000
0000
0000
0000
,
0200
0000
0000
0310
,
2002
0000
0000
0003
,
0000
0000
3000
0000
,
0000
0001
0010
0100
1000
0000
1000
0100
,
0010
0000
0001
0010
0100
1000
0100
0000
,
0010
0001
0100
0010
1000
0001
0010
0001
,
0100
0010
1000
0100
0010
0001
0010
0001
,
2000
3002
0203
0320
,
2030
3200
0320
0032
,
0013
0010
0010
0010
0010
0010
0010
0010
,
0100
0100
0100
0100
1000
1000
1000
1000
,
1001
0000
0000
0000
,
4004
0000
0000
0000
,
0000
0000
0000
0000
,
0000
0000
0000
3003
,
1010
1010
1010
1010
,
1010
1010
1010
1010
,
0101
0101
0101
0101
,
0011
0011
0011
0011
,
0020
0000
0230
0000
1300
0100
0010
0001
,
0020
0000
0230
0000
1300
0100
0010
0001
,
0020
0000
0230
0000
1300
0100
0010
0001
,
0020
0000
0230
0000
1300
0100
0010
0001
,
0011
0011
0011
0011
,
0011
0011
0011
0011
,
1100
1100
1100
1100
,
1010
0101
1010
0101
,
4004
0000
0000
0000
,
0000
0000
0000
3003
,
1000
0000
0000
0000
0010
0000
0100
0002
,
2000
0000
0000
3003
;

//---------------dance-single - ----------------
#NOTEDATA:;
#CHARTNAME:;
#STEPSTYPE:dance-single;
#DESCRIPTION:;
#CHARTSTYLE:;
#DIFFICULTY:Beginner;
#METER:2;
#RADARVALUES:0.178583,0.258295,0.115902,0.000000,0.000000,151.000000,137.000000,14.000000,0.000000,0.000000,0.000000,0.000000,0.000000,0.000000,0.178583,0.258295,0.115902,0.000000,0.000000,151.000000,137.000000,14.000000,0.000000,0.000000,0.000000,0.000000,0.000000,0.000000;
#CREDIT:;
#NOTES:
0000
0000
0000
0000
,
0000
0000
0000
0000
,
0001
0000
0000
0000
,
1000
0000
0000
0000
,
0001
0000
0000
0000
,
1000
0000
0000
0010
,
1000
0000
0000
0000
,
0001
0000
0000
0000
,
1000
0000
0000
0000
,
0001
0000
1000
0000
,
0100
0000
0010
0000
,
0001
0000
1000
0000
,
0001
0001
1000
1000
,
0010
0000
0000
0000
,
0000
0100
0100
0000
,
0000
0010
0000
0100
,
0000
0001
0000
1000
,
0000
0000
0000
0001
,
1001
1000
1000
0000
,
0000
0001
0000
0001
,
1000
0001
0001
0000
,
0100
0000
0010
0010
,
0100
0000
0010
0000
,
1000
0000
1000
0000
,
0001
0000
1000
1000
,
0010
0000
0100
0000
,
0010
0100
0100
0000
,
0010
0000
1000
0000
,
1001
0000
0000
0000
,
1001
0000
0000
0000
,
0001
0000
0000
0000
,
1000
0000
0001
0001
,
1000
0000
0010
0010
,
0100
0000
0000
0010
,
0010
0000
0000
0000
,
0100
0000
0001
0001
,
1000
0000
0001
0000
,
0100
0000
0010
1001
,
1001
0000
0000
0000
,
0100
0000
0010
0010
,
0000
0000
0100
0100
,
0000
0000
0000
0001
,
1000
0000
0000
0000
,
0001
0000
1000
0000
,
0010
0000
0100
0000
,
0010
0000
0100
0010
,
1001
0000
0000
0000
,
0000
0000
0000
0000
,
0000
0000
0000
0000
,
1000
0000
0000
0010
,
1001
0000
0000
0000
,
0000
0000
0000
0000
,
0000
0000
0000
0000
,
0000
0000
0000
0000
,
0001
0000
0100
0000
,
0001
0000
1000
0000
,
0010
0000
0000
0000
,
0010
0000
0000
0000
,
0100
0000
0100
0000
,
0001
0000
0001
0000
,
1000
0000
0000
0000
,
0001
0000
0000
0000
,
0100
0000
0010
0000
,
1001
0000
0000
0000
,
1000
0000
1000
0000
,
1000
0000
1000
0000
,
0010
0000
0010
0000
,
0100
0000
0100
0000
,
0001
0001
0001
0000
,
1000
1000
1000
0000
,
0010
0010
0010
0000
,
0100
0100
0100
0000
,
1001
0000
0001
0000
,
1001
0000
1000
0000
,
0110
0000
0010
0000
,
0110
0000
0100
0000
,
0110
0000
0010
0000
,
0100
0000
0000
0000
,
1001
0000
0000
0000
;

//---------------dance-single - ----------------
#NOTEDATA:;
#CHARTNAME:;
#STEPSTYPE:dance-single;
#DESCRIPTION:;
#CHARTSTYLE:;
#DIFFICULTY:Challenge;
#METER:13;
#RADARVALUES:0.994626,1.821313,0.471886,0.819591,1.262501,841.000000,784.000000,57.000000,99.000000,0.000000,0.000000,2.000000,0.000000,0.000000,0.994626,1.821313,0.471886,0.819591,1.262501,841.000000,784.000000,57.000000,99.000000,0.000000,0.000000,2.000000,0.000000,0.000000;
#CREDIT:;
#NOTES:
// measure 0
0000
0000
0000
0000
,  // measure 1
0000
0000
0000
0000
,  // measure 2
0101
0000
0001
0000
0010
0000
0100
1000
0000
0100
1000
0000
0001
0000
0100
0010
,  // measure 3
0000
0010
0100
0000
0001
0000
0010
0100
0000
0010
0100
1000
0010
0000
0100
0001
,  // measure 4
1000
0000
0001
0000
0010
0000
0100
1000
0000
1000
0010
0000
0100
0000
0001
0010
,  // measure 5
0000
0000
0100
0000
1000
0000
0000
0000
0010
0000
0000
0000
0100
0000
0001
0000
0010
0000
0000
0000
0100
0000
1000
0000
0002
0000
1000
0003
0002
0000
1000
0003
,  // measure 6
0001
0100
0010
0000
1000
0000
0100
0010
0000
0010
0001
0000
0100
0000
0010
1000
,  // measure 7
0000
0001
0100
0000
0001
0000
0010
0100
0000
0010
0001
1000
0001
0000
1000
0001
,  // measure 8
0100
0010
1000
0000
0010
0000
0100
0001
0000
0001
0010
0000
0100
0000
1000
0001
,  // measure 9
0000
1000
0010
0000
0100
0000
0001
1000
0100
0000
1000
0001
0020
0000
0000
0000
,  // measure 10
0031
0010
0001
0000
0010
0000
0100
1000
0000
0100
1000
0000
0010
0000
0100
0001
,  // measure 11
0000
0100
0001
0000
0100
0000
0010
1000
0000
1000
0001
0010
0200
0000
0320
0000
,  // measure 12
0031
0010
0100
1000
0020
0000
0000
0000
1030
0100
0010
0001
0200
0000
0000
0000
,  // measure 13
0320
0000
0000
0000
2030
0000
0000
0000
3001
0010
0001
1000
0200
0000
0000
0300
,  // measure 14
1100
0000
1000
0000
0020
0000
0230
0000
0302
0000
1003
0000
0100
0000
0010
0001
,  // measure 15
0100
0000
0010
0000
1000
0000
0001
0000
0010
0000
0100
0000
1000
0000
0001
1000
,  // measure 16
0001
0001
0010
0100
1100
0000
0101
0000
,  // measure 17
0100
0010
1000
0001
0010
0000
0100
0000
0010
0001
0100
0010
1000
0000
0001
1000
,  // measure 18
0010
0000
0200
0320
2030
0000
0100
0000
,  // measure 19
3001
0000
0100
0000
0100
0000
0010
0000
1000
0000
1000
0000
0010
0000
0100
0001
,  // measure 20
0010
0000
0000
0000
0110
0000
0000
0000
0100
1000
0001
0100
0010
0000
1000
0000
,  // measure 21
0001
0000
1000
0000
0100
0000
1000
0000
0001
0100
0101
0000
0010
1000
1010
0000
,  // measure 22
1001
0000
0000
0000
0002
0000
2000
0003
0200
0000
0000
3000
0010
0000
0300
0000
,  // measure 23
1000
0000
0100
0000
0010
0000
0100
0000
1000
0000
0001
0000
0100
0000
0001
0010
,  // measure 24
0100
0000
1000
0000
0010
0000
0100
0000
0101
0000
0001
0000
1001
0000
1000
0100
,  // measure 25
1000
0000
0000
0000
0000
0000
0100
0000
0000
0010
0000
0000
0100
0000
0000
0000
0000
0000
0010
0000
0000
0001
0000
0000
0010
0000
0000
0000
0000
0000
0001
0000
0000
0100
0000
0000
0001
0000
0100
0000
0001
0000
0100
0000
0001
0000
0100
0000
,  // measure 26
0010
0000
0000
0000
0200
0000
0020
0300
2000
0030
3001
0000
1000
0000
1000
0000
,  // measure 27
0100
0010
0001
0100
0010
1000
0001
0010
0001
1000
0010
1000
0100
0010
0001
1000
,  // measure 28
0010
0100
0010
0100
0010
0100
0010
0100
0010
0100
0010
0100
0010
0100
0010
0100
0010
0100
0010
0100
0010
0100
0010
0100
,  // measure 29
0010
0200
0302
0023
,  // measure 30
0230
0310
0020
0230
1000
2300
3001
0100
,  // measure 31
0010
0000
1000
0000
0001
0000
0010
0000
0200
1000
0320
1000
0032
0000
0003
0000
,  // measure 32
1000
0010
0100
0001
0011
0000
1100
0000
,  // measure 33
1000
0010
1000
0010
0100
0001
0100
0001
0010
0001
0010
0001
0010
0100
2000
0010
,  // measure 34
3200
0302
0023
0230
0310
0200
1000
1300
,  // measure 35
0100
0001
0100
1000
0020
0230
0302
0000
,  // measure 36
1003
0000
0001
0000
0011
0000
1100
0000
1000
0001
1000
0001
1000
0000
0010
0000
,  // measure 37
0101
0000
0001
0100
0110
0000
0100
0000
0010
0100
0110
0000
1001
0000
0000
0000
,  // measure 38
2000
0010
3020
0230
0001
0302
1000
1003
,  // measure 39
0100
0000
1000
0000
0010
0000
0100
0000
0002
0000
0020
0003
2000
0030
3000
0000
,  // measure 40
0010
0100
1000
0010
1010
0000
0101
0000
,  // measure 41
0001
0000
0000
0000
0000
0000
0000
0000
0000
0100
0000
0000
0001
0000
0000
0000
0000
0000
0000
0000
0000
0001
0000
0000
0010
0000
0000
0000
0000
0000
0000
0000
0000
0010
0000
0000
0100
0000
1000
0000
0100
0000
1000
0000
0100
0000
1000
0000
,  // measure 42
0200
0010
0320
0032
1000
2003
0001
0001
,  // measure 43
3001
0100
0010
1000
0001
0100
0010
1000
0001
0100
0010
1000
0001
0100
0010
1000
,  // measure 44
0001
0010
0001
0010
0001
0010
0001
0010
0001
0010
0001
0010
0001
0010
0001
0010
0001
0010
0001
0010
0001
0010
0001
0010
,  // measure 45
0001
0000
0001
0100
1000
0010
0001
0000
,  // measure 46
1001
0000
0000
0000
0000
0000
1000
0000
0000
0000
0000
0000
1000
0000
0000
0000
0000
0000
0000
0000
1000
0000
0000
0000
0000
0000
0000
0000
0000
1000
0000
0000
0000
0000
0000
0000
1000
0000
0000
0000
0000
0000
0000
1000
0000
0000
0000
0000
,  // measure 47
0000
0000
0000
0000
1000
0000
0000
0000
0000
0000
0000
0000
1000
0000
0000
0000
0000
0000
0000
1000
0000
0000
0000
0000
0000
0000
0000
0000
0000
1000
0000
0000
0000
0000
0000
0000
0000
0000
0000
0000
1000
0000
0000
0000
0000
0000
0000
0000
,  // measure 48
0000
0000
0000
0000
0001
0000
0000
0000
0000
0000
0000
0000
0001
0000
0000
0000
0000
0000
0000
0000
0001
0000
0000
0000
0000
0000
0000
0000
0000
0001
0000
0000
0000
0000
0000
0000
0001
0000
0000
0000
0000
0000
0000
0001
0000
0000
0000
0000
,  // measure 49
2000
0000
0000
0000
0000
0000
0001
0000
0000
0000
0000
0000
0000
0000
0001
0000
0000
0000
0000
0000
0000
0000
0001
0000
0000
0000
0000
0000
0000
0001
0000
0000
0000
0000
0000
0000
0002
0000
0000
0000
0000
0000
0000
0000
0000
3003
0000
0000
,  // measure 50
1001
0000
0000
0000
0000
0000
1000
0000
0000
0000
0000
0000
0010
0000
0000
0000
0000
0000
0000
0000
1000
0000
0000
0000
0000
0000
0000
0000
0000
0100
0000
0000
0000
0000
0000
0000
0001
0000
0000
0000
0000
0000
0000
0100
0000
0000
0000
0000
,  // measure 51
0000
0000
0000
0000
1000
0000
0000
0000
0000
0000
0000
0000
0010
0000
0000
0000
0000
0000
0000
0001
0000
0000
0000
0000
0000
0000
0000
0000
0000
0010
0000
0000
0000
0000
0000
0000
0000
0000
0000
0000
0100
0000
0000
0000
0000
0000
0000
0000
,  // measure 52
0001
0000
1000
0001
0100
0000
0010
0000
1000
0000
0000
0100
0010
0001
1000
0000
,  // measure 53
0001
0000
0000
0000
0000
0000
1000
0000
0000
0010
0000
0000
1000
0000
0000
0010
0000
0000
1000
0000
0000
0000
0000
0000
0101
0000
0000
0000
0000
0000
0001
0000
1000
0000
0001
0000
0200
0000
0000
0000
0000
0000
0000
0000
0000
0000
0000
0000
,  // measure 54
0301
0001
1000
1000
0001
0001
1000
1000
0001
1000
0000
0001
0100
0000
0010
0000
,  // measure 55
1000
1000
0010
0010
1000
1000
0010
0010
0100
0001
0000
0001
0010
0000
0100
1000
,  // measure 56
0001
0000
0000
0000
1000
0010
0100
0001
1000
0000
0001
1000
0010
1000
0000
0010
0100
0000
0010
1000
0001
0010
0000
0001
0100
0001
0100
0010
1000
0100
1000
0100
,  // measure 57
1000
0000
0001
0100
0001
1000
0100
1000
0100
0000
0010
0001
0100
0001
1000
0001
0100
0000
0010
0100
0001
0010
0100
1000
0001
0000
1000
0001
0100
0010
1000
0001
,  // measure 58
0010
0010
0100
0100
1000
1000
0010
0010
0100
0001
0000
0001
0010
0000
0010
0100
,  // measure 59
1000
1000
0001
0001
0100
0100
0010
0010
0110
0000
0101
0000
0011
0000
1100
0000
,  // measure 60
1001
0000
0000
0000
0001
1000
0000
1000
0001
1000
0010
0100
0001
0100
0000
0100
,  // measure 61
0010
0000
0100
0001
0100
0010
1000
0001
0010
0100
1000
0010
0100
0001
0010
0100
,  // measure 62
1000
0001
1000
0001
1000
0001
1000
0001
1000
0001
1000
0001
1000
0001
1000
0001
1000
0001
1000
0001
1000
0001
1000
0004
,  // measure 63
4000
0000
0000
0000
0000
0000
0000
3003
,  // measure 64
0201
0000
0000
0000
0000
0000
0000
0300
0210
0000
0000
0000
0000
0000
0000
0300
0201
0000
0000
0000
0000
0000
0000
0300
0210
0000
0000
0000
0000
0000
0000
0300
,  // measure 65
0201
0000
0000
0000
0000
0000
0000
0300
0210
0000
0000
0000
0000
0000
0000
0300
0201
0000
0000
0000
0000
0000
0000
0300
0210
0000
0000
0000
0000
0000
0000
0300
,  // measure 66
1020
0000
0000
0000
0000
0000
0000
0030
0120
0000
0000
0000
0000
0000
0000
0030
1020
0000
0000
0000
0000
0000
0000
0030
0120
0000
0000
0000
0000
0000
0000
0030
,  // measure 67
1002
0000
0000
0000
0000
0000
0000
0003
0102
0000
0000
0000
0000
0000
0000
0003
1002
0000
0000
0000
0000
0000
0000
0003
0102
0000
0000
0000
0000
0000
0000
0003
,  // measure 68
1001
0000
0000
1000
0001
0100
0000
0010
1000
0001
1000
0100
0010
0100
1000
0001
,  // measure 69
0000
0000
0000
1000
0100
0010
0000
0010
0001
1000
0010
0100
0001
0010
0001
0010
,  // measure 70
0000
0000
0000
0010
0100
1000
0100
0010
0001
0000
1000
0001
0100
0001
0010
0100
,  // measure 71
0000
0000
0000
0010
0100
0010
0000
0100
0010
0000
0001
0010
0100
1000
0010
0100
,  // measure 72
0102
0000
0000
0000
0000
0000
0000
0003
0021
0000
0000
0000
0000
0000
0000
0030
0210
0000
0000
0000
0000
0000
0000
0300
1200
0000
0000
0000
0000
0000
0000
0300
,  // measure 73
0120
0000
0000
0000
0000
0000
0000
0030
0012
0000
0000
0000
0000
0000
0000
0003
0201
0000
0000
0000
0000
0000
0000
0300
0120
0000
0000
0000
0000
0000
0000
0030
,  // measure 74
2010
0000
0000
0000
0000
0000
0000
3000
1200
0000
0000
0000
0000
0000
0000
0300
0120
0000
0000
0000
0000
0000
0000
0030
0012
0000
0000
0000
1000
0000
0000
0000
,  // measure 75
0003
1000
0000
0010
0010
0000
0100
0000
,  // measure 76
0001
1000
0001
1000
0001
1000
0001
1000
0001
1000
0001
1000
0001
1000
0001
1000
,  // measure 77
0001
0100
0010
1000
0001
0010
0100
0010
0001
0100
0010
1000
0001
0010
0100
1000
,  // measure 78
0002
0000
0000
0003
0000
0000
0000
0000
0002
0003
0000
0000
2000
0000
3000
0002
,  // measure 79
0000
0000
0000
2000
0000
0000
0003
0000
0000
0002
0000
0000
3000
0000
0000
2003
0000
0000
3002
0000
0000
2003
0000
0000
3002
0000
2003
0000
3002
0000
2003
0000
3002
0000
2003
0000
3020
0000
0000
0000
0000
0000
0000
0000
0000
0000
0000
0000
,  // measure 80
0030
0000
0000
0000
;
