#TITLE:Short Trip To Bali;
#SUBTITLE:;
#ARTIST:Mansfield;
#TITLETRANSLIT:;
#SUBTITLETRANSLIT:;
#ARTISTTRANSLIT:;
#GENRE:;
#CREDIT:;
#BANNER:Short Trip To Bali.png;
#BACKGROUND:Short Trip To Bali-bg.png;
#LYRICSPATH:;
#CDTITLE:;
#MUSIC:Short Trip To Bali.ogg;
#OFFSET:-0.345000;
#SAMPLESTART:76.440002;
#SAMPLELENGTH:12.000000;
#SELECTABLE:YES;
#BPMS:0.000000=145.119995
,16.000000=72.559998
,20.000000=145.119995
,164.000000=72.559998
,168.000000=145.119995
,193.000000=72.559998
,196.500000=145.119995
,204.500000=72.559998
,205.000000=145.119995
,212.000000=72.559998
,212.500000=145.119995
,219.500000=72.559998
,220.000000=145.119995
,228.000000=72.559998
,232.000000=145.119995
;
#STOPS:20.000000=0.414000,
103.000000=1.250000,
168.000000=1.240000
;
#BGCHANGES:;
#KEYSOUNDS:;
#ATTACKS:;

//---------------dance-single - ----------------
#NOTES:
     dance-single:
     :
     Hard:
     8:
     0.530612,0.580000,0.476190,0.295238,0.314286,309.000000,50.000000,31.000000,0.000000,0.000000,0.000000,0.530612,0.580000,0.476190,0.295238,0.314286,309.000000,50.000000,31.000000,0.000000,0.000000,0.000000:
0000
0000
0000
0000
,
0000
0000
0000
0000
,
0000
0000
0000
0000
,
0000
0000
0000
0000
,
2002
0000
0000
0000
,
3003
0000
0000
0000
0001
0000
0000
1000
0001
0000
0100
0000
0110
0000
0000
0000
,
0010
0000
0000
0000
1000
0000
0000
0001
0000
1000
0100
0000
0000
0000
0000
0000
,
0010
0000
0000
0000
0100
0000
0000
1000
0000
0010
0100
0000
0000
0000
0000
0000
,
0001
0000
0000
0000
1000
0000
0000
0010
0000
0100
0001
0000
0000
0000
0000
0000
,
1000
0000
0000
0000
0010
0000
0000
0100
0000
0001
0010
0000
0200
0000
0000
0000
,
1000
0000
0000
0000
1300
0000
0000
0100
0000
0010
0001
0000
0200
0000
0000
0000
,
0010
0000
0000
0000
0310
0000
0000
1000
0000
0100
0010
0000
0002
0000
0000
0000
,
1000
0000
0000
0000
1003
0000
0000
0001
0000
0100
0010
0000
0200
0000
0000
0000
,
0001
0000
0000
0000
0301
0000
0000
0010
0000
0100
1000
0000
1001
0000
0000
0000
,
0001
0000
0000
0000
0021
0000
0000
0031
0000
1000
0010
0000
0000
0000
0000
0000
,
0100
0000
0000
0000
0210
0000
0000
0310
0000
1000
0001
0000
0000
0000
0000
0000
,
0010
0000
0000
0000
2001
0000
0000
3100
0000
0010
0001
0000
0000
0000
0000
0000
,
1000
0000
0000
0000
0210
0000
0000
0301
0000
0100
0010
0000
1001
0000
0000
0000
,
0001
0000
0000
0000
0210
0000
0000
0310
0000
0100
0001
0000
0000
0000
0000
0000
,
0001
0000
0000
0000
2010
0000
0000
3010
0000
0100
0001
0000
1000
0000
0000
0000
,
0100
0000
0000
0000
0210
0000
0000
1300
0000
0010
0001
0000
0100
0000
0000
0000
,
0010
0000
0000
0000
2010
0000
0000
3001
0000
0010
0100
0000
1100
0000
0000
0011
,
0000
0000
0000
0000
0101
0000
0000
1010
0000
0000
0000
0000
1001
0000
0000
0101
,
0000
0000
0000
0000
0011
0000
0000
1100
0000
0000
0000
0000
0001
0000
1000
0000
,
0001
1000
0001
1000
0001
1000
0010
0100
,
0010
0100
0010
0100
0010
0100
0000
0000
,
0201
0000
0001
0000
0301
0010
0100
1000
,
0001
0000
1020
0000
0130
1010
0000
0000
,
2100
0000
0100
0000
3100
0010
0001
1000
,
0001
0000
0000
0000
0100
0000
0000
0000
0010
0000
0000
1000
0010
0000
0100
0000
,
1002
0000
1000
0000
1003
0100
0010
0001
,
0010
0000
0012
0000
1003
1010
0000
0000
,
0120
0000
0100
0000
0130
0010
1000
0001
,
0100
0000
0000
0000
0001
0000
0000
0000
0010
0000
0000
0100
1000
0000
0010
0000
,
0110
0100
0001
0010
0100
0010
0001
1000
,
0010
0100
0010
1000
0001
0010
0100
1000
,
0001
0100
0001
0010
0100
0010
0001
1000
,
0010
0100
0010
1000
0001
0010
0100
1000
,
0001
0100
0001
0010
0100
0010
0001
1000
,
0010
0100
0010
1000
0001
0010
0100
1000
,
0000
0000
0000
0001
0000
0000
0000
0000
0000
1000
0000
0000
0001
0000
0000
0000
1000
0000
0000
0000
0002
0000
2000
0000
,
0000
0000
0000
0000
,
3003
0000
0000
0000
1001
0000
0000
0000
0001
0000
0000
0000
0010
0000
0000
0100
,
0000
0010
0001
0000
0000
0000
0000
0000
0001
0000
0000
0000
0100
0000
0000
0010
,
0000
1000
0001
0000
0000
0000
0000
0000
1000
0000
0000
0000
0010
0000
0000
0100
,
0000
0001
0010
0000
0000
0000
0000
0000
0001
0000
0000
0000
1000
0000
0000
0010
,
0000
0100
0001
0000
1001
0000
0000
0000
1000
0000
0000
0000
0100
0000
0000
0010
,
0000
0100
1000
0000
0000
0000
0000
0000
1000
0000
0000
0000
0010
0000
0000
0100
,
0000
0001
1000
0000
2001
0000
0001
0000
0001
0001
0001
0000
0001
0001
0001
0001
,
0000
0001
3001
0000
0000
0000
1001
0000
0000
0000
1001
0000
0000
0000
0001
0000
,
0100
0001
0000
0100
0010
1000
0010
0000
,
0100
0000
0000
2002
0000
3003
0110
0000
0000
0000
0000
0000
0110
0000
0000
0000
0000
0000
0100
0000
0000
0010
0000
0000
,
0001
0000
1000
0010
0100
0001
0000
0010
,
2002
0000
3003
0110
0000
0000
0000
0000
0000
1010
0000
0000
0000
0000
0000
1000
0000
0000
0100
0000
0000
0001
0000
0000
,
0000
0000
0000
0001
0000
0000
0100
0000
0000
0010
0000
0000
0001
0000
0000
0000
0000
0000
0001
0000
0000
2002
0000
3003
,
0110
0000
0000
0110
0000
0010
0100
0000
1001
0000
0000
1001
0000
0001
0100
0000
,
0110
0000
0000
0110
0000
0100
0001
0000
1001
0000
0000
1001
0000
0001
0010
0000
,
2002
0000
0000
0000
,
3003
0000
0000
0000
;

//---------------dance-single - ----------------
#NOTES:
     dance-single:
     :
     Medium:
     6:
     0.389116,0.441905,0.361905,0.095238,0.057143,238.000000,38.000000,10.000000,0.000000,0.000000,0.000000,0.389116,0.441905,0.361905,0.095238,0.057143,238.000000,38.000000,10.000000,0.000000,0.000000,0.000000:
0000
0000
0000
0000
,
0000
0000
0000
0000
,
0000
0000
0000
0000
,
0000
0000
0000
0000
,
2002
0000
0000
0000
,
3003
0000
0001
0000
1000
0010
0110
0000
,
0010
1000
0010
0001
,
0010
0100
0001
0010
,
1000
0010
0001
0010
,
0100
1000
0001
1001
,
0001
0100
0001
0010
,
1000
0010
0100
1000
,
0001
0100
0001
1000
,
0010
0001
0010
0110
,
0010
1010
0010
0100
,
0001
1001
1000
0100
,
0010
1100
0100
1000
,
0010
0011
0010
1001
,
0010
0110
0010
1000
,
0001
0011
0010
0100
,
1000
1100
1000
0010
,
0100
0000
0000
0000
0101
0000
0000
0000
0001
0000
0000
0000
1001
0000
0000
0001
,
0000
0000
0000
0000
1001
0000
0000
0001
0000
0000
0000
0000
1001
0000
0000
0001
,
0000
0000
0000
0000
1001
0000
0000
0001
0000
0000
0000
0000
1000
0000
0000
0000
,
1001
0000
0001
0000
1001
0000
0010
0100
,
0010
0100
0010
0100
0010
0100
0000
0000
,
1020
0000
1000
0000
1000
0000
1030
0010
,
0100
0010
1000
1001
,
0021
0000
0001
0000
0001
0000
0031
0010
,
0100
0000
0010
0000
0001
0010
0100
1000
,
2001
0001
0001
3001
,
1001
0000
0100
0000
0010
1000
0010
0000
,
0120
0000
0100
0000
0100
0000
0130
0010
,
1000
0000
0010
0000
0100
0000
0001
1000
,
0100
1000
0010
0100
,
0001
0100
0010
1000
,
1001
0001
0010
0100
,
0010
0001
1000
1000
,
1001
1000
0100
0010
,
0001
0010
0001
0001
,
1000
0000
0001
0000
0100
0000
0000
2002
,
0000
0000
0000
0000
,
3003
1001
0001
0100
,
0010
1000
0010
0000
0100
0000
0001
0000
,
0010
0100
0010
0000
0100
0000
1000
0000
,
0001
1000
0001
0000
0100
0000
0010
0000
,
1000
0010
1010
0000
0010
0000
0100
0010
,
0100
0000
0010
0000
1000
0000
0001
1000
,
0001
0000
0000
0000
0100
0000
0010
0000
1000
0100
0010
0000
0010
0100
1000
0010
,
0000
0100
0001
0000
0000
0000
1001
0000
0000
0000
0001
0000
0000
0000
0100
0000
,
0001
0100
0000
0010
1000
0010
1000
0000
,
0001
1000
1001
0000
0001
0000
0100
0001
,
0100
0000
0010
1000
0010
1000
0000
0001
,
1000
1100
0000
0100
0000
1000
0100
1000
,
0000
0100
0010
0001
0010
0000
0010
0001
,
1001
0000
0000
0001
0000
0000
0000
0000
1001
0000
0000
0001
0000
0000
0000
0000
,
1001
0000
0000
0001
0000
0000
0000
0000
1001
0000
0000
0001
0000
0000
0000
0000
,
0220
0000
0000
0000
,
0330
0000
0000
0000
;

//---------------dance-single - ----------------
#NOTES:
     dance-single:
     :
     Easy:
     3:
     0.216327,0.248571,0.219048,0.161905,0.000000,119.000000,23.000000,17.000000,0.000000,0.000000,0.000000,0.216327,0.248571,0.219048,0.161905,0.000000,119.000000,23.000000,17.000000,0.000000,0.000000,0.000000:
0000
0000
0000
0000
,
0000
0000
0000
0000
,
0000
0000
0000
0000
,
0000
0000
0000
0000
,
2002
0000
0000
0000
,
3003
0000
0000
1001
,
0000
0000
0000
0001
,
0000
1000
0000
0100
,
0000
0000
0000
1000
,
0000
0010
0000
0110
,
0000
0000
0000
0100
,
0000
0001
0000
1000
,
0000
0000
0000
0100
,
0000
1000
0000
1001
,
0000
0001
0000
0100
,
0000
0010
0000
1000
,
0000
0100
0000
1000
,
0000
0010
0000
0110
,
0000
0100
0000
0010
,
0000
1000
0000
0001
,
0000
0010
0000
0001
,
0000
1000
0000
1001
,
0000
1001
0000
1001
,
0000
1001
0000
1001
,
0001
0001
0001
1000
,
1000
0010
0010
0000
,
0200
0000
0000
0000
,
0300
0010
1000
0001
,
0020
0000
0000
0000
,
0030
0000
0100
0010
,
0002
0000
0000
0000
,
0003
1000
0001
0100
,
0020
0000
0000
0000
,
0130
0000
0000
0000
,
0110
0010
1000
0001
,
0020
0000
0002
0033
,
0011
0010
0100
1000
,
0002
0000
2000
3003
,
1001
1000
0001
0100
,
0002
0000
0200
0303
,
0002
0000
2000
0000
,
3003
0000
0000
0000
,
0000
1001
0001
1000
,
1000
0000
1000
0010
,
0010
0000
0100
0010
,
0010
0000
1000
0001
,
0010
0110
0100
0010
,
0010
0000
0100
1000
,
0001
2000
0000
0000
,
0000
3000
0000
1001
0000
0001
0000
1000
,
0000
1000
0000
0001
0000
1000
0000
0001
,
0000
1001
1000
0001
,
1000
0001
0001
0000
,
0000
1001
0000
0001
0000
1000
0000
1000
,
0000
0001
0000
1000
0000
0000
0000
0000
,
1001
0000
0110
0000
,
1001
0000
0110
0000
,
2002
0000
0000
0000
,
3003
0000
0000
0000
;

//---------------dance-single - ----------------
#NOTES:
     dance-single:
     :
     Beginner:
     2:
     0.159184,0.217143,0.190476,0.019048,0.000000,95.000000,20.000000,2.000000,0.000000,0.000000,0.000000,0.159184,0.217143,0.190476,0.019048,0.000000,95.000000,20.000000,2.000000,0.000000,0.000000,0.000000:
// measure 0
0000
0000
0000
0000
,  // measure 1
0000
0000
0000
0000
,  // measure 2
0000
0000
0000
0000
,  // measure 3
0000
0000
0000
0000
,  // measure 4
1001
0000
0000
0000
,  // measure 5
0000
0000
0000
1001
,  // measure 6
0000
0000
0000
0001
,  // measure 7
0000
0000
0000
1000
,  // measure 8
0000
0000
0000
0100
,  // measure 9
0000
1000
0000
0010
,  // measure 10
0000
0000
0000
0100
,  // measure 11
0000
0001
0000
1000
,  // measure 12
0000
0000
0000
0001
,  // measure 13
0000
1000
0000
1001
,  // measure 14
0000
0010
0000
0100
,  // measure 15
0000
0010
0000
0100
,  // measure 16
0000
0001
0000
0100
,  // measure 17
0000
0010
0000
1001
,  // measure 18
0000
1000
0000
0001
,  // measure 19
0000
0100
0000
0001
,  // measure 20
0000
1000
0000
0010
,  // measure 21
0000
0100
0000
1001
,  // measure 22
0000
0110
0000
1001
,  // measure 23
0000
0110
0000
1001
,  // measure 24
0000
1001
0000
0110
,  // measure 25
0000
0110
0000
0000
,  // measure 26
1001
0000
0000
0001
,  // measure 27
0001
0000
1000
0000
,  // measure 28
0010
0000
0000
0100
,  // measure 29
0000
0000
0000
0000
,  // measure 30
0010
0000
0000
1000
,  // measure 31
0000
0000
0001
0000
,  // measure 32
1000
0000
0000
0100
,  // measure 33
0100
0000
0000
0000
,  // measure 34
1000
0000
0001
0000
,  // measure 35
0100
0000
0001
0001
,  // measure 36
0010
0000
0001
0000
,  // measure 37
1000
0000
0100
0100
,  // measure 38
1000
0000
0010
0000
,  // measure 39
0100
0000
0001
0001
,  // measure 40
2000
0000
0000
0000
,  // measure 41
3000
0000
0000
0000
,  // measure 42
0000
1001
0000
0001
,  // measure 43
0000
0000
1000
1000
,  // measure 44
0000
0000
0010
0010
,  // measure 45
0000
0000
0100
0100
,  // measure 46
0000
0110
0100
0100
,  // measure 47
0000
0000
0010
0010
,  // measure 48
0000
0200
0000
0000
,  // measure 49
0000
0300
0000
0010
0000
0000
0000
0010
,  // measure 50
0000
0000
0000
0010
0000
0010
0000
0000
,  // measure 51
0000
0100
0000
0100
,  // measure 52
0000
0100
0100
0000
,  // measure 53
0000
0001
0000
0000
0000
1000
0000
0000
,  // measure 54
0000
0001
0000
1000
0000
0000
0000
0000
,  // measure 55
1001
0000
0110
0000
,  // measure 56
1001
0000
0110
0000
,  // measure 57
1001
0000
0000
0000
;
