#VERSION:0.83;
#TITLE:Shibuya Jungle;
#SUBTITLE:;
#ARTIST:kors k;
#TITLETRANSLIT:;
#SUBTITLETRANSLIT:;
#ARTISTTRANSLIT:;
#GENRE:;
#ORIGIN:;
#CREDIT:;
#BANNER:Shibuya Jungle.png;
#BACKGROUND:Shibuya Jungle-bg.png;
#PREVIEWVID:;
#JACKET:Shibuya Jungle-jacket.png;
#CDIMAGE:;
#DISCIMAGE:;
#LYRICSPATH:;
#CDTITLE:cdtitle.png;
#MUSIC:Shibuya Jungle.ogg;
#OFFSET:-3.746000;
#SAMPLESTART:30.139002;
#SAMPLELENGTH:14.999998;
#SELECTABLE:YES;
#BPMS:0.000=128.000;
#STOPS:;
#DELAYS:;
#WARPS:;
#TIMESIGNATURES:0.000=4=4;
#TICKCOUNTS:0.000=4;
#COMBOS:0.000=1;
#SPEEDS:0.000=1.000=0.000=0;
#SCROLLS:0.000=1.000;
#FAKES:;
#LABELS:0.000=Song Start;
#BGCHANGES:;
#KEYSOUNDS:;
#ATTACKS:
;

//---------------dance-single - ----------------
#NOTEDATA:;
#CHARTNAME:;
#STEPSTYPE:dance-single;
#DESCRIPTION:;
#CHARTSTYLE:;
#DIFFICULTY:Hard;
#METER:8;
#RADARVALUES:0.433917,0.480925,0.324308,0.213569,0.272893,384.000000,343.000000,41.000000,27.000000,0.000000,0.000000,0.000000,0.000000,0.000000,0.433917,0.480925,0.324308,0.213569,0.272893,384.000000,343.000000,41.000000,27.000000,0.000000,0.000000,0.000000,0.000000,0.000000;
#CREDIT:;
#NOTES:
1001
0001
1000
1000
,
0100
1000
0010
0101
,
0100
0001
0100
0001
,
0010
0100
0110
0110
,
0100
1000
0010
0010
,
0100
0001
1000
1100
,
0100
1000
0010
0010
,
0100
0000
0001
0000
1000
0001
1000
0000
,
0001
0000
0000
1000
0010
0000
0100
0000
0001
0000
0010
0000
0100
0000
0000
0000
,
1000
0000
0000
0100
0010
0000
0001
0000
0010
0000
0100
0000
1000
0000
0000
0000
,
0001
0000
0000
1000
0010
0000
0100
0000
0001
0000
0010
0000
0001
0000
0000
0000
,
0100
0000
0000
0010
1000
0000
0001
0000
0010
0000
0100
0000
0010
0000
0000
0000
,
1000
0100
0010
0001
0010
0100
1000
0100
,
0010
0010
0100
0100
1000
1000
0001
0001
,
0000
1000
0100
0001
0100
0010
1001
0000
,
0220
0000
0000
0000
,
0330
0101
0101
0101
,
0101
0000
1100
0000
1100
0000
1100
1000
,
1001
1010
1010
1010
,
1010
0011
0011
0011
,
1001
0101
1100
0101
,
1100
1010
0011
1010
,
0021
0032
2003
3020
,
0130
0000
0000
0010
0000
0000
1000
0000
0000
0001
0000
0000
0010
0000
0100
0000
,
1000
0000
0000
0000
1001
0000
0000
0000
0001
0000
0000
0100
0000
0010
0000
0100
,
0000
0010
0000
0000
1000
0000
0000
0000
0010
0000
0000
0100
0000
0000
0001
0000
,
0000
0000
0000
0000
0010
0000
0000
0000
0100
0000
0000
1000
0000
0100
0000
0010
,
0000
0100
0000
0000
0010
0000
0000
0000
0001
0000
0000
1000
0000
0000
0010
0000
,
0000
0000
0000
0000
1000
0000
0000
0000
0100
0000
0000
1000
0000
0010
0000
0100
,
0000
0001
0000
0000
1000
0000
0000
0000
0010
0000
0000
0100
0000
0000
0001
0000
,
0000
0000
0000
0000
0100
0000
0000
0000
0010
0000
0000
0100
0000
0000
0001
0000
,
1000
0000
0000
0100
0000
0000
0001
0000
0000
0100
0000
0000
1000
0000
0010
0000
,
0100
0001
0100
0001
,
1000
0100
1000
0100
,
0001
0100
0001
0100
,
1000
0100
1000
0100
,
1000
0010
0100
0100
,
0001
0010
0100
0100
,
0010
0001
0010
0010
,
0001
1000
0010
0010
,
1000
0100
0010
0001
1000
0100
0010
0001
,
1000
0100
0010
0001
1000
0100
0010
0001
,
1000
0100
0010
0001
1000
0100
0010
0001
,
1000
0100
0010
0001
1000
0100
0010
0001
,
2000
3002
0203
0320
,
2030
3020
0230
0302
,
0003
0010
1000
0010
0001
0001
0101
0000
,
1020
0200
0000
0330
,
1002
0000
0000
0000
0013
0000
0000
0000
0100
0000
0000
1000
0000
0100
0000
0010
,
0000
0000
0200
0000
0300
0000
0000
0010
0000
0100
0000
1000
0000
0001
1000
0000
,
0000
0000
0000
0000
1010
0000
0000
0000
0010
0000
0000
1000
0000
0001
0000
0010
,
0100
0000
2000
0000
3010
0000
0000
0000
0100
0000
0000
0010
0000
0000
1000
0000
,
0001
0000
0000
0000
1000
0000
0000
0000
0001
0000
0000
0010
0000
0100
0000
0010
,
0000
0000
0002
0000
0003
0000
0000
1000
0000
0010
0000
0100
0000
0001
0010
0000
,
0100
0000
0000
0000
1100
0000
0000
0000
0100
0000
0000
0010
0000
0001
0000
1000
,
0010
0200
0301
0020
1030
0100
1000
0010
,
0100
0000
0000
0000
0001
0000
1000
0000
0000
0000
1000
0000
0001
0000
0000
0000
0000
0000
0000
0000
0000
0000
0000
0000
1000
0000
0000
0000
0000
0000
0000
0000
0000
0010
0000
0000
0000
0000
0000
0100
0000
0000
0000
0000
0000
0001
0000
0000
,
0000
0000
0020
0000
0030
0000
0000
0100
0000
1000
0000
0010
0000
0100
0001
0000
,
1000
0000
0000
0000
1001
0000
0000
0000
0001
0000
0000
1000
0000
0000
0010
0000
,
1000
0000
0200
0000
0310
0000
0000
0000
0100
0000
0010
0001
0000
0001
1000
0000
,
0010
0000
0000
0000
0100
0000
0000
0000
0001
0000
0000
1000
0000
0010
0000
0100
,
0000
0000
0020
0000
0030
0000
0000
0100
0000
0010
0000
1000
0100
0000
0100
0000
,
0020
0000
0000
0032
0000
0000
0103
0010
1000
0001
0010
0100
,
1000
0000
0000
0011
0000
0000
0001
0000
0000
1010
0000
0000
1000
0000
0001
0000
,
1001
0000
0000
0000
;

//---------------dance-single - ----------------
#NOTEDATA:;
#CHARTNAME:;
#STEPSTYPE:dance-single;
#DESCRIPTION:;
#CHARTSTYLE:;
#DIFFICULTY:Easy;
#METER:3;
#RADARVALUES:0.259898,0.303742,0.118649,0.110739,0.000000,230.000000,215.000000,15.000000,14.000000,0.000000,0.000000,0.000000,0.000000,0.000000,0.259898,0.303742,0.118649,0.110739,0.000000,230.000000,215.000000,15.000000,14.000000,0.000000,0.000000,0.000000,0.000000,0.000000;
#CREDIT:;
#NOTES:
1000
0000
0001
0000
,
0100
0000
0001
1000
,
0001
0000
0100
0000
,
0001
0001
1000
0001
,
0100
0000
0010
0000
,
1000
0000
0100
1000
,
0010
0000
0100
0000
,
0001
0000
1000
0001
,
1001
1000
1000
1000
,
1001
0001
0001
0001
,
1001
1000
1000
1000
,
1001
0001
0001
0001
,
1000
0100
0010
0001
,
1000
0100
0010
0001
,
0000
1000
0001
0110
,
2002
0000
0000
0000
,
3003
0001
0100
0010
,
0010
0100
0001
1000
,
0001
1000
0100
0010
,
0010
0100
1000
0001
,
0100
0001
0010
0100
,
0100
0010
0001
1000
,
0001
1000
0010
0100
,
0002
0000
0000
0003
,
1000
1001
0001
1000
,
0100
1000
0010
0100
,
0010
1000
0001
0100
,
0001
0010
0001
1000
,
0100
1001
1000
1000
,
1000
0001
0100
0001
,
0010
0100
0010
0001
,
2000
0000
0000
3000
,
0001
0000
1000
0000
,
0010
0000
0100
0000
,
0001
0000
1000
0000
,
0100
0000
1000
0000
,
0010
0100
0100
0100
,
0001
0100
0100
0100
,
0010
0100
0100
0100
,
0010
2000
0002
3003
,
0001
0010
0100
1000
,
0100
0010
0001
0010
,
0100
1000
0100
0010
,
0001
0010
0100
1000
,
0020
0030
0200
0300
,
0002
0003
2000
3000
,
0000
0001
0100
0110
,
2002
0000
0000
3003
,
0010
1001
0001
1000
,
0100
1000
0010
0100
,
0001
0100
0010
1000
,
0001
0010
0001
0001
,
1001
1000
0010
0100
,
0010
1000
0010
0100
,
0001
1000
0100
1000
,
0001
0010
0100
1000
,
1100
0101
0001
1000
,
0010
1000
0001
0001
,
1000
0100
1000
0010
,
0100
0001
0010
0010
,
0100
0010
0001
0001
,
0010
0100
1000
1000
,
0100
1000
0020
0000
,
0230
0000
0000
0310
,
1001
0000
0000
0000
;

//---------------dance-single - ----------------
#NOTEDATA:;
#CHARTNAME:;
#STEPSTYPE:dance-single;
#DESCRIPTION:;
#CHARTSTYLE:;
#DIFFICULTY:Medium;
#METER:6;
#RADARVALUES:0.419228,0.455613,0.878005,0.213569,0.007910,371.000000,260.000000,111.000000,27.000000,0.000000,0.000000,0.000000,0.000000,0.000000,0.419228,0.455613,0.878005,0.213569,0.007910,371.000000,260.000000,111.000000,27.000000,0.000000,0.000000,0.000000,0.000000,0.000000;
#CREDIT:;
#NOTES:
1001
0001
1000
0001
,
1000
0001
1000
0110
,
0100
0010
0100
0010
,
0100
0010
0110
1001
,
0001
0100
0001
0100
,
0001
0100
0001
1010
,
1000
0010
1000
0010
,
1000
0010
1010
1100
,
1002
1000
1000
1003
,
2001
0001
0001
3001
,
1002
1000
1000
1003
,
2001
0001
0001
3001
,
1000
0100
0010
0001
,
1000
0100
0010
0001
1000
0100
0010
0001
,
0000
1000
0001
0100
0010
0010
2000
0000
,
0002
0000
0000
0000
,
3003
1001
1001
1001
,
1001
0101
0101
0101
,
0101
0011
0011
0011
,
0011
0110
0110
0110
,
0110
1100
1100
1100
,
1100
1010
1010
1010
,
1010
0102
2003
3200
,
0020
0000
0000
0330
,
0100
1001
1001
0101
,
0101
0011
0011
1001
,
0110
1010
1010
1100
,
1010
1100
1010
0101
,
1001
0101
0101
1010
,
1010
1100
1100
0011
,
0120
0230
2300
3002
,
2000
0000
0000
3003
,
0001
1000
1000
1000
,
0010
0100
0100
0100
,
0010
1000
1000
1000
,
0100
0100
0100
0100
,
0010
0001
0001
0001
,
1000
0010
0010
0010
,
0100
0001
0001
0001
,
0100
0020
2000
3030
,
0001
0000
1000
0000
0001
1000
0010
0000
,
0100
0000
0001
0000
0010
0100
1000
0000
,
0001
0000
0100
0000
0010
1000
0001
0000
,
0100
0000
0010
0000
0100
0010
1000
0000
,
0002
0013
0020
0130
,
0200
1300
2000
3001
,
0000
1000
0100
0001
0100
1000
0020
0000
,
0200
0000
0000
0000
,
0330
1001
0101
1001
,
1100
1010
0101
0011
,
0110
1100
0110
0011
,
0110
1001
0101
1001
,
1100
0011
1100
1010
,
0101
1010
1100
0011
,
0101
1010
1100
0011
,
0001
0010
1000
0010
0001
0000
1000
0001
,
0100
0100
0010
0000
0110
0000
0110
0000
,
1001
1001
0101
1001
,
1100
0011
0101
1010
,
1100
1010
1100
1010
,
0101
0011
0101
0011
,
1001
1010
1100
0101
,
1002
0203
0320
2030
,
3001
0000
0000
0010
0000
0000
1000
0000
0000
0010
0000
0000
0001
0000
1000
0000
,
1001
0000
0000
0000
;

//---------------dance-single - ----------------
#NOTEDATA:;
#CHARTNAME:;
#STEPSTYPE:dance-single;
#DESCRIPTION:;
#CHARTSTYLE:;
#DIFFICULTY:Beginner;
#METER:1;
#RADARVALUES:0.129949,0.202495,0.071190,0.007910,0.000000,115.000000,106.000000,9.000000,1.000000,0.000000,0.000000,0.000000,0.000000,0.000000,0.129949,0.202495,0.071190,0.007910,0.000000,115.000000,106.000000,9.000000,1.000000,0.000000,0.000000,0.000000,0.000000,0.000000;
#CREDIT:;
#NOTES:
0001
0000
0000
0000
,
1000
0000
0000
0000
,
0001
0000
0000
0000
,
1000
0000
0000
0000
,
0010
0000
0000
0000
,
0100
0000
0000
0000
,
0010
0000
0000
0000
,
1000
0000
0000
0000
,
0001
0000
0000
0000
,
0001
0000
0000
0000
,
1000
0000
0000
0000
,
1000
0000
0000
0000
,
0010
0000
0100
0000
,
0001
0000
1000
0000
,
0000
1000
0001
1001
,
1001
0000
0000
0000
,
0000
1001
0000
0001
,
0000
1000
0000
0001
,
0000
0100
0000
0100
,
0000
0010
0000
0010
,
0010
0010
0000
1000
,
0000
0001
0000
1000
,
0000
0010
0100
0000
,
1001
0000
0000
0000
,
1000
0001
0000
0000
,
1000
0000
0001
0000
,
0100
0100
0000
0000
,
0010
0000
0000
1000
,
1000
0000
0001
0000
,
0001
0000
1000
0000
,
0010
0010
0000
0000
,
0100
0000
0000
0000
,
1001
0000
0000
0000
,
1000
0000
0000
0000
,
1000
0000
0000
0000
,
1000
0000
0000
0000
,
0010
0000
0000
0000
,
0010
0000
0000
0000
,
0010
0000
0000
0000
,
0100
0000
0001
0000
,
1001
0000
0000
0000
,
1000
0000
0000
0000
,
0100
0000
0000
0000
,
0010
0000
0000
0000
,
0001
0000
0001
0000
,
0010
0000
0100
0000
,
1000
0000
0000
1001
,
1001
0000
0000
0000
,
0001
1000
0000
1000
,
0000
0001
0000
0100
,
0000
0001
0000
0000
,
0001
1000
1000
0000
,
0010
0000
1000
0000
,
0010
0000
0100
0000
,
0001
0000
1000
0000
,
0001
0001
1000
1000
,
0020
0030
0100
0000
,
0010
0000
1000
0000
,
1000
0000
1000
0000
,
0001
0001
0100
0000
,
0010
0000
0000
0000
,
0100
0000
0000
0000
,
0001
0000
1000
0000
,
0010
0000
0000
0100
,
1001
0000
0000
0000
;

//---------------dance-single - ----------------
#NOTEDATA:;
#CHARTNAME:;
#STEPSTYPE:dance-single;
#DESCRIPTION:;
#CHARTSTYLE:;
#DIFFICULTY:Challenge;
#METER:9;
#RADARVALUES:0.577427,0.632796,0.419228,0.340128,0.593247,511.000000,458.000000,53.000000,43.000000,0.000000,0.000000,0.000000,0.000000,0.000000,0.577427,0.632796,0.419228,0.340128,0.593247,511.000000,458.000000,53.000000,43.000000,0.000000,0.000000,0.000000,0.000000,0.000000;
#CREDIT:;
#NOTES:
// measure 0
1001
0000
0000
0000
0101
0000
0000
0001
0000
0001
0000
0000
1000
0000
0100
1000
,  // measure 1
0100
0000
1000
0000
0010
0000
0100
0010
0000
0010
0000
0000
1001
0000
0000
0000
,  // measure 2
0001
0000
0000
0000
1000
0000
0000
0100
0000
0100
0000
0000
1000
0000
0010
0100
,  // measure 3
0000
0000
0010
0000
1000
0000
0001
0100
0010
0000
0100
0000
1001
0000
0000
0000
,  // measure 4
1100
0000
0000
0000
0001
0000
0000
1000
0000
1000
0000
0000
0100
0000
1000
0010
,  // measure 5
0100
0000
0010
0000
1000
0000
0001
0010
0000
0010
0000
0000
1001
0000
0000
0000
,  // measure 6
0001
0000
0000
0000
1000
0000
0000
0010
0000
0010
0000
0000
0100
0000
0010
1000
,  // measure 7
0000
0000
0001
0000
0010
0000
0100
1000
0001
0000
1000
0000
1001
0000
0000
0000
,  // measure 8
0201
0000
0000
0310
1000
0000
0100
0000
1000
0000
0001
0000
0100
0000
0001
0000
,  // measure 9
0010
0000
0000
0100
1000
0000
0010
0000
0100
0000
0001
0000
1000
0000
0000
0000
,  // measure 10
0101
0000
0000
0010
1000
0000
0100
0000
0010
0000
0100
0000
1000
0000
0001
0000
,  // measure 11
0100
0000
0000
0001
0010
0000
0001
0000
1000
0000
0100
0000
1001
0000
0001
0000
,  // measure 12
1000
0100
0010
0001
1000
0100
0010
0001
,  // measure 13
1000
0100
0010
0001
1000
0100
0010
0001
0100
0010
1000
0001
0010
0001
0100
0010
,  // measure 14
0000
0100
0001
0010
0120
0230
1300
0000
,  // measure 15
2002
0000
0000
0000
0000
0000
0000
3003
,  // measure 16
0020
0000
0030
0000
0110
0000
0000
0000
0001
0000
1000
0100
0000
1000
0000
0010
,  // measure 17
0000
0100
0000
0000
0001
0000
0000
0000
0010
0000
0100
1000
0000
1000
0001
0000
,  // measure 18
0100
0000
0000
0000
0010
0000
0000
0000
1000
0000
0001
0100
0000
0010
0000
0100
,  // measure 19
0000
0100
0000
0000
0001
0000
0000
0000
1000
0000
0100
0010
0000
0010
0001
0000
,  // measure 20
1000
0000
0000
0000
0101
0000
0000
0000
0110
0000
0010
0100
0000
0010
0000
1000
,  // measure 21
0000
1000
0000
0000
0001
0000
0000
0000
1000
0000
0100
0010
0000
0010
0001
0000
,  // measure 22
2000
0000
0000
3020
0000
0000
0130
0010
1000
0001
0010
0001
,  // measure 23
1001
0000
0000
0011
0000
0000
1001
0000
0000
1010
0000
0000
1001
0000
0010
0000
,  // measure 24
1001
0000
0000
0000
1010
0000
0000
0000
0101
0000
0001
0010
0000
0100
0000
1100
,  // measure 25
0000
1001
0000
0000
0101
0000
0000
0000
1010
0000
1000
0010
0000
0010
0100
0000
,  // measure 26
0000
0000
0000
0000
1001
0000
0000
0000
0011
0000
0010
0100
0000
1000
0000
1001
,  // measure 27
0000
0101
0000
0000
1010
0000
0000
0000
0101
0000
0001
0010
0000
0001
1000
0000
,  // measure 28
2100
0000
0000
0000
3001
0000
0000
0000
1010
0000
1000
0010
0000
0101
0000
0110
,  // measure 29
0000
0101
0000
0000
1001
0000
0000
0000
1100
0000
1000
0100
0000
0010
0001
0000
,  // measure 30
1001
0000
0000
0000
1010
0000
0000
0000
0101
0000
0001
1000
0000
1000
0000
1000
,  // measure 31
0020
0000
0000
2030
0000
0000
3200
0000
0000
0302
0000
0000
0103
0000
0010
0000
,  // measure 32
0021
0001
1000
0001
,  // measure 33
0230
1000
0001
1000
,  // measure 34
0320
0001
1000
0001
,  // measure 35
0230
2300
3020
0230
,  // measure 36
0302
1000
0100
0010
,  // measure 37
2003
0100
0010
0001
,  // measure 38
3002
0100
0010
1000
,  // measure 39
2003
0000
0000
0000
3200
0000
0000
0300
0012
0000
0000
0000
0023
0000
0000
0000
,  // measure 40
0031
1000
0100
1000
0001
0100
0001
0010
,  // measure 41
0100
0010
0001
0100
0010
1000
0100
0010
,  // measure 42
0001
0100
0001
0010
0001
1000
0100
0010
,  // measure 43
0001
0100
0010
1000
0001
0010
0100
1000
,  // measure 44
0002
0000
0200
0003
2000
0300
0020
3000
,  // measure 45
0002
0030
0200
0003
2000
0300
0020
3000
,  // measure 46
0000
0031
1000
0010
0120
0230
0310
0000
,  // measure 47
1002
0000
0000
1003
1000
0100
0010
0010
0001
1000
0000
0000
,  // measure 48
0001
0000
0100
0000
0001
0000
0100
0000
0001
0000
0100
0000
0010
0000
0000
0000
0000
0000
0000
0000
0000
0000
0000
0000
0100
0000
0000
0000
0000
0000
0010
0000
0000
1000
0000
0000
0000
0000
0000
0001
0000
0000
0000
0000
0000
0010
0000
0000
,  // measure 49
0000
0000
0000
0000
0000
0000
0100
0000
0010
0000
0100
0000
0010
0000
0000
0000
0000
0000
0000
0000
0000
0010
0000
0000
0000
0000
0000
0001
0000
0000
0000
0000
0000
1000
0000
0000
0000
0000
0000
0010
0000
0000
1000
0000
0000
0000
0000
0000
,  // measure 50
0200
0000
0000
0000
0310
0000
0000
0000
0001
0000
1000
0010
0000
0010
0000
0010
,  // measure 51
0100
0000
0000
0000
0000
0000
0001
0000
0100
0000
0010
0000
1000
0000
0000
0000
0000
0000
0000
0000
0000
0000
0000
0000
1000
0000
0000
0000
0000
0000
0001
0000
0000
1000
0000
0000
0000
0000
0000
1000
0000
0000
0010
0000
0000
0000
0000
0000
,  // measure 52
0100
0000
0000
0000
0010
0000
0000
0000
1000
0000
0100
0010
0000
0001
0000
1000
,  // measure 53
0000
0000
0000
0000
0000
0000
0001
0000
0100
0000
0001
0000
0010
0000
0000
0000
0000
0000
0000
0000
0000
0100
0000
0000
0000
0000
0000
0100
0000
0000
0000
0000
0000
1000
0000
0000
0000
0000
0000
0010
0000
0000
1000
0000
0000
0000
0000
0000
,  // measure 54
0002
0000
0000
0000
0103
0000
0000
0000
0010
0000
1000
0010
0000
0100
0000
0001
,  // measure 55
1000
0000
0000
0001
0010
0100
1000
0000
0000
1000
0100
0010
0001
0000
0000
0001
0010
0100
2000
0000
0000
3020
0000
0000
,  // measure 56
0130
0000
0000
0000
0001
0000
0100
0000
0000
0000
0100
0000
0010
0000
0000
0000
0000
0000
0000
0000
0000
0000
0000
0000
0100
0000
0000
0000
0000
0000
0010
0000
0000
1000
0000
0000
0000
0000
0000
0001
0000
0000
0000
0000
0000
0010
0000
0000
,  // measure 57
0000
0000
0000
0000
0000
0000
0100
0000
1000
0000
0100
0000
1000
0000
0000
0000
0000
0000
0000
0000
0000
0100
0000
0000
0000
0000
0000
1000
0000
0000
0000
0000
0000
0010
0000
0000
0000
0000
0000
0100
0000
0000
0001
0000
0000
0000
0000
0000
,  // measure 58
2000
0000
0000
0000
3010
0000
0000
0000
0100
0000
0001
0010
0000
0001
0000
1000
,  // measure 59
0100
0000
0000
0000
0000
0000
0010
0000
0001
0000
1000
0000
0001
0000
0000
0000
0000
0000
0000
0000
0000
0000
0000
0000
1000
0000
0000
0000
0000
0000
0001
0000
0000
0010
0000
0000
0000
0000
0000
0010
0000
0000
0100
0000
0000
0000
0000
0000
,  // measure 60
0010
0000
0000
0000
0001
0000
0000
0000
0100
0000
0010
1000
0000
0001
0000
0010
,  // measure 61
0000
0000
0000
0100
1000
0010
0100
0000
0000
0010
0000
0000
1000
0000
0000
0100
0000
0000
0001
0000
0000
0100
0000
0000
,  // measure 62
0010
0000
0000
0001
0010
1000
0010
0100
1000
0010
0100
0001
,  // measure 63
0011
0000
0000
1100
0000
0000
1010
0000
0000
0101
0000
0000
1001
0000
0010
0000
,  // measure 64
1001
0000
0000
0000
;
