#VERSION:0.83;
#TITLE:灼熱Pt.2 Long Train Running;
#SUBTITLE:;
#ARTIST:DJ Mass MAD Izm*;
#TITLETRANSLIT:Shakunetsu Pt.2 Long Train Running;
#SUBTITLETRANSLIT:;
#ARTISTTRANSLIT:;
#GENRE:;
#ORIGIN:;
#CREDIT:;
#BANNER:Shakunetsu Pt.2 Long Train Running.png;
#BACKGROUND:Shakunetsu Pt.2 Long Train Running-bg.png;
#PREVIEWVID:;
#JACKET:Shakunetsu Pt.2 Long Train Running-jacket.png;
#CDIMAGE:;
#DISCIMAGE:;
#LYRICSPATH:;
#CDTITLE:;
#MUSIC:Shakunetsu Pt.2 Long Train Running.mp3;
#OFFSET:0.442000;
#SAMPLESTART:12.624908;
#SAMPLELENGTH:11.272726;
#SELECTABLE:YES;
#BPMS:0.000=165.000,
204.000=82.500,
219.000=165.000;
#STOPS:218.750=0.727;
#DELAYS:;
#WARPS:;
#TIMESIGNATURES:0.000=4=4;
#TICKCOUNTS:0.000=4;
#COMBOS:0.000=1;
#SPEEDS:0.000=1.000=0.000=0;
#SCROLLS:0.000=1.000;
#FAKES:;
#LABELS:0.000=Song Start;
#BGCHANGES:;
#KEYSOUNDS:;
#ATTACKS:
;

//---------------dance-single - ----------------
#NOTEDATA:;
#CHARTNAME:;
#STEPSTYPE:dance-single;
#DESCRIPTION:;
#CHARTSTYLE:;
#DIFFICULTY:Hard;
#METER:11;
#RADARVALUES:0.762672,1.145744,0.407654,0.376296,0.838828,681.000000,629.000000,52.000000,48.000000,0.000000,0.000000,9.000000,0.000000,0.000000,0.762672,1.145744,0.407654,0.376296,0.838828,681.000000,629.000000,52.000000,48.000000,0.000000,0.000000,9.000000,0.000000,0.000000;
#CREDIT:;
#NOTES:
// measure 0
0000
0000
0000
0000
,  // measure 1
0000
0000
0000
0000
,  // measure 2
0000
0000
0000
0000
,  // measure 3
0000
0000
0000
0000
,  // measure 4
0000
0000
0000
0000
,  // measure 5
1000
0000
0000
1000
0000
0000
0010
0000
0000
0010
0000
0000
0100
0000
0001
0000
,  // measure 6
0010
0000
0000
0010
0000
0000
0100
0000
0000
0100
0000
0000
1000
0000
0100
0000
,  // measure 7
0010
0000
0000
0010
0000
0000
0001
0000
0000
0001
0000
0000
1000
0000
0010
0000
,  // measure 8
0100
0000
0000
0002
0000
0000
0013
0000
0000
1000
0000
0000
0010
0000
0100
0000
,  // measure 9
1000
0000
0001
0000
0100
0000
0001
0000
1000
0000
0000
1000
0000
0000
1000
0000
,  // measure 10
0001
0000
0010
0000
0001
0000
1000
0000
0010
0000
0000
0100
0000
0000
0001
0000
,  // measure 11
0010
0000
0001
0000
1000
0000
0010
0000
0100
0000
0000
0100
0000
0000
0100
0000
,  // measure 12
0010
0000
1000
0000
0100
0000
1000
0000
0001
0000
0000
0100
0000
0000
0010
0000
,  // measure 13
1000
0001
1000
0000
0100
0000
1000
0000
0010
0000
0000
0100
0000
0000
0001
0000
,  // measure 14
1000
0001
1000
0000
0001
0000
1000
0000
0100
0000
0000
0010
0000
0000
0100
0000
,  // measure 15
1000
0010
0100
0001
0000
0000
0001
0100
0010
1000
0000
0000
,  // measure 16
0001
0100
0010
1000
0001
0100
0010
1000
0001
0010
0000
0000
,  // measure 17
0100
0000
1000
0000
0010
0000
0100
0000
0001
0000
1000
0010
0000
0010
0100
0000
,  // measure 18
0001
0000
1000
0001
1000
0000
0001
0000
0010
0100
0010
0000
1100
0000
0000
0000
,  // measure 19
1000
0000
0010
1000
0010
0000
0100
0000
0001
0000
1000
0001
0000
0001
0010
0000
,  // measure 20
0100
0000
0100
0000
1000
0000
0010
0100
0010
0000
0100
0000
2002
0000
3003
0000
,  // measure 21
0001
0000
1000
0001
0010
0000
0100
0000
1000
0000
0000
0010
0000
0000
0100
0000
,  // measure 22
0001
1000
0001
1000
0001
0000
0010
0000
0100
1000
0100
1000
0010
0000
0100
0000
,  // measure 23
0001
0000
0001
0000
1000
0010
1000
0001
0100
0001
0010
0000
0100
0000
0100
0000
,  // measure 24
1000
0000
0000
0000
0001
0000
0100
0000
0001
0000
0010
0100
0000
0100
1000
0000
,  // measure 25
0201
0000
0000
0000
1000
0000
0000
0000
0001
0000
0000
1000
0000
0000
0301
0000
,  // measure 26
0011
0000
0000
0000
1100
0000
0000
0000
1000
0000
0000
0010
0000
0000
0100
0000
,  // measure 27
0120
0000
0000
0000
0001
0000
0000
0000
1000
0000
0000
0001
0000
0000
1030
0000
,  // measure 28
1010
0000
0000
0000
0011
0000
0000
0000
0001
0000
0000
1000
0000
0000
0100
0000
,  // measure 29
0210
0000
0000
0000
0001
0000
0000
0000
1000
0000
0000
0001
0000
0000
1300
0000
,  // measure 30
1100
0000
0000
0000
0101
0000
0000
0000
0100
0000
0000
0001
0000
0000
0010
0000
,  // measure 31
0120
0000
0000
0000
0001
0000
0000
0000
1000
0000
0000
0001
0000
0000
1030
0000
,  // measure 32
0004
4000
0000
0000
0000
0000
0000
0000
0000
0000
0000
0000
3003
0000
0000
0000
,  // measure 33
0001
0100
0001
0000
0100
0000
0010
1000
0010
0000
1000
0000
1001
0000
0000
0000
,  // measure 34
1000
0000
0001
1000
0000
1000
0001
1000
0001
0000
0010
0000
0110
0000
0000
0000
,  // measure 35
1000
0000
0100
0010
0000
0010
0001
0010
0001
0000
1000
0000
1100
0000
0000
0000
,  // measure 36
1000
0010
1000
0010
0100
0000
0001
0010
0100
1000
0010
0100
0002
0000
0003
0000
,  // measure 37
1000
0001
1000
0000
0001
0000
1000
0001
1000
0000
0001
0000
1001
0000
0000
0000
,  // measure 38
0100
0000
0010
0100
0000
0100
0010
0100
0010
0000
0100
0000
0110
0000
0000
0000
,  // measure 39
0001
0100
0010
1000
0001
0010
0001
0100
0010
1000
0100
0010
0001
0010
0100
1000
,  // measure 40
0001
0000
0100
0000
0010
0000
1000
0000
0001
1000
0001
1000
0010
0000
0000
0000
,  // measure 41
2002
0000
0000
0000
0000
0000
3003
0000
1000
0001
0010
0000
0100
0000
1000
0000
,  // measure 42
0001
1000
0100
1000
0001
0000
2000
3001
0100
0010
0100
0010
0200
0300
0002
0023
,  // measure 43
0230
0000
0000
0000
0000
0000
0000
0000
0310
0000
0100
0000
2000
0000
0002
3000
,  // measure 44
0200
0003
0001
1300
0010
0000
0200
0300
0001
1000
0001
1000
0001
0000
1000
0000
,  // measure 45
2200
0000
0000
0000
0000
0000
0000
3300
1000
0000
0010
0000
1000
0100
0010
0001
,  // measure 46
0400
0040
0000
0000
0000
0000
0000
0000
0000
0000
0000
0000
0000
0000
0000
0330
,  // measure 47
2002
0000
0000
0000
0000
0000
3003
0000
0001
0000
1000
0010
0100
0000
0001
0000
,  // measure 48
0020
0030
0100
1000
0001
0100
0001
0010
0001
1000
0100
0010
0100
1000
0001
1000
,  // measure 49
0010
0000
0100
0000
0001
0000
0010
0000
0001
0000
1000
0000
0100
0000
0010
0000
0002
0000
0000
0003
0002
0000
0000
0003
0002
0000
1000
0003
0002
0000
0000
0000
,  // measure 50
0103
0000
0010
0000
2000
0000
0000
3000
2000
0000
0000
3000
2000
0000
0000
3000
2000
0000
0001
3000
2000
0000
0001
3000
1001
0000
0000
0000
0000
0000
0000
0000
,  // measure 51
0001
0000
0000
0000
0200
0000
2000
0300
0200
3000
0002
0300
0020
0003
0000
0000
0230
0000
0000
0000
0310
0000
0000
0000
1100
0000
0000
0000
0000
0000
0000
0000
,  // measure 52
1000
0001
0100
0001
0010
0000
0100
0000
0020
0000
0000
0000
0031
0000
0000
0000
1100
0000
0000
0000
0101
0000
0000
0000
1001
0000
0000
0000
2000
0000
0020
3000
,  // measure 53
0130
0001
0100
0001
0010
0000
0100
1000
0200
0000
2000
0300
3001
1000
0001
0000
0100
0000
0010
0000
0010
0000
0010
0000
1001
0000
0000
0000
1000
0000
0001
0000
,  // measure 54
0200
0000
0000
0000
0000
0000
0040
0000
0000
0000
0000
0000
0000
0000
0000
0000
0000
0000
0000
0000
0000
0000
0000
0000
0000
0000
0000
0000
0000
0000
0030
0000
0000
0000
0300
0000
1001
0000
0000
0000
0000
0000
0000
0000
0000
0001
0000
0000
,  // measure 55
0000
0000
0011
0000
0000
0010
0000
0000
0100
0000
1000
0000
1010
0000
0000
0010
,  // measure 56
0000
0000
0110
0000
0000
0100
0000
0000
0001
0000
1000
0000
1100
0000
0000
0100
,  // measure 57
0000
0000
0110
0000
0000
0010
0000
0000
0001
0000
0100
0000
0110
0000
0000
0010
,  // measure 58
0000
0000
1010
0000
0000
1000
0000
0000
0001
0000
1000
0000
1100
0000
0000
0011
,  // measure 59
0000
0000
0101
0000
0000
1010
0000
0000
1000
0000
0010
0000
0101
0000
0000
0011
,  // measure 60
0000
0000
0110
0000
0000
1100
0000
0000
0100
0000
0010
0000
0011
0000
0000
1100
,  // measure 61
0000
0000
0110
0000
0000
0011
0000
0000
0001
0100
0010
1000
0004
0040
0000
0000
,  // measure 62
0000
0000
0000
0000
0000
0000
0000
0000
0033
0000
0000
0000
1000
0000
0001
1000
,  // measure 63
0100
0000
0001
1000
0010
0000
0100
0001
0000
0001
0010
0000
0100
0000
0020
0001
,  // measure 64
1030
0000
0100
1000
0010
0000
0100
0001
0000
0001
1000
0000
0001
0100
0010
1000
,  // measure 65
0001
0000
1000
0000
0100
0000
0010
0001
0000
0001
1000
0000
0010
1000
0010
0100
,  // measure 66
0001
0010
0001
1000
0100
0000
0000
0010
0000
0000
0001
0000
1000
0010
1000
0010
,  // measure 67
1000
0000
0001
0100
0001
0000
0010
0100
0000
0100
1000
0000
0100
0010
0001
1000
,  // measure 68
0010
0000
0100
0001
1000
0000
0000
0010
0000
0000
0100
0000
0001
0010
0001
0010
,  // measure 69
0001
0000
1000
0001
0100
0000
0000
0010
0000
0000
1000
0000
0004
0400
0000
0000
,  // measure 70
0000
0000
0000
0000
0000
0000
0000
0000
0303
0000
0000
0000
0001
0000
0100
0010
,  // measure 71
1000
0000
0001
0010
0000
0010
0100
0000
1000
0000
0100
1000
0010
0000
0100
0000
,  // measure 72
0001
0000
1000
0001
0000
1000
0001
0100
0010
1000
0001
0000
1000
0000
0010
0100
,  // measure 73
0001
0000
0001
1000
0100
0010
0100
1000
0001
1000
0001
0000
0010
0100
0010
0100
,  // measure 74
1000
0000
0001
0000
0001
1000
0000
1000
0001
0000
1000
0000
0001
0100
0010
1000
,  // measure 75
0100
1000
0010
0100
0001
0000
0010
0100
0000
0100
1000
0000
0001
0100
0010
1000
,  // measure 76
0100
1000
0001
0010
0100
0000
1000
0100
0000
0010
0001
0000
1000
0010
0100
0001
,  // measure 77
0010
0100
0010
0001
1001
0000
0000
0101
0000
0000
1010
0000
1000
0010
0100
0001
,  // measure 78
0010
1000
0010
0000
1001
0000
0000
0110
0000
0000
2002
0000
0000
0000
0000
0000
,  // measure 79
3003
0000
0000
0000
;

//---------------dance-single - ----------------
#NOTEDATA:;
#CHARTNAME:;
#STEPSTYPE:dance-single;
#DESCRIPTION:;
#CHARTSTYLE:;
#DIFFICULTY:Easy;
#METER:6;
#RADARVALUES:0.371817,0.462286,0.446852,0.431173,0.023519,332.000000,275.000000,57.000000,55.000000,0.000000,0.000000,0.000000,0.000000,0.000000,0.371817,0.462286,0.446852,0.431173,0.023519,332.000000,275.000000,57.000000,55.000000,0.000000,0.000000,0.000000,0.000000,0.000000;
#CREDIT:;
#NOTES:
// measure 0
0000
0000
0000
0000
,  // measure 1
0000
0000
0000
0000
,  // measure 2
0000
0000
0000
0000
,  // measure 3
0000
0000
0000
0000
,  // measure 4
0000
0000
0000
0000
,  // measure 5
1000
0001
1000
1001
,  // measure 6
0100
0010
0100
0110
,  // measure 7
1000
0010
1000
1010
,  // measure 8
1000
0101
0001
0010
,  // measure 9
0002
0000
2000
3003
,  // measure 10
0020
0000
0200
0330
,  // measure 11
0002
0000
0200
0303
,  // measure 12
2000
0000
0020
3030
,  // measure 13
2010
0000
0200
3300
,  // measure 14
0012
0000
0200
0303
,  // measure 15
0102
0013
2100
3010
,  // measure 16
1001
0110
1001
0110
,  // measure 17
0001
0100
0020
2030
,  // measure 18
3100
1000
0020
0130
,  // measure 19
0010
1000
0002
0023
,  // measure 20
0031
0000
1000
0000
0010
0100
1001
0000
,  // measure 21
0001
1000
0200
2300
,  // measure 22
3010
0100
0001
2000
,  // measure 23
3100
2000
3020
0230
,  // measure 24
0301
0010
0002
0013
,  // measure 25
1001
1001
1001
1001
,  // measure 26
0010
0100
0010
0100
,  // measure 27
1001
1001
1001
1001
,  // measure 28
0100
0010
0100
0010
,  // measure 29
0110
0110
0110
0110
,  // measure 30
0001
1000
0001
1000
,  // measure 31
0110
0110
0110
0110
,  // measure 32
2002
0000
0000
3003
,  // measure 33
0001
0100
0001
1001
,  // measure 34
1000
0100
1000
1001
,  // measure 35
0001
0100
0001
1001
,  // measure 36
1000
0100
1000
1010
,  // measure 37
1000
0001
0010
0011
,  // measure 38
0001
1000
0010
1010
,  // measure 39
1000
0010
0100
0001
,  // measure 40
2000
0000
0000
3000
,  // measure 41
0022
0000
0000
0033
0001
0000
0010
0000
,  // measure 42
0001
0100
0001
1000
,  // measure 43
2200
0000
0000
3300
1000
0000
0100
0000
,  // measure 44
1000
1000
0010
0100
,  // measure 45
2002
0000
0000
3003
0001
0000
0100
0000
,  // measure 46
0020
0000
0000
0000
0000
0000
0000
0030
,  // measure 47
2002
0000
0000
3003
0001
0000
1000
0000
,  // measure 48
0010
0010
1000
0001
,  // measure 49
0100
0001
0021
0130
,  // measure 50
1000
0000
0100
0000
1000
0100
0010
0000
,  // measure 51
0100
0000
1000
0000
0010
0010
0100
0000
,  // measure 52
0001
0000
1000
0000
0100
0100
1000
0000
,  // measure 53
0001
0000
0100
0000
0010
0100
0001
0000
,  // measure 54
1000
0020
0000
0000
0000
0000
0130
0000
,  // measure 55
0001
1000
1001
0001
,  // measure 56
0010
0100
0110
0100
,  // measure 57
1000
0100
1100
1000
,  // measure 58
0010
0100
0110
0100
,  // measure 59
0001
0010
0110
0100
,  // measure 60
1000
0010
0110
0200
,  // measure 61
0310
0020
0130
2002
,  // measure 62
0000
0000
3003
0102
,  // measure 63
0013
0000
0100
0000
1000
0000
0100
0010
,  // measure 64
0100
1000
0001
2000
,  // measure 65
3001
0200
0310
2000
,  // measure 66
3001
0020
0130
0021
,  // measure 67
0100
0001
0031
2100
,  // measure 68
0010
0100
3100
0102
,  // measure 69
0013
2100
3010
2002
,  // measure 70
0000
0000
3003
0001
,  // measure 71
0001
0000
0000
0000
0001
0000
0000
1000
0000
0000
0010
0000
0100
0000
0000
0000
,  // measure 72
0010
0100
0001
1000
,  // measure 73
0010
0000
0000
0000
1000
0000
0000
0010
0000
0000
0100
0000
0001
0000
0000
0000
,  // measure 74
1000
0100
1000
0010
,  // measure 75
1000
0000
0000
0000
0010
0000
0000
0010
0000
0000
0010
0000
0100
0000
0000
0000
,  // measure 76
0001
0000
0000
0000
1000
0000
0000
1000
0000
0000
1000
0000
0001
0000
0000
0000
,  // measure 77
0100
0000
0000
0000
0010
0000
0000
0010
0000
0000
0010
0000
0100
0000
0000
0000
,  // measure 78
0010
0000
0000
0000
1001
0000
0000
0110
0000
0000
1001
0000
0000
0000
0000
0000
;

//---------------dance-single - ----------------
#NOTEDATA:;
#CHARTNAME:;
#STEPSTYPE:dance-single;
#DESCRIPTION:;
#CHARTSTYLE:;
#DIFFICULTY:Medium;
#METER:8;
#RADARVALUES:0.478210,0.647201,0.525247,0.282222,0.160710,427.000000,360.000000,67.000000,36.000000,0.000000,0.000000,10.000000,0.000000,0.000000,0.478210,0.647201,0.525247,0.282222,0.160710,427.000000,360.000000,67.000000,36.000000,0.000000,0.000000,10.000000,0.000000,0.000000;
#CREDIT:;
#NOTES:
// measure 0
0000
0000
0000
0000
,  // measure 1
0000
0000
0000
0000
,  // measure 2
0000
0000
0000
0000
,  // measure 3
0000
0000
0000
0000
,  // measure 4
0000
0000
0000
0000
,  // measure 5
0001
0000
1000
0000
0001
0000
1000
0010
,  // measure 6
0100
0000
0010
0000
0100
0000
0010
0100
,  // measure 7
0001
0000
0010
0000
0001
0000
0010
0100
,  // measure 8
1000
0000
0011
0000
0100
0000
1000
0100
,  // measure 9
2000
0000
3002
0000
,  // measure 10
0203
0000
0302
0000
,  // measure 11
0023
0000
0032
0000
,  // measure 12
2003
0000
3200
0000
,  // measure 13
1300
0010
0100
1001
,  // measure 14
0001
0010
0100
1100
,  // measure 15
1002
0103
2001
3100
,  // measure 16
1002
0100
0100
0103
,  // measure 17
0001
0000
0100
0000
0010
1000
0001
0010
,  // measure 18
0100
0000
0010
0000
0001
0010
0011
0000
,  // measure 19
1000
0000
0001
0000
0100
0001
0010
0001
,  // measure 20
1000
0001
0000
0100
0010
1000
1001
0000
,  // measure 21
1000
0000
0001
0000
0010
0001
0010
0001
,  // measure 22
1000
0000
0001
0100
0010
0000
0100
0010
,  // measure 23
1000
0001
1000
0000
0100
0000
1000
0010
,  // measure 24
0100
0000
0001
0000
0010
0100
1000
0001
,  // measure 25
0101
0000
0000
0000
0011
0000
0000
0000
0010
0000
0000
0100
0000
0000
1000
0000
,  // measure 26
0001
0000
0000
0000
0100
0000
0000
0000
0001
0000
0000
1000
0000
0000
0100
0000
,  // measure 27
0110
0000
0000
0000
0011
0000
0000
0000
0010
0000
0000
0001
0000
0000
1000
0000
,  // measure 28
0100
0000
0000
0000
1000
0000
0000
0000
0010
0000
0000
0100
0000
0000
0001
0000
,  // measure 29
1001
0000
0000
0000
1010
0000
0000
0000
1000
0000
0000
0010
0000
0000
0100
0000
,  // measure 30
0001
0000
0000
0000
0010
0000
0000
0000
0100
0000
0000
0010
0000
0000
0001
0000
,  // measure 31
1001
0000
0000
0000
0110
0000
0000
0000
0100
0000
0000
0010
0000
0000
1000
0000
,  // measure 32
0004
0040
0000
0000
0000
0000
0000
0000
0000
0000
0000
0000
0033
0000
0000
0000
,  // measure 33
2010
3010
0102
0103
,  // measure 34
0021
0031
0210
0310
,  // measure 35
2100
3100
0102
0103
,  // measure 36
0021
0031
2010
3010
,  // measure 37
1002
0013
2001
3100
,  // measure 38
0102
0103
2010
3010
,  // measure 39
1002
0013
2001
3010
,  // measure 40
0440
0000
0000
0330
,  // measure 41
2002
0000
0000
3003
1000
0001
0010
0001
,  // measure 42
0100
0000
0001
0010
1000
0000
1000
0010
,  // measure 43
0022
0000
0000
0033
0000
0001
1000
0010
,  // measure 44
1000
0100
0010
0200
1300
0010
0100
0001
,  // measure 45
2002
0000
0000
3003
0000
1000
0001
0100
,  // measure 46
0040
0400
0000
0000
0000
0000
0000
0000
0000
0000
0000
0000
0000
0000
0330
0000
,  // measure 47
2002
0000
0000
3003
1000
0010
0100
0001
,  // measure 48
0010
0001
0100
0001
1000
0100
1000
0001
,  // measure 49
0010
0100
0010
0001
1000
1000
0001
1000
,  // measure 50
0001
0100
0010
1000
0001
0100
1001
0000
,  // measure 51
1000
0000
0010
0100
0001
0000
0010
0000
0100
0000
0100
0000
1001
0000
0000
0000
,  // measure 52
0001
0000
1000
0010
0100
0000
0001
0000
0010
0000
0010
0000
0110
0000
0000
0000
,  // measure 53
0100
0000
0010
0001
0100
0000
0010
0000
0000
1000
0001
1000
0001
0000
0100
0000
,  // measure 54
0010
0000
2002
0000
0000
0000
0000
0000
0000
0000
0000
3003
0001
0000
0001
0000
,  // measure 55
0000
0001
0000
0000
0001
0000
0000
0000
1001
0000
0000
0000
1000
0000
0000
1000
,  // measure 56
0000
0000
1000
0000
0000
1000
0000
0000
1001
0000
0000
0000
0010
0000
0000
0010
,  // measure 57
0000
0000
0010
0000
0010
0000
0000
0110
0000
0000
0000
0000
0100
0000
0000
0100
,  // measure 58
0000
0000
0100
0000
0000
0100
0000
0000
0110
0000
0000
0000
1000
0000
0000
0010
,  // measure 59
0000
0000
0100
0000
0001
0000
0000
0000
0011
0000
0000
0000
0001
0000
0000
0010
,  // measure 60
0000
0000
0100
0000
0000
1000
0000
0000
1100
0000
0000
0000
4000
0004
0000
0000
,  // measure 61
0000
0000
0000
0000
,  // measure 62
0000
0000
3003
0001
,  // measure 63
0100
0000
0000
0000
0010
0000
0000
1000
0000
0000
0100
0000
1000
0000
0100
0000
,  // measure 64
0001
0000
0100
0000
0010
0000
0000
0100
0000
0000
1000
0000
0010
0000
0100
0000
,  // measure 65
0001
0000
0010
0000
0100
0000
0000
0100
0000
0000
0100
0000
0010
0000
0000
0000
,  // measure 66
0001
0000
0000
0000
1000
0000
0000
0001
0000
0000
0100
0000
0010
0000
1000
0000
,  // measure 67
0100
0000
0000
0000
0010
0000
0000
0001
0000
0000
0100
0000
0010
0000
1000
0000
,  // measure 68
0001
0000
0000
0000
0010
0000
0000
0001
0000
0000
1000
0000
0010
0000
0100
0000
,  // measure 69
0010
0000
0000
0000
0100
0000
0000
0001
0000
0000
1000
0000
0004
0400
0000
0000
,  // measure 70
0000
0000
0303
1001
,  // measure 71
1001
0000
0000
0000
1001
0000
0000
1001
0000
0000
1001
0000
0001
0000
0000
0000
,  // measure 72
0100
0000
0000
0000
0010
0000
0000
1000
0000
0000
0100
0000
0110
0000
0000
0000
,  // measure 73
0110
0000
0000
0000
0110
0000
0000
0110
0000
0000
0110
0000
0100
0000
0000
0000
,  // measure 74
0010
0000
0000
0000
0001
0000
0000
0100
0000
0000
0010
0000
1001
0000
0000
0000
,  // measure 75
0101
0000
0000
0000
0011
0000
0000
0110
0000
0000
1100
0000
1000
0000
0000
0000
,  // measure 76
0001
0000
0000
0000
0100
0000
0000
0010
0000
0000
1000
0000
1010
0000
0000
0000
,  // measure 77
0101
0000
0000
0000
0011
0000
0000
0110
0000
0000
0100
0000
0010
0000
0001
0000
,  // measure 78
0100
0000
0010
0000
1010
0000
0000
0101
0000
0000
0011
0000
0000
0000
0000
0000
;

//---------------dance-single - ----------------
#NOTEDATA:;
#CHARTNAME:;
#STEPSTYPE:dance-single;
#DESCRIPTION:;
#CHARTSTYLE:;
#DIFFICULTY:Beginner;
#METER:2;
#RADARVALUES:0.136631,0.215733,0.125432,0.000000,0.000000,122.000000,106.000000,16.000000,0.000000,0.000000,0.000000,0.000000,0.000000,0.000000,0.136631,0.215733,0.125432,0.000000,0.000000,122.000000,106.000000,16.000000,0.000000,0.000000,0.000000,0.000000,0.000000,0.000000;
#CREDIT:;
#NOTES:
// measure 0
0000
0000
0000
0000
,  // measure 1
0000
0000
0000
0000
,  // measure 2
0000
0000
0000
0000
,  // measure 3
0000
0000
0000
0000
,  // measure 4
0000
0000
0000
0000
,  // measure 5
1000
0000
0000
0000
,  // measure 6
1000
0000
0000
0000
,  // measure 7
1000
0000
0000
0000
,  // measure 8
1000
0001
0000
0000
,  // measure 9
0100
0000
0000
0000
,  // measure 10
0010
0000
0000
0000
,  // measure 11
1000
0000
0000
0000
,  // measure 12
0001
0000
0000
0000
,  // measure 13
0010
0000
0000
0000
,  // measure 14
0001
0000
0000
0000
,  // measure 15
0100
0000
0100
0000
,  // measure 16
0010
0010
0010
0010
,  // measure 17
1000
0000
0001
0000
,  // measure 18
0100
0000
0000
0000
,  // measure 19
0010
0000
0100
0000
,  // measure 20
0001
0000
0000
0000
,  // measure 21
1000
0000
0100
0000
,  // measure 22
1000
0000
0000
0000
,  // measure 23
0010
0000
0100
0000
,  // measure 24
0010
0000
0000
0000
,  // measure 25
1000
0000
0001
0000
,  // measure 26
0100
0000
0000
0000
,  // measure 27
0001
0000
1000
0000
,  // measure 28
0010
0000
0000
0000
,  // measure 29
0100
0000
0010
0000
,  // measure 30
1000
0000
0000
0000
,  // measure 31
0001
0000
0010
0000
,  // measure 32
1001
0000
0000
0000
,  // measure 33
0100
0000
0000
0000
,  // measure 34
0010
0000
0000
0000
,  // measure 35
0100
0000
0000
0000
,  // measure 36
0001
0000
0000
1000
,  // measure 37
0001
0000
0000
0000
,  // measure 38
0100
0000
0000
0000
,  // measure 39
0010
0000
0000
0000
,  // measure 40
1000
0000
0000
0000
,  // measure 41
1001
0000
1000
0000
,  // measure 42
0000
0000
0000
0000
,  // measure 43
0110
0000
0010
0000
,  // measure 44
0000
0000
0000
0000
,  // measure 45
1001
0000
0000
0000
,  // measure 46
0010
0000
0000
0000
,  // measure 47
0110
0000
0100
0000
,  // measure 48
0000
0000
0000
0000
,  // measure 49
0010
0000
0100
0000
,  // measure 50
0000
0010
0010
1001
,  // measure 51
0001
0000
0100
0000
,  // measure 52
0010
0000
1000
0000
,  // measure 53
0001
0000
1000
0000
,  // measure 54
0010
0000
0000
0100
,  // measure 55
0000
0000
0000
0100
,  // measure 56
0000
0000
0000
0100
,  // measure 57
0000
0000
0000
0100
,  // measure 58
0000
0000
0000
0110
,  // measure 59
0000
0000
0000
1001
,  // measure 60
0000
0000
0000
0110
,  // measure 61
0000
0000
0000
1001
,  // measure 62
0000
0000
0000
0001
,  // measure 63
0000
0001
0000
1000
,  // measure 64
0000
0001
0000
0100
,  // measure 65
0000
0100
0000
0010
,  // measure 66
0000
0010
0000
1000
,  // measure 67
0000
1000
0000
0001
,  // measure 68
0000
0001
0000
1000
,  // measure 69
0000
0001
0000
0110
,  // measure 70
0000
0000
0000
1001
,  // measure 71
0000
0000
0000
0001
,  // measure 72
0000
1000
0000
0110
,  // measure 73
0000
0000
0000
0010
,  // measure 74
0000
0100
0000
1001
,  // measure 75
0000
0000
0000
0100
,  // measure 76
0000
0001
0000
1001
,  // measure 77
0000
0000
0000
0010
,  // measure 78
0000
0000
0100
0000
0000
1001
0000
0000
;
