#TITLE:Shake your ass;
#SUBTITLE:;
#ARTIST:X-Ray;
#TITLETRANSLIT:;
#SUBTITLETRANSLIT:;
#ARTISTTRANSLIT:;
#GENRE:;
#CREDIT:;
#BANNER:Shake your ass.png;
#BACKGROUND:Shake your ass-bg.png;
#LYRICSPATH:;
#CDTITLE:;
#MUSIC:Shake your ass.ogg;
#OFFSET:-10.273029;
#SAMPLESTART:0.000000;
#SAMPLELENGTH:10.267380;
#SELECTABLE:YES;
#BPMS:0.000000=187.000000
;
#STOPS:
;
#BGCHANGES:;
#KEYSOUNDS:;
#ATTACKS:;

//---------------dance-single - ----------------
#NOTES:
     dance-single:
     :
     Hard:
     9:
     0.634467,0.887608,0.000000,0.206571,1.166264,516.000000,516.000000,0.000000,24.000000,0.000000,0.000000,0.634467,0.887608,0.000000,0.206571,1.166264,516.000000,516.000000,0.000000,24.000000,0.000000,0.000000:
1000
0000
0001
1000
0000
0001
0000
0000
0100
0000
0000
0010
,
1000
0000
1000
0001
0000
0010
0000
0000
0100
0000
0000
1000
,
0100
0000
0010
0001
0000
0100
0000
0000
0010
0000
0000
1000
,
0010
0000
0010
0100
0000
0100
0001
0000
0001
1000
0000
1000
,
0100
0000
0010
0001
0000
1000
0000
0000
0001
0000
0000
1000
,
0100
0000
1000
0010
0000
0100
0000
0000
0001
0000
0000
1000
,
0001
0000
0001
0010
0000
0100
0000
0000
1000
0000
0000
0100
,
0010
0000
0010
0001
0000
0001
1000
0000
1000
0010
0000
0010
,
0200
0000
0000
0000
0000
0000
0301
0000
1000
0001
0000
0001
,
1000
0000
0020
0000
0000
0000
0000
0000
0130
0001
0000
0001
,
1000
0000
0100
0000
0000
1000
0001
0000
0000
1000
0000
0010
,
0000
0000
1000
0001
0000
0000
1000
0000
0010
0000
0000
0100
,
0002
0000
0000
0000
0000
0000
1003
0000
0001
0010
0000
0010
,
0100
0000
2000
0000
0000
0000
0000
0000
3100
0010
0000
0010
,
0100
0000
1000
0000
0000
0100
0010
0000
0000
0100
0000
1000
,
0000
0000
1000
0001
0000
0000
0100
0000
0001
0000
0000
0000
,
2000
0000
0000
3010
0000
0000
0010
0000
0100
0010
0000
0100
,
0001
0000
2000
0000
0000
0000
0000
0000
0000
3001
0000
1000
,
0010
1000
0001
0010
,
0100
0000
0010
0001
0000
2000
0000
0000
0000
0000
0000
0000
,
3020
0000
0000
0000
0000
0000
0130
0000
0001
0100
0000
0100
,
0001
0000
2000
0000
0000
0000
0000
0000
0000
3001
0000
1000
,
0010
0000
0010
0100
0000
0100
0001
0000
0001
0010
0000
0010
,
0100
0000
0100
0010
0000
0000
0010
0000
0200
0000
0000
0000
,
2300
0000
0000
0000
0000
0000
3001
0000
1000
0001
0000
0001
,
0100
0000
0002
0000
0000
0000
0000
0000
0000
1003
0000
0001
,
0010
1000
0010
0001
,
1000
0000
0001
0100
0000
0001
0010
0100
1000
0001
0010
0100
,
2000
0000
0000
0000
0000
0000
3001
0000
1000
0001
0000
0001
,
1000
0000
0200
0000
0000
0000
0000
0000
0000
0310
0000
0001
,
0010
0001
0100
0010
,
0100
0010
1000
0001
0010
0100
1000
0010
0100
0001
1000
0001
,
1000
0001
0100
0010
1000
0001
0100
0010
1000
0001
0100
0010
,
1000
0100
0010
0001
1000
0100
0010
0001
1000
0100
0010
0100
,
1000
0001
0010
0100
1000
0001
0010
0100
1000
0001
0010
0100
,
0010
0001
0010
0100
1000
0100
0010
0100
1000
0001
0010
0100
,
1000
0001
0100
0001
1000
0100
1000
0001
0100
0001
1000
0100
,
1000
0001
0010
0001
1000
0010
1000
0001
0010
0001
1000
0010
,
1000
0010
0100
0010
1000
0010
0100
0010
1000
0010
0100
0010
,
0100
0001
0010
0100
0010
0001
0100
0010
0100
0010
1000
0001
,
1000
0000
0100
0000
0000
0010
0000
0000
0010
0000
0000
0001
,
0010
0000
0001
0000
0000
1000
0000
0000
1000
0000
0000
0001
,
1000
0000
1000
0001
0000
0001
1000
0000
0001
0010
0000
0010
,
0100
0000
0100
1000
0000
1000
0100
0000
0100
0010
0000
0010
,
0002
0000
0000
1000
0000
0000
0103
0000
0001
0100
0000
0100
,
0010
0000
2000
0000
0000
0000
0000
0000
0000
3001
0000
1000
,
0001
0000
0010
0000
0000
0010
0100
0000
0000
0100
0000
0010
,
0000
0000
0010
0001
0000
0000
0001
0000
1000
0000
0000
0010
,
1000
0000
0000
0000
0000
0000
0000
0000
0000
0001
0000
0000
1000
0000
0000
0000
0000
0000
0000
0000
0100
0000
0000
0000
1000
0000
0000
0000
0000
0000
0000
0000
1000
0000
0000
0000
0010
0000
0000
0000
0000
0000
0000
0000
0100
0000
0000
0000
,
0000
0000
0001
1000
0000
0000
0000
0000
1000
0100
0000
0100
,
1000
0000
0000
0000
0000
0000
0000
0000
0000
0010
0000
0000
1000
0000
0000
0000
0000
0000
0000
0000
1000
0000
0000
0000
0001
0000
0000
0000
0000
0000
0000
0000
0001
0000
0000
0000
0100
0000
0000
0000
0000
0000
0000
0000
0010
0000
0000
0000
,
0000
0000
0100
0001
0000
0000
0000
0000
0001
1000
0000
1000
,
0001
0000
0000
0000
0000
0000
0000
0000
0000
0010
0000
0000
0001
0000
0000
0000
0000
0000
0000
0000
0010
0000
0000
0000
0100
0000
0000
0000
0000
0000
0000
0000
0100
0000
0000
0000
1000
0000
0000
0000
0000
0000
0000
0000
0010
0000
0000
0000
,
0000
0000
0100
0001
0000
0000
0000
0000
0001
1000
0000
1000
,
0010
0000
0000
0000
0000
0000
0000
0000
0000
0010
0000
0000
0100
0000
0000
0000
0000
0000
0000
0000
0010
0000
0000
0000
1000
0000
0000
0000
0000
0000
0000
0000
1000
0000
0000
0000
0001
0000
0000
0000
0000
0000
0000
0000
0010
0000
0000
0000
,
0000
0000
0100
1000
0000
0000
0000
0000
0100
1000
0000
1000
,
0001
0000
0100
0010
0000
0010
1000
0000
0000
0001
0000
0000
,
0100
0001
0020
0000
,
0130
1000
0002
0000
,
1003
0001
0200
0000
,
0301
0000
1000
0100
0000
0100
0010
0000
0000
0001
0000
0000
,
1000
0010
0200
0000
,
0310
0000
0000
1000
0000
0001
0100
0000
0000
0010
0000
0100
,
0001
0000
1000
0000
0000
0000
1000
0000
1000
0001
0000
0001
,
1000
0000
0010
0100
0000
0100
0001
0000
0000
1000
0000
0000
,
0010
1000
0200
0000
,
0310
0001
2000
0000
,
3001
1000
0020
0000
,
0130
0000
0001
0000
0000
0100
0010
0000
1000
0000
0000
0001
,
0100
0000
0010
0000
0000
0100
0010
0000
1000
0000
0000
0001
,
0100
0000
0010
0000
0000
1000
0001
0000
1000
0000
0000
0001
,
1000
0100
0010
0001
0010
0100
1000
0100
0010
0001
0010
0100
,
1000
0000
0000
0000
0000
0000
0000
0000
0000
0001
0000
0000
0100
0000
0000
0000
0000
0000
0000
0000
0010
0000
0000
0000
1000
0000
0000
0000
0000
0000
0000
0000
0100
0000
0000
0000
0001
0000
0000
0000
0000
0000
0000
0000
1000
0000
0000
0000
,
0000
0000
0001
1000
0000
0000
0100
0000
0010
0100
0000
0100
,
0010
0000
0000
0000
0000
0000
0000
0000
0000
0001
0000
0000
1000
0000
0000
0000
0000
0000
0000
0000
0010
0000
0000
0000
1000
0000
0000
0000
0000
0000
0000
0000
0100
0000
0000
0000
0001
0000
0000
0000
0000
0000
0000
0000
1000
0000
0000
0000
,
0000
0000
1000
0100
0000
0000
0010
0000
0001
0100
0001
1000
,
0001
0000
0000
0000
0000
0000
0000
0000
0000
1000
0000
0000
0100
0000
0000
0000
0000
0000
0000
0000
0010
0000
0000
0000
0001
0000
0000
0000
0000
0000
0000
0000
0001
0000
0000
0000
0100
0000
0000
0000
0000
0000
0000
0000
0010
0000
0000
0000
,
0000
0000
0100
0001
0000
0001
1000
0000
1000
0100
0000
0100
,
0010
0000
0000
0000
0000
0000
0000
0000
0000
0010
0000
0000
0001
0000
0000
0000
0000
0000
0000
0000
0010
0000
0000
0000
0100
0000
0000
0000
0000
0000
0000
0000
0100
0000
0000
0000
1000
0000
0000
0000
0000
0000
0000
0000
1000
0000
0000
0000
,
0001
0000
0000
0000
0000
0100
0000
0000
0000
0000
0001
0000
1000
0000
0000
0000
0000
0010
0000
0000
0000
0000
1000
0000
,
0200
0000
0000
0000
,
0000
0000
0000
0000
,
0000
0000
0300
0000
;

//---------------dance-single - ----------------
#NOTES:
     dance-single:
     :
     Medium:
     7:
     0.403305,0.497061,0.000000,0.464784,0.417445,328.000000,328.000000,0.000000,54.000000,0.000000,0.000000,0.403305,0.497061,0.000000,0.464784,0.417445,328.000000,328.000000,0.000000,54.000000,0.000000,0.000000:
0001
0000
0000
0000
0000
1000
0000
0000
0010
0000
0000
0000
,
0100
0000
0000
0000
0000
0001
0000
0000
0010
0000
0000
0000
,
0100
0000
0000
0000
0000
0010
0000
0000
0100
0000
0000
0000
,
1000
1000
0001
0001
,
0100
0000
0000
0000
0000
0010
0000
0000
0010
0000
0000
0000
,
0100
0000
0000
0000
0000
0001
0000
0000
0001
0000
0000
0000
,
0010
0000
0000
0000
0000
0100
0000
0000
0100
0000
0000
0000
,
0010
0100
1000
0001
,
2000
0000
0000
0000
0000
3000
0001
0000
0000
1000
0000
0000
,
0010
0000
2000
0000
0000
0000
0000
0000
0000
3010
0000
0000
,
0100
0000
0010
0000
0000
0010
1000
0000
0000
1000
0000
0001
,
0000
0000
0001
0010
0000
0000
0010
0000
0100
0000
0000
0000
,
0020
0000
0130
1000
,
0001
0000
2000
0000
0000
0000
0000
0000
0000
3001
0000
0000
,
1000
0000
0010
0000
0000
0100
0001
0000
0000
0010
0000
0100
,
0000
0000
0100
1000
0000
0000
0001
0000
1000
0000
0000
0010
,
0100
0001
0010
0100
,
1000
0000
0002
0000
0000
0000
0000
0000
0000
1003
0000
0001
,
1000
0100
0010
0100
,
0010
0000
0001
1000
0000
0200
0000
0000
0000
0000
0000
0000
,
0320
0000
0031
0100
,
0010
0000
2000
0000
0000
0000
0000
0000
0000
3001
0000
0000
,
0010
0001
0100
0010
,
1000
0000
0001
0010
0000
0000
0100
0000
2000
0000
0000
0000
,
3020
0000
0130
0001
,
0010
0000
0200
0000
0000
0000
0000
0000
0000
1300
0000
0000
,
0100
1000
0010
0100
,
0001
0010
0002
2003
,
3020
0000
0130
0001
,
1000
0000
0200
0000
0000
0000
0000
0000
0000
0310
0000
0000
,
0100
1000
0010
0100
,
0002
0023
0230
2300
,
3001
0000
1000
0000
0000
0001
0000
0000
1000
0000
0000
0001
,
0100
0000
0010
0000
0000
0010
0000
0000
1000
0000
0000
0010
,
0100
0000
0010
0000
0000
0010
0000
0000
1000
0000
0000
0100
,
0010
0000
0001
0000
0000
0001
0000
0000
0010
0000
0000
0100
,
1000
0000
0100
0000
0000
0100
0000
0000
1000
0000
0000
0010
,
0100
0000
0001
0000
0000
0001
0000
0000
1000
0000
0000
0010
,
0100
0000
0001
0000
0000
1000
0000
0000
0100
0000
0000
0010
,
0001
0000
0010
0000
0000
0010
0000
0000
0100
0000
0000
1000
,
0002
0023
0032
0203
,
0302
2003
3200
0320
,
0230
0320
0032
0203
,
0320
2030
3002
0023
,
0032
0000
1003
0100
,
1000
0000
0020
0000
0000
0000
0000
0000
0000
0130
0000
0000
,
0001
0000
1000
0000
0000
0010
0100
0000
0000
0100
0000
0001
,
0000
0000
0010
0100
0000
0000
0100
0000
2000
0000
0000
0000
,
3001
0000
1000
0001
0000
0000
0100
0000
0000
0010
0000
0000
,
1000
0100
0001
0100
,
1000
0000
0001
0100
0000
0000
0010
0000
0000
1000
0000
0000
,
0100
0001
0100
0010
,
0001
0000
1000
0010
0000
0000
0100
0000
0000
0001
0000
0000
,
0010
1000
0010
0100
,
1000
0000
0001
0010
0000
0000
0100
0000
0000
0010
0000
0000
,
0001
1000
0010
0100
,
0001
0000
1000
0001
0000
0001
1000
0000
0000
0010
0000
0000
,
0100
0001
0200
0000
,
0310
1000
0002
0000
,
0013
0100
2000
0000
,
3100
0000
0010
0001
0000
0001
1000
0000
0000
0010
0000
0000
,
1000
0001
0200
0000
,
0310
0000
0000
1000
0000
0001
1000
0000
0000
0010
0000
1000
,
0001
0000
1000
0000
0000
0001
0100
0000
0100
0010
0000
0000
,
0100
0000
0010
1000
0000
1000
0001
0000
0000
0010
0000
0000
,
0001
1000
0200
0000
,
0310
0001
2000
0000
,
3001
0100
0020
0000
,
0130
0000
0100
0000
0000
0000
0010
0000
0010
0000
0000
0000
,
1000
0000
1000
0000
0000
0000
0001
0000
0001
0000
0000
0000
,
1000
0000
1000
0000
0000
0000
0100
0000
0100
0000
0000
0000
,
2000
3200
0320
0032
,
0203
1000
0310
1000
,
0001
0010
0001
1000
,
0200
0001
0310
0001
,
0100
0100
0001
0001
,
0020
1000
0130
0010
,
0001
1000
0010
1000
,
0200
0001
0310
0001
,
1000
0000
0000
0000
0000
0100
0000
0000
0000
0000
0010
0000
0001
0000
0000
0000
0000
1000
0000
0000
0000
0000
0001
0000
,
0200
0000
0000
0000
,
0000
0000
0000
0000
,
0000
0000
0300
0000
;

//---------------dance-single - ----------------
#NOTES:
     dance-single:
     :
     Easy:
     5:
     0.347973,0.390548,0.077464,0.232392,0.000000,283.000000,274.000000,9.000000,27.000000,0.000000,0.000000,0.347973,0.390548,0.077464,0.232392,0.000000,283.000000,274.000000,9.000000,27.000000,0.000000,0.000000:
1000
0001
1000
0000
,
0010
0100
0010
0000
,
1000
0010
1000
0000
,
0001
0001
1000
0010
,
0100
0001
0100
0000
,
0010
1000
0010
0000
,
0100
0010
0100
0000
,
0010
0010
0100
0100
,
0002
0000
1003
0100
,
0020
0000
0000
0130
,
0100
0010
0001
0010
,
0100
0010
0001
0001
,
2000
0000
3001
1000
,
0020
0000
0000
0130
,
0001
0100
0010
0100
,
0001
0100
0010
1000
,
0001
0001
1000
0100
,
2000
0000
0000
3100
,
1000
1000
0010
0010
,
0100
0001
0020
0000
,
0230
0000
0310
0001
,
2000
0000
0000
3001
,
1000
0010
0100
0010
,
1000
1001
0001
1000
,
0020
0000
0130
0001
,
0020
0000
0000
0130
,
1000
0100
1000
0010
,
0100
0001
0020
0230
,
2300
0000
3100
1000
,
0020
0000
0000
0130
,
0001
0001
0100
0100
,
0010
0100
0001
1000
,
0001
0001
1000
1000
,
0010
0010
1000
1000
,
0010
0010
0100
0100
,
0001
0001
1000
1000
,
0001
0001
0001
0001
,
1000
1000
1000
1000
,
1000
1000
1000
1000
,
0010
0010
0100
0100
,
0010
0100
0001
1000
,
0001
0010
0100
1000
,
0100
1000
0100
0001
,
0100
1000
0010
0001
,
0020
0000
0130
0001
,
2000
0000
0000
3001
,
1000
0100
0001
0100
,
1000
0010
0100
0001
,
1000
0101
0001
1000
,
0100
1000
0000
0010
,
0100
0101
0001
0100
,
0010
0010
0000
0100
,
0010
1001
0001
1000
,
0100
0100
0000
1000
,
0010
0101
0001
0010
,
0010
0010
0000
0100
,
0010
0010
0001
1000
,
0010
0100
0020
0000
,
0130
0001
2000
0000
,
3100
0010
0200
0000
,
0310
0001
0001
0010
,
0001
1000
0020
0000
,
0130
0001
1000
0100
,
2000
0000
3100
1000
,
0010
0010
0100
0001
,
1000
0100
2000
0000
,
3100
1000
0020
0000
,
0130
0001
2000
0000
,
3001
0000
1000
0000
,
0001
0000
1000
0000
,
0010
0000
0100
0000
,
0001
0010
0100
1000
,
0010
1100
0010
0001
,
0100
0010
1000
0001
,
0010
1100
0010
0010
,
0100
1000
0010
0100
,
0001
1100
0100
0010
,
0001
0010
0001
0001
,
0010
0110
0100
1000
,
0002
0000
2003
0000
,
0200
0000
0000
0000
,
0000
0000
0000
0000
,
0000
0000
3300
0000
;

//---------------dance-single - ----------------
#NOTES:
     dance-single:
     :
     Beginner:
     2:
     0.158617,0.248530,0.000000,0.008607,0.000000,129.000000,129.000000,0.000000,1.000000,0.000000,0.000000,0.158617,0.248530,0.000000,0.008607,0.000000,129.000000,129.000000,0.000000,1.000000,0.000000,0.000000:
// measure 0
1000
0000
0000
0000
,  // measure 1
0001
0000
0000
0000
,  // measure 2
1000
0000
0000
0000
,  // measure 3
0010
0000
0100
0000
,  // measure 4
0010
0000
0000
0000
,  // measure 5
1000
0000
0000
0000
,  // measure 6
1000
0000
0000
0000
,  // measure 7
0010
0000
0100
0000
,  // measure 8
0001
0000
1000
0000
,  // measure 9
0001
0000
0000
0000
,  // measure 10
0100
0000
0000
0010
,  // measure 11
0000
0000
0100
0000
,  // measure 12
0010
0000
0000
0000
,  // measure 13
1000
0000
0000
0000
,  // measure 14
0100
0000
0000
1000
,  // measure 15
0000
0000
0001
0000
,  // measure 16
1000
0000
0000
0000
,  // measure 17
0010
0000
0000
0000
,  // measure 18
0100
0000
0000
0000
,  // measure 19
0010
0000
0000
0000
,  // measure 20
1000
0000
0000
0000
,  // measure 21
0100
0000
0000
0000
,  // measure 22
1000
0000
0001
0000
,  // measure 23
0100
0100
0100
0000
,  // measure 24
0010
0000
0000
0000
,  // measure 25
1000
0000
0000
0000
,  // measure 26
0001
0000
1000
0000
,  // measure 27
0100
0000
1000
0000
,  // measure 28
0001
0000
0000
0000
,  // measure 29
0100
0000
0000
0000
,  // measure 30
0010
0000
0000
0000
,  // measure 31
1000
0000
0000
0000
,  // measure 32
0001
0000
1000
0000
,  // measure 33
0010
0000
1000
0000
,  // measure 34
0001
0000
0100
0000
,  // measure 35
0001
0000
1000
0000
,  // measure 36
0100
0000
1000
0000
,  // measure 37
0010
0000
0010
0000
,  // measure 38
0100
0000
0100
0000
,  // measure 39
0001
0000
0001
0000
,  // measure 40
1000
0000
0000
0000
,  // measure 41
0010
0000
0000
0000
,  // measure 42
0100
0000
0000
0000
,  // measure 43
0010
0000
0000
0000
,  // measure 44
1000
0000
0001
0000
,  // measure 45
1000
0000
0000
0000
,  // measure 46
0100
0000
0000
1000
,  // measure 47
0000
0000
0010
0000
,  // measure 48
0000
0100
0000
0000
,  // measure 49
0010
0000
0000
0000
,  // measure 50
1000
1000
0000
0000
,  // measure 51
0001
0000
0000
0000
,  // measure 52
1000
1000
0010
0000
,  // measure 53
0100
0000
0000
0000
,  // measure 54
0010
0000
0100
0000
,  // measure 55
0001
0000
0000
0000
,  // measure 56
1000
0000
0001
0000
,  // measure 57
1000
1000
1000
0000
,  // measure 58
0010
0010
0010
0000
,  // measure 59
0100
0100
0100
0000
,  // measure 60
0001
0000
1000
0000
,  // measure 61
0010
0010
0010
0000
,  // measure 62
1000
0000
0001
0000
,  // measure 63
0100
0000
0001
0000
,  // measure 64
1000
0000
0001
0000
,  // measure 65
0010
0010
0010
0000
,  // measure 66
0100
0100
0100
0000
,  // measure 67
1000
1000
1000
0000
,  // measure 68
0001
0000
1000
0000
,  // measure 69
0001
0000
1000
0000
,  // measure 70
0010
0000
0100
0000
,  // measure 71
0010
0000
0000
0000
,  // measure 72
1000
0000
0000
0000
,  // measure 73
0001
0000
0000
0000
,  // measure 74
0100
0000
0000
0000
,  // measure 75
0010
0000
0010
0000
,  // measure 76
1000
0000
0000
0000
,  // measure 77
0100
0000
0000
0000
,  // measure 78
1000
0000
0000
0000
,  // measure 79
0001
0000
1000
0000
,  // measure 80
0200
0000
0000
0000
,  // measure 81
0000
0000
0000
0000
,  // measure 82
0000
0000
0300
0000
;
