#TITLE:Searching...;
#SUBTITLE:;
#ARTIST:Tia;
#TITLETRANSLIT:;
#SUBTITLETRANSLIT:;
#ARTISTTRANSLIT:;
#GENRE:;
#CREDIT:;
#BANNER:Searching.png;
#BACKGROUND:Searching-bg.png;
#LYRICSPATH:;
#CDTITLE:;
#MUSIC:Searching.ogg;
#OFFSET:-10.495016;
#SAMPLESTART:107.886787;
#SAMPLELENGTH:11.294113;
#SELECTABLE:YES;
#BPMS:0.000000=170.000000
,180.000000=85.000000
,212.000000=170.000000
;
#STOPS:
;
#BGCHANGES:;
#KEYSOUNDS:;
#ATTACKS:;

//---------------dance-single - ----------------
#NOTES:
     dance-single:
     :
     Hard:
     7:
     0.304344,0.409472,0.021665,0.151656,0.018054,295.000000,292.000000,3.000000,21.000000,0.000000,0.000000,0.304344,0.409472,0.021665,0.151656,0.018054,295.000000,292.000000,3.000000,21.000000,0.000000,0.000000:
0000
0000
0000
0000
,
0010
0000
0000
0000
,
0100
0000
0010
0000
,
1000
0000
0000
0001
0000
0000
1000
0000
,
0000
0000
0000
0000
,
0000
0000
0000
0000
0011
0000
0000
0101
,
0000
0000
0000
0000
0000
0001
0100
0001
,
0000
0100
0010
0100
,
0010
0000
1000
0100
0000
0000
0000
0000
,
0000
0000
0000
0000
,
0000
0000
0000
0000
,
1000
0000
0001
0010
0000
0100
0000
0010
,
0000
0100
0000
2000
0000
0000
0000
0000
,
3001
0000
1000
0000
0000
0100
0010
0000
,
0100
0000
1000
0000
0000
0001
0100
0000
,
0010
0000
1000
0000
0000
0001
0010
0100
,
0010
0000
0001
0000
0000
1000
0010
0000
,
1000
0000
0001
0000
0000
0001
1000
0000
,
0010
0000
1000
0000
0000
1000
0100
0000
,
1000
0000
0001
0000
0000
0010
0001
0010
,
0100
0000
0010
0000
0000
0010
0001
0000
,
0100
0000
0010
1000
0010
0000
1000
0000
,
0001
0000
0010
0100
0000
0010
0000
0001
,
0100
0000
0010
1000
0000
0001
0000
1000
,
0000
0000
0000
0001
0010
0000
0001
0000
,
1000
0000
0000
0100
0000
0000
0010
0000
,
0000
0001
0000
0010
0001
0000
0100
0010
,
0000
1000
0000
0020
0000
0000
0000
0000
,
0000
0000
0030
0000
,
1001
1000
0010
0001
,
0010
0000
0100
0001
0000
0010
0000
0100
,
1000
0000
1000
0100
0000
0001
0000
0100
,
0000
0000
0000
0000
0010
0001
1000
0100
,
1000
0000
0001
0100
0000
0010
0000
0000
,
1000
0000
0000
0000
0000
0001
1000
0100
,
0000
0010
0000
0100
0000
0010
0001
0000
,
0100
0000
0010
1000
0000
1000
0001
0000
,
0010
0000
0100
1000
0100
0000
1000
0000
,
0001
0000
0100
1000
0000
0100
0000
0010
,
1000
0000
0001
0010
0000
0100
0000
0010
,
0000
0000
0100
1000
,
0001
0000
0100
0010
0000
0100
0001
0000
,
0001
0010
0000
0010
0100
1000
0001
1000
,
0000
0010
0000
0100
0000
0001
0000
0020
,
0000
0000
0000
0000
,
0030
0200
0320
0032
,
2003
0000
0000
0020
0000
0000
0000
0000
0000
0000
0000
0000
0000
0000
0000
0000
,
3030
0100
0010
1000
0001
0010
0100
0010
,
0002
0023
0230
0000
,
0310
0010
0000
0000
0002
0000
0000
0000
2003
0000
0000
0000
3020
0000
0000
0000
,
0230
0000
0000
0020
0000
0000
0000
0000
0000
0000
0000
0000
0000
0000
0000
0000
,
0330
1000
0010
0100
0001
0010
0100
0010
,
0001
0000
0000
0000
1000
0000
0000
0001
0000
0100
0020
0000
0000
0000
0000
0000
,
0030
0000
0000
0000
,
0000
0000
0000
0000
,
2000
0000
0000
0000
,
3000
0000
0000
0000
,
0001
0010
0001
1000
,
0100
1000
0001
0010
,
0001
0000
1000
0100
0000
0010
0000
0100
,
0000
0010
0000
0002
0000
0000
0000
0000
,
1003
0001
0100
0000
0000
0010
1000
0000
,
0001
1000
0100
0000
0000
0010
0100
0000
,
0010
0001
1000
0000
0000
0010
1000
0100
,
1000
0000
0010
1000
0000
0001
0010
0000
,
0100
0000
0010
0001
0000
0001
0100
0000
,
0100
0010
0000
0010
1000
0000
0001
0000
,
1000
0000
0001
1000
0000
1000
0010
0000
,
0010
0100
0000
0100
0001
0010
0001
0010
,
0001
1000
0100
0000
0000
1000
0010
0000
,
0100
0001
0010
0000
0000
0100
0010
0000
,
0001
1000
0010
0000
0000
0100
0001
0000
,
0100
0010
1000
0001
0010
0100
1000
0000
,
0100
0000
1000
0100
0000
0100
0010
0000
,
0010
0001
0000
0001
0010
0000
0100
0000
,
1000
0000
1000
0100
0000
0010
0001
0100
,
0010
0000
1000
0010
0000
0100
0001
0000
,
0020
0000
0000
0000
,
0000
0000
0000
0000
,
0200
0000
0000
0000
,
0000
0000
0000
0000
,
0330
0000
0000
0000
;

//---------------dance-single - ----------------
#NOTES:
     dance-single:
     :
     Medium:
     4:
     0.214589,0.292480,0.036109,0.151656,0.000000,208.000000,203.000000,5.000000,21.000000,0.000000,0.000000,0.214589,0.292480,0.036109,0.151656,0.000000,208.000000,203.000000,5.000000,21.000000,0.000000,0.000000:
0000
0000
0000
0000
,
0000
0000
0000
0000
,
1000
0000
0010
0000
,
0100
0000
0000
0001
0000
0000
0010
0000
,
0000
0000
0000
0000
,
0000
0000
0000
0000
0110
0000
0000
1001
,
0000
0000
0000
0000
0000
1000
0010
1000
,
0000
0001
0010
0100
,
0010
0000
0001
1000
0000
0000
0000
0000
,
0000
0000
0000
0000
,
0000
0000
0000
0000
,
0001
0000
0100
0010
0000
1000
0000
0010
,
0000
0100
0000
0002
0000
0000
0000
0000
,
1003
0000
0001
0000
0000
0100
0001
0000
,
0010
0000
0100
0000
0000
1000
0100
0000
,
1000
0000
0010
0000
0000
0100
0010
1000
,
0001
0000
1000
0000
0000
0100
1000
0000
,
0010
0000
0100
0000
0000
0001
0010
0000
,
0100
0000
0010
0000
0000
0001
1000
0000
,
0010
0000
0100
0000
0000
0001
0100
0010
,
1000
0000
0010
0000
0000
0100
0010
0000
,
1000
0001
0010
0001
,
1000
0100
1000
0010
,
0100
0000
0001
0100
0000
0010
0000
1000
,
0000
0000
0001
1000
,
0001
0000
0000
0001
0000
0000
1000
0000
,
0000
1000
0000
0000
0010
0000
1000
0000
,
0100
1000
0020
0000
,
0000
0030
0000
0000
,
0110
0010
1000
0001
,
0010
0001
1000
0100
,
1000
0001
1000
1000
,
1000
0000
0001
1000
,
0010
0000
1000
0100
0000
0000
0000
0000
,
0000
0000
0000
0000
0000
0100
0000
0010
,
0000
0001
0000
1000
0000
0000
0000
0000
,
0000
0000
0000
0000
,
1001
0000
0001
0100
0001
0000
0100
0000
,
0010
0000
0000
1000
0000
0010
0000
0000
,
0100
0000
0000
0010
0000
1000
0000
0001
,
0000
0000
1000
0100
,
0010
0000
0000
0100
0000
0000
1000
0000
,
0000
0001
0000
0000
0100
0000
0010
0000
,
1000
0010
0100
0001
,
0020
0000
0000
0000
,
0030
0100
0010
0001
,
2000
0000
0000
0000
0000
0000
0000
3000
,
0001
1000
0010
0100
,
0002
0000
2003
0000
0200
0000
0000
3300
,
0000
1000
0100
0010
,
0002
0000
0000
0003
,
0010
0001
0100
0010
,
1000
0000
0001
0000
0100
0020
0000
0000
,
0030
0000
0000
0000
,
0000
0000
0000
0000
,
0000
0000
0000
0000
,
0000
0000
0000
0000
,
0000
0000
0000
0000
,
0000
0000
0000
0000
,
1000
0000
0001
0100
0000
0010
0000
0100
,
0000
0001
0000
2000
0000
0000
0000
0000
,
3100
0010
0001
0000
0200
0000
0000
0000
,
0320
0000
2030
0000
,
3002
0000
0000
0200
0000
0000
0000
0000
,
0000
0000
0303
0000
0000
0001
0000
0000
,
0100
0000
0000
0010
0000
0000
1000
0000
,
0000
0100
0000
0000
1000
0000
0010
0000
,
0100
0000
0000
0010
0000
0000
1000
0000
,
0000
0001
0000
0000
1000
0000
0100
0000
,
1000
0010
0100
0000
0002
0000
0000
0000
,
2003
0000
3020
0000
,
0230
0000
0000
0002
0000
0000
0000
0000
,
0000
0000
0303
0000
0000
0001
0000
0000
,
0010
0000
0000
0001
0000
0000
1000
0000
,
0000
0100
0000
0000
1000
0000
0001
0000
,
0100
0000
0000
0010
0000
0000
1000
0000
,
0010
0000
0100
0001
0000
0010
0100
0000
,
1200
0000
0000
0000
,
0000
0000
0000
0000
,
0000
0000
0000
0000
,
0000
0000
0000
0000
,
0300
0000
0000
0000
;

//---------------dance-single - ----------------
#NOTES:
     dance-single:
     :
     Easy:
     3:
     0.177448,0.292480,0.014443,0.079439,0.000000,172.000000,170.000000,2.000000,11.000000,0.000000,0.000000,0.177448,0.292480,0.014443,0.079439,0.000000,172.000000,170.000000,2.000000,11.000000,0.000000,0.000000:
0000
0000
0000
0000
,
1000
0000
0000
0000
,
0010
0000
1000
0000
,
0100
0000
1000
0000
,
0000
0000
0000
0000
,
0000
0000
0001
0000
,
0000
0000
0000
1000
,
0000
0010
0000
0000
,
1000
0000
0000
0000
,
0200
0000
0000
0000
,
0000
0000
0000
0300
,
0020
0000
0000
0000
,
0000
0000
0000
0030
,
1001
0000
0001
0000
,
1000
0000
0010
0000
,
1000
0000
0001
1000
,
0001
0000
1000
1000
,
0010
1000
0000
0000
,
0000
0000
0000
0001
,
1000
0100
1000
0000
,
0000
0000
0000
0000
,
0100
1000
0010
0100
,
0001
1000
0010
1000
,
0001
0100
0001
0010
,
0100
0000
0010
0010
,
0001
1000
0010
0000
,
0000
0000
0000
0100
,
0010
1000
0001
0000
,
0000
0000
0000
0000
,
0110
0010
1000
0010
,
0100
0001
0010
0100
,
0010
0010
0100
1000
,
0001
0000
1000
0001
,
0100
0010
1000
0000
,
0000
0000
0000
0010
,
1000
0001
0100
0000
,
0000
0000
0000
0000
,
0000
0010
1000
1000
,
0001
1000
0001
0010
,
0001
1000
0100
0100
,
0100
0000
0010
0100
,
1000
0100
1000
0000
,
0000
0000
0000
0100
,
0010
0001
0100
0010
,
1000
0000
0000
0000
,
0000
0001
0100
0010
,
1000
0200
0000
0000
,
0300
1000
0010
0100
,
0001
0000
0001
0000
0002
0000
0000
0003
,
1000
0001
0100
0001
,
0010
0000
0020
0000
0000
0000
0000
0030
,
0100
0010
0001
1000
,
0010
0000
0100
0000
0001
2000
0000
0000
,
3000
0000
0000
0000
,
0000
0000
0000
0000
,
0000
0000
0000
0000
,
0000
0000
0000
0000
,
0000
0000
0000
0000
,
0000
0000
0000
0000
,
0020
0000
0000
0000
,
0000
0000
0000
0030
,
1000
0001
0100
0001
,
0010
0001
1000
0100
,
1000
0000
0000
2000
0000
0000
0000
0000
,
0000
0000
3001
0000
,
1000
0000
0000
0010
0000
0000
0100
0000
,
0000
0001
0000
0000
0010
0000
0100
0000
,
1000
0000
0000
0100
0000
0000
1000
0000
,
0001
1000
0010
1000
,
0001
1000
0001
0100
,
0001
0010
0001
1000
,
0100
0000
0000
0200
0000
0000
0000
0000
,
0000
0000
0310
0000
,
0100
0000
0000
1000
0000
0000
0010
0000
,
0000
0100
0000
0000
0001
0000
1000
0000
,
0010
0000
0000
1000
0000
0000
0010
0000
,
1000
0100
0010
0001
,
2000
0000
0000
0000
,
0000
0000
0000
0000
,
0002
0000
0000
0000
,
0000
0000
0000
0000
,
3003
0000
0000
0000
;

//---------------dance-single - ----------------
#NOTES:
     dance-single:
     :
     Beginner:
     1:
     0.063964,0.166822,0.014443,0.000000,0.000000,62.000000,60.000000,2.000000,0.000000,0.000000,0.000000,0.063964,0.166822,0.014443,0.000000,0.000000,62.000000,60.000000,2.000000,0.000000,0.000000,0.000000:
// measure 0
0000
0000
0000
0000
,  // measure 1
0000
0000
0000
0000
,  // measure 2
0000
0000
0000
0000
,  // measure 3
0000
0000
0000
0000
,  // measure 4
0000
0000
0000
0000
,  // measure 5
0000
0000
0000
0000
,  // measure 6
0000
0000
0000
0000
,  // measure 7
0000
0000
0000
0000
,  // measure 8
0000
0000
0000
0000
,  // measure 9
0000
0000
0000
0000
,  // measure 10
0000
0000
0000
0000
,  // measure 11
0000
0000
0000
0000
,  // measure 12
0000
0000
0000
0000
,  // measure 13
1000
0000
0000
0000
,  // measure 14
0001
0000
0000
0000
,  // measure 15
1000
0000
0000
0000
,  // measure 16
0001
0000
0000
0000
,  // measure 17
0100
0000
0000
0000
,  // measure 18
0000
0000
0000
0000
,  // measure 19
0010
0000
0010
0000
,  // measure 20
0000
0000
0000
0000
,  // measure 21
1000
0000
0000
0000
,  // measure 22
0010
0000
0000
0000
,  // measure 23
0100
0000
0000
0000
,  // measure 24
0001
0000
0000
0000
,  // measure 25
1000
0000
0000
0000
,  // measure 26
0000
0000
0000
0000
,  // measure 27
0001
0000
1000
0000
,  // measure 28
0000
0000
0000
0000
,  // measure 29
0010
0000
0000
0000
,  // measure 30
1000
0000
0000
0000
,  // measure 31
0100
0000
0000
0000
,  // measure 32
1000
0000
0000
0000
,  // measure 33
0001
0000
0000
0000
,  // measure 34
0000
0000
0000
0000
,  // measure 35
1000
0000
0100
0000
,  // measure 36
0000
0000
0000
0000
,  // measure 37
1000
0000
0000
0000
,  // measure 38
0010
0000
0000
0000
,  // measure 39
0100
0000
0000
0000
,  // measure 40
0001
0000
0000
0000
,  // measure 41
1000
0000
0000
0000
,  // measure 42
0000
0000
0000
0000
,  // measure 43
0001
0000
1000
0000
,  // measure 44
0010
0000
0000
0000
,  // measure 45
0000
0100
0000
0000
,  // measure 46
0100
0000
0000
0000
,  // measure 47
0010
0000
0000
0000
,  // measure 48
1000
1000
1000
0000
,  // measure 49
1001
0000
0000
0000
,  // measure 50
0001
0000
0000
0000
,  // measure 51
0100
0000
0000
0000
,  // measure 52
0010
0100
0010
0000
,  // measure 53
0000
0000
0000
0000
,  // measure 54
0000
0000
0000
0000
,  // measure 55
0000
0000
0000
0000
,  // measure 56
0000
0000
0000
0000
,  // measure 57
0000
0000
0000
0000
,  // measure 58
0000
0000
0000
0000
,  // measure 59
0000
0000
0000
0000
,  // measure 60
0000
0000
0000
0000
,  // measure 61
1000
0000
0001
0000
,  // measure 62
1000
0000
0010
0000
,  // measure 63
1000
0000
1000
0000
,  // measure 64
0000
0000
0000
0000
,  // measure 65
0001
0000
0000
0000
,  // measure 66
1000
0000
0000
0000
,  // measure 67
0010
0000
0000
0000
,  // measure 68
1000
0000
0000
0000
,  // measure 69
0000
0000
0100
0000
,  // measure 70
0100
0000
0010
0000
,  // measure 71
0010
0000
0000
0000
,  // measure 72
0000
0000
0000
0000
,  // measure 73
0001
0000
0000
0000
,  // measure 74
1000
0000
0000
0000
,  // measure 75
0010
0000
0000
0000
,  // measure 76
0100
0000
0000
0000
,  // measure 77
1001
0000
0000
0000
;
