#VERSION:0.83;
#TITLE:Sapphire;
#SUBTITLE:;
#ARTIST:kors k;
#TITLETRANSLIT:;
#SUBTITLETRANSLIT:;
#ARTISTTRANSLIT:;
#GENRE:;
#ORIGIN:;
#CREDIT:;
#BANNER:Sapphire.png;
#BACKGROUND:Sapphire-bg.png;
#PREVIEWVID:;
#JACKET:Sapphire-jacket.png;
#CDIMAGE:;
#DISCIMAGE:;
#LYRICSPATH:;
#CDTITLE:CDtitle.png;
#MUSIC:Sapphire.ogg;
#OFFSET:0.625000;
#SAMPLESTART:43.950237;
#SAMPLELENGTH:13.713306;
#SELECTABLE:YES;
#BPMS:0.000=140.000;
#STOPS:;
#DELAYS:;
#WARPS:;
#TIMESIGNATURES:0.000=4=4;
#TICKCOUNTS:0.000=4;
#COMBOS:0.000=1;
#SPEEDS:0.000=1.000=0.000=0;
#SCROLLS:0.000=1.000;
#FAKES:;
#LABELS:0.000=Song Start;
#BGCHANGES:;
#KEYSOUNDS:;
#ATTACKS:
;

//---------------dance-single - ----------------
#NOTEDATA:;
#CHARTNAME:;
#STEPSTYPE:dance-single;
#DESCRIPTION:;
#CHARTSTYLE:;
#DIFFICULTY:Hard;
#METER:8;
#RADARVALUES:0.433399,0.483871,0.253456,0.345622,0.349462,395.000000,362.000000,33.000000,45.000000,0.000000,0.000000,4.000000,0.000000,0.000000,0.433399,0.483871,0.253456,0.345622,0.349462,395.000000,362.000000,33.000000,45.000000,0.000000,0.000000,4.000000,0.000000,0.000000;
#CREDIT:;
#NOTES:
0000
0000
0000
0000
,
0000
0000
0000
0000
,
0000
0000
0000
0000
,
0000
0000
0000
0000
,
0000
0000
0000
0000
,
0000
0000
0000
0000
0000
0000
0000
0001
,
1000
0000
0000
0001
0000
0000
0010
0000
0100
0000
0000
0000
1000
0000
0000
0000
,
0010
0000
0100
0000
0001
0000
0010
0100
,
1000
0000
0000
0100
0000
0000
0010
0000
0001
0000
0000
0000
0100
0000
0000
0000
,
4004
0000
0000
3003
,
0001
0200
0000
0000
0310
0000
0000
1000
0000
1000
0000
0000
0101
0000
0000
0000
,
0001
2000
0000
0000
3100
0000
0000
0010
0000
0010
0000
0000
0001
0000
1000
0000
,
0010
0200
0000
0000
0301
0000
0000
0010
0000
0010
0000
0000
1100
0000
0000
0000
,
1000
0002
0000
0000
0013
0000
0000
0100
0000
0100
0000
0000
1000
0000
0010
0000
,
0100
0002
0000
0000
0013
0000
0000
0100
0000
0100
0000
0000
1001
0000
0000
0000
,
1000
0002
0000
0000
0013
0000
0000
0100
0000
1000
0000
0000
0001
0000
0010
0000
,
0100
0020
0000
0000
0031
0000
0000
0100
0000
0100
0000
0000
0010
0000
0000
0000
,
1000
0002
0000
0000
0013
0000
0000
0100
0000
0100
0000
0000
1000
0000
0100
0000
,
0010
0002
0000
0000
0103
0000
0000
1000
0000
0100
0000
0000
1001
0000
0000
0000
,
1000
0002
0000
0000
0013
0000
0000
0100
0000
1000
0000
0000
0010
0000
0100
0000
,
0001
2000
0000
0000
3100
0000
0000
0010
0000
0001
0000
0000
0101
0000
0000
0000
,
0001
2000
0000
0000
3010
0000
0000
0100
0000
0001
0000
0000
0010
0000
0100
0000
,
1000
0002
0000
0000
0013
0000
0000
0001
0000
0100
0000
0000
0010
0000
0000
0000
,
1000
0020
0000
0000
0130
0000
0000
0001
0000
1000
0000
0000
0010
0000
0100
0000
,
0001
2000
0000
0000
3100
0000
0000
0010
0000
0001
0000
0000
0100
0000
0000
0000
,
0020
0000
0000
0030
,
1000
0000
0000
1000
0000
0000
0001
0000
0000
0001
0000
0000
1000
0000
0100
0000
,
0010
0000
0100
0000
0000
1000
0000
0000
0010
0000
0100
0000
0000
0001
0000
0000
,
0010
0000
0000
0010
0000
0000
0100
0000
0000
0100
0000
0000
0010
0000
0001
0000
,
0100
0000
1000
0000
0000
0100
0000
0000
0010
0000
1000
0000
0000
0001
0000
0000
,
0010
0000
0000
0010
0000
0000
0100
0000
0000
0100
0000
0000
0010
0000
0001
0000
,
1000
0000
0010
0000
0000
0001
0000
0000
0010
0000
0100
0000
0000
0001
0000
0000
,
0010
0000
0000
0010
0000
0000
0001
0000
0000
0001
0000
0000
1000
0000
0001
0000
,
0100
1000
0100
0001
0010
1000
0010
0001
,
0200
0000
0000
0310
0000
0000
2000
0000
0000
3100
0000
0000
0010
0000
0001
0000
,
1000
0000
0020
0000
0000
1030
0000
0000
0100
0000
0020
0000
0000
0031
0000
0000
,
2000
0000
0000
3010
0000
0000
0200
0000
0000
0301
0000
0000
0010
0000
0100
0000
,
1000
0000
0002
0000
0000
0013
0000
0000
0100
0000
2000
0000
0000
3010
0000
0000
,
0200
0000
0000
0301
0000
0000
0020
0000
0000
0130
0000
0000
1000
0000
0100
0000
,
0010
0000
0002
0000
0000
1003
0000
0000
0010
0000
0200
0000
0000
0301
0000
0000
,
1000
0000
0000
0100
0000
0000
0001
0000
0000
0010
0000
0000
0100
0000
1000
0000
,
0004
4000
0000
0000
0000
0000
0000
0000
0000
0000
0000
0000
3003
0000
0000
0000
,
0001
0100
0001
0020
0000
0030
0100
0020
,
0000
0000
0000
0030
0001
0010
0100
0010
,
0000
0001
0100
0020
0000
0030
0100
0002
,
0000
0000
0000
0000
0013
0100
1000
0010
,
0100
0001
1000
0200
0000
0300
0010
0002
,
0000
0000
0000
0000
1003
0010
1000
0002
,
0000
0013
0100
2000
0000
3000
0001
0200
,
0000
0000
0000
0000
0310
1000
0100
0010
,
0011
0011
0001
0100
,
0110
0110
0010
1000
,
1010
1010
1000
0001
,
1001
0000
0110
0000
0001
1000
0100
0000
,
0011
0000
0000
0000
0101
0000
0000
0001
0000
0100
0000
0000
0010
0000
1000
0000
,
1100
0000
0000
0000
0110
0000
0000
0010
0000
0001
0000
0000
0100
0000
0010
0000
,
1010
0000
0000
0000
1100
0000
0000
0100
0000
0010
0000
0000
0001
0000
0010
0000
,
0110
0000
0000
0000
1100
0000
0000
0010
0000
0001
0000
0000
0100
0000
0010
0000
,
1010
0000
0000
0000
0011
0000
0000
0001
0000
1000
0000
0000
0100
0000
0010
0000
,
0011
0000
0000
0000
0101
0000
0000
0001
0000
1000
0000
0000
0010
0000
1000
0000
,
1100
0000
0000
0000
0101
0000
0000
0001
0000
1000
0000
0000
0100
0000
0010
0000
,
0011
0000
0000
0000
1100
0000
0100
0000
0010
0000
0000
0001
1000
0000
0000
0000
,
0001
1000
0010
0200
0000
0300
0010
2000
,
0001
0000
3001
0000
0010
0100
1000
0001
,
0100
0010
1000
0002
0000
1003
0010
0200
,
0001
0000
0301
0100
0010
1000
0001
0010
,
0110
0000
1100
2000
0000
3001
0100
0020
,
1000
0000
1000
0000
0130
0001
0010
0100
,
0010
0001
1000
0020
0000
0130
0001
0020
,
0100
0130
1000
0001
,
0110
0000
0000
0000
;

//---------------dance-single - ----------------
#NOTEDATA:;
#CHARTNAME:;
#STEPSTYPE:dance-single;
#DESCRIPTION:;
#CHARTSTYLE:;
#DIFFICULTY:Medium;
#METER:6;
#RADARVALUES:0.328067,0.430108,0.299539,0.253456,0.053763,299.000000,260.000000,39.000000,33.000000,0.000000,0.000000,0.000000,0.000000,0.000000,0.328067,0.430108,0.299539,0.253456,0.053763,299.000000,260.000000,39.000000,33.000000,0.000000,0.000000,0.000000,0.000000,0.000000;
#CREDIT:;
#NOTES:
0000
0000
0000
0000
,
0000
0000
0000
0000
,
0000
0000
0000
0000
,
0000
0000
0000
0000
,
0000
0000
0000
0000
,
0000
0000
0000
0000
,
1000
0001
0100
0000
,
0000
0000
0000
0000
,
0001
1000
0010
0000
,
0202
0000
0000
0303
,
0001
0100
0010
1010
,
1000
0000
0010
0000
0100
0000
0001
1000
,
0001
0010
0100
1100
,
0100
0000
1000
0000
0010
0000
0100
0010
,
1000
0001
0010
1100
,
0100
0000
1000
0000
0010
0000
0100
0010
,
1000
0001
0100
0011
,
0001
0000
1000
0000
0100
0000
0010
0100
,
1000
0010
0100
0101
,
0001
0000
0100
0000
1000
0000
0100
0001
,
0010
1000
0010
0110
,
0100
0000
0010
0000
0001
0000
0010
1000
,
0010
0100
1000
1010
,
0010
0001
0010
0100
,
0001
0010
0100
1100
,
0200
0000
0000
0300
,
2000
3002
0203
0302
,
0013
0001
0100
0000
0100
0010
1000
0000
,
0200
2300
3020
0230
,
0310
1000
0100
0000
0010
0001
0100
0000
,
0020
2030
3002
0203
,
0301
0010
0100
0000
0010
0001
0100
0000
,
0020
2030
3200
2300
,
3001
0010
0100
1000
0100
0010
0100
1000
,
0001
0000
0000
0100
0000
0000
0010
0000
0000
1000
0000
0000
0010
0000
0000
0000
,
0100
0000
0010
0000
0000
0010
0000
0000
0100
0000
0010
0000
0000
0010
0000
0000
,
0100
0000
0000
0001
0000
0000
0100
0000
0000
0010
0000
0000
1000
0000
0000
0000
,
0001
0000
1000
0000
0000
1000
0000
0000
0001
0000
0100
0000
0000
0100
0000
0000
,
0001
0000
0000
0010
0000
0000
0100
0000
0000
1000
0000
0000
0100
0000
0000
0000
,
1000
0000
0001
0000
0000
0001
0000
0000
1000
0000
0010
0000
0000
0010
0000
0000
,
1000
0000
0000
0010
0000
0000
0100
0000
0000
0001
0000
0000
1000
0000
0000
0000
,
2002
0000
0000
3003
,
0001
0000
0100
0010
0000
0000
1000
0002
,
0000
0000
0013
0100
,
1000
0000
0100
1000
0000
0000
1000
0020
,
0000
0000
0130
0010
,
1000
0000
0001
1000
0000
0000
1000
0200
,
0000
0000
1300
0010
,
0100
0000
0010
0100
0000
0000
0010
2000
,
0000
0000
3001
0000
,
1001
1001
0001
1000
,
1001
1001
0001
1000
,
1001
1001
1000
0001
,
1001
0110
1001
0110
,
0101
1010
1000
0010
,
0101
0011
0010
0100
,
1100
0110
0100
1000
,
1010
0110
0010
0100
,
0101
0011
0001
1000
,
1100
0110
0100
1000
,
1010
0101
0001
0010
,
0011
0110
1100
1001
,
0001
0000
0100
0002
0000
0000
1003
0200
,
0000
0000
0000
0000
1300
0100
0010
0100
,
0000
0000
0010
0002
0000
0000
0013
0200
,
0000
0000
0000
0000
0310
0100
1000
0010
,
0000
0000
0100
0002
0000
0000
1003
0200
,
0000
0000
0000
0000
0310
0100
1000
0010
,
0000
0000
0100
0002
0000
0000
1003
0200
,
0000
0000
0000
0300
,
1001
0000
0000
0000
;

//---------------dance-single - ----------------
#NOTEDATA:;
#CHARTNAME:;
#STEPSTYPE:dance-single;
#DESCRIPTION:;
#CHARTSTYLE:;
#DIFFICULTY:Easy;
#METER:2;
#RADARVALUES:0.144832,0.188172,0.007680,0.115207,0.000000,132.000000,131.000000,1.000000,15.000000,0.000000,0.000000,0.000000,0.000000,0.000000,0.144832,0.188172,0.007680,0.115207,0.000000,132.000000,131.000000,1.000000,15.000000,0.000000,0.000000,0.000000,0.000000,0.000000;
#CREDIT:;
#NOTES:
0000
0000
0000
0000
,
0000
0000
0000
0000
,
0000
0000
0000
0000
,
0000
0000
0000
0000
,
0000
0000
0000
0000
,
0000
0000
0000
0000
,
0001
1000
0001
0000
,
0000
0000
0000
0000
,
1000
0001
1000
0000
,
0020
0000
0000
0030
,
0100
0000
0001
0000
,
1000
0000
0010
0000
,
1000
0000
0001
0000
,
0010
0000
0001
0000
,
1000
0000
0100
0000
,
1000
0000
0010
0000
,
1000
0000
0001
0000
,
0100
0000
0010
0100
,
0010
0000
1000
0000
,
0001
0000
0100
0000
,
0001
0000
0010
0000
,
0100
0000
1000
0000
,
0100
0000
1000
0000
,
0010
0000
0100
0000
,
0001
0000
1000
0000
,
0020
0000
0000
0030
,
2000
0000
0000
0000
,
3001
0000
1000
0000
,
0002
0000
0000
0000
,
0103
0000
0001
0000
,
0200
0000
0000
0000
,
0310
0000
0100
0000
,
0020
0000
0000
0030
,
2000
0000
3002
0000
,
0203
0000
0000
0000
,
0301
0010
0001
1000
,
0200
0000
0000
0000
,
1300
0010
0100
0001
,
2000
0000
0000
0000
,
3001
0010
0001
1000
,
0200
0000
0000
0300
,
2002
0000
0000
3003
,
0010
1000
0000
1000
,
0000
0000
0001
1000
,
0000
0100
0000
1000
,
0000
0000
0010
0100
,
0000
0001
0000
1000
,
0000
0000
0010
1000
,
0000
0001
0000
0100
,
0000
0000
0000
0000
,
0010
0010
0000
0000
,
1000
1000
0000
0000
,
0001
0001
0000
0000
,
0100
0100
0000
0000
,
0010
1000
0000
0000
,
0001
0100
0000
0000
,
0010
0100
0000
0000
,
0010
1000
0000
0000
,
0100
0010
0000
0000
,
0001
1000
0000
0000
,
0100
1000
0000
0000
,
0010
0100
0001
0000
,
1000
0001
0100
0000
,
0001
1000
0010
0000
,
1000
0010
0100
0000
,
0010
0100
0001
0000
,
0010
0100
1000
0000
,
0100
1000
0001
0000
,
0100
0010
1000
0000
,
0002
0000
0000
0000
,
0013
0000
0000
0000
;

//---------------dance-single - ----------------
#NOTEDATA:;
#CHARTNAME:;
#STEPSTYPE:dance-single;
#DESCRIPTION:;
#CHARTSTYLE:;
#DIFFICULTY:Beginner;
#METER:1;
#RADARVALUES:0.080097,0.134409,0.023041,0.000000,0.000000,73.000000,70.000000,3.000000,0.000000,0.000000,0.000000,0.000000,0.000000,0.000000,0.080097,0.134409,0.023041,0.000000,0.000000,73.000000,70.000000,3.000000,0.000000,0.000000,0.000000,0.000000,0.000000,0.000000;
#CREDIT:;
#NOTES:
0000
0000
0000
0000
,
0000
0000
0000
0000
,
0000
0000
0000
0000
,
0000
0000
0000
0000
,
0000
0000
0000
0000
,
0000
0000
0000
0000
,
0010
0000
0000
0000
,
0000
0000
0000
0000
,
0100
0000
0000
0000
,
1001
0000
0000
0000
,
0010
0000
0000
0000
,
1000
0000
0000
0000
,
0010
0000
0000
0000
,
0100
0000
0000
0000
,
0001
0000
0000
0000
,
0010
0000
0000
0000
,
0001
0000
0000
0000
,
1000
0000
0000
0000
,
0100
0000
0000
0000
,
0010
0000
0000
0000
,
0100
0000
0000
0000
,
1000
0000
0000
0000
,
0010
0000
0000
0000
,
0100
0000
0000
0000
,
0010
0000
0000
0000
,
1000
0000
0000
0000
,
0001
0000
0000
0000
,
0000
0000
0000
0000
,
1000
0000
0000
0000
,
0000
0000
0000
0000
,
0010
0000
0000
0000
,
0000
0000
0000
0000
,
0100
0000
0000
0000
,
0001
0000
1000
0000
,
0010
0000
0000
0000
,
0000
0000
0000
0000
,
1000
0000
0000
0000
,
0000
0000
0000
0000
,
0001
0000
0000
0000
,
0000
0000
0000
0000
,
0010
0000
0000
0000
,
0001
0000
1000
0000
,
0110
0000
0000
0000
,
0000
0000
0000
0000
,
0010
0000
0000
0000
,
0000
0000
0000
0000
,
1000
0000
0000
0000
,
0000
0000
0000
0000
,
0001
0000
0000
0000
,
0000
0000
0000
0000
,
0010
0000
0000
0000
,
0001
0000
0000
0000
,
1000
0000
0000
0000
,
0100
0000
0000
0000
,
1000
1000
0000
0000
,
1000
1000
0000
0000
,
0001
0001
0000
0000
,
0001
0001
0000
0000
,
0100
0100
0000
0000
,
0100
0100
0000
0000
,
0010
0010
0000
0000
,
0010
0010
0000
0000
,
1000
1000
0000
1000
,
0000
0000
0001
0000
,
0000
0100
0000
0010
,
0000
0000
1000
1000
,
0000
0001
0000
0010
,
0000
0000
0001
0001
,
0000
1000
0000
0010
,
0000
0000
0000
0000
,
1001
0000
0000
0000
;

//---------------dance-single - ----------------
#NOTEDATA:;
#CHARTNAME:;
#STEPSTYPE:dance-single;
#DESCRIPTION:;
#CHARTSTYLE:;
#DIFFICULTY:Challenge;
#METER:10;
#RADARVALUES:0.640772,0.994624,0.145929,0.238095,0.844854,584.000000,565.000000,19.000000,31.000000,0.000000,0.000000,0.000000,0.000000,0.000000,0.640772,0.994624,0.145929,0.238095,0.844854,584.000000,565.000000,19.000000,31.000000,0.000000,0.000000,0.000000,0.000000,0.000000;
#CREDIT:;
#NOTES:
// measure 0
0000
0000
0000
0000
,  // measure 1
0000
0000
0000
0000
,  // measure 2
0000
0000
0000
0000
,  // measure 3
0000
0000
0000
0000
,  // measure 4
0000
0000
0000
0000
,  // measure 5
0000
0000
0000
0000
0000
0000
0000
0001
,  // measure 6
2000
0000
0000
3020
0000
0000
0130
0000
0001
0000
0000
0000
0010
0000
0000
0000
,  // measure 7
0001
0000
1000
0000
0100
0000
1000
0001
,  // measure 8
0200
0000
0000
0302
0000
0000
0013
0000
0100
0000
0000
0000
0010
0000
0000
0000
,  // measure 9
0001
0000
0000
0100
0000
0000
0010
0000
0000
1000
0000
0000
0001
0000
0000
0010
0000
0000
0100
0000
0000
1000
0000
0000
0001
0000
1000
0000
0001
0000
1000
0000
0001
0000
1000
0000
0001
0000
1000
0000
0001
0000
1000
0000
0001
0000
1000
0000
,  // measure 10
0001
0100
0000
0001
1000
0000
0001
0010
0000
0010
0000
0000
0100
0000
0000
0000
,  // measure 11
0010
0001
0000
1000
0100
0000
1000
0010
0000
0100
0000
0010
1000
0000
0001
1000
,  // measure 12
0100
0010
0000
0010
0001
0000
0001
0100
0000
0100
0000
0000
0010
0000
0000
0000
,  // measure 13
0100
0001
0000
0001
0010
0000
0100
0010
0000
0001
0000
1000
0010
0000
0100
0001
,  // measure 14
1000
0001
0000
1000
0100
0000
1000
0010
0000
0010
0000
0000
0100
0000
0000
0000
,  // measure 15
0010
0100
0000
0100
0001
0000
0001
1000
0000
0001
0000
0010
0001
0000
0010
0100
,  // measure 16
1000
0100
0000
0100
1000
0000
1000
0001
0000
0001
0000
0000
0100
0000
0000
0000
,  // measure 17
0010
0100
0000
0010
1000
0000
0010
0100
0000
0001
0000
0010
0100
0000
0010
0001
,  // measure 18
1000
0010
0000
1000
0001
0000
1000
0100
0000
0100
0000
0000
1001
0000
0000
0000
,  // measure 19
0001
1000
0000
0001
0010
0000
0001
0100
0000
0010
0000
0100
0001
0000
1000
0001
,  // measure 20
0010
0100
0000
0100
1000
0000
1000
0010
0000
0010
0000
0000
0101
0000
0000
0000
,  // measure 21
0010
1000
0000
1000
0100
0000
0010
0100
0000
1000
0000
0001
0100
0000
0010
1000
,  // measure 22
0001
1000
0000
0001
0010
0000
0001
0100
0000
0100
0000
0000
1001
0000
0000
0000
,  // measure 23
1000
0010
0000
0010
1000
0000
1000
0001
0000
1000
0000
0100
1000
0000
0100
0010
,  // measure 24
0001
0010
0000
0010
0001
0000
0001
1000
0000
1000
0000
0000
0110
0000
0000
0000
,  // measure 25
2002
0000
0000
3003
,  // measure 26
0001
1000
0100
1000
0001
1000
0100
1000
0001
1000
0100
1000
0001
1000
0100
1000
,  // measure 27
0001
1000
0010
0000
1000
0010
0000
0100
0001
1000
0001
0000
0000
1000
0000
0000
,  // measure 28
1000
0001
0010
0001
1000
0001
0010
0001
1000
0001
0010
0001
1000
0001
0010
0001
,  // measure 29
1000
0001
0100
0000
0010
1000
0000
0001
1000
0100
1000
0000
0000
0001
0000
0000
,  // measure 30
0010
0100
1000
0100
0010
0100
1000
0100
0010
0100
1000
0100
0010
0100
1000
0100
,  // measure 31
0010
0001
0100
0000
0010
1000
0000
0000
0010
0100
0001
0000
0000
1000
0000
0000
,  // measure 32
0001
0100
0010
0100
0001
0100
0010
0100
0001
0100
0010
0100
0001
0100
0010
0100
,  // measure 33
0001
1000
0010
1000
0001
0100
0001
1000
0100
0010
0100
1000
0001
0010
0100
0010
,  // measure 34
0001
0010
1000
0010
0001
0010
1000
0010
0001
0010
1000
0010
0001
0010
1000
0010
,  // measure 35
0001
0100
0010
0000
1000
0010
0000
0000
0010
0100
0001
0000
0000
1000
0000
0000
,  // measure 36
0100
0001
0100
1000
0100
0001
0100
1000
0100
0001
0100
1000
0100
0001
0100
1000
,  // measure 37
0100
1000
0010
0000
0100
0001
0000
0000
0010
0100
1000
0000
0000
0001
0000
0000
,  // measure 38
1000
0010
0100
0001
1000
0010
0100
0001
1000
0010
0100
0001
1000
0010
0100
0001
,  // measure 39
1000
0001
0010
0000
0100
1000
0000
0000
0100
1000
0010
0000
0000
0100
0000
0000
,  // measure 40
0001
0010
0100
1000
0001
0010
0100
1000
0001
0010
0100
1000
0001
0010
0100
1000
,  // measure 41
0001
0000
0000
0100
0000
0000
0010
0000
0000
1000
0000
0000
0100
0000
0000
1000
0000
0000
0001
0000
0000
0100
0000
0000
0001
0000
1000
0000
0001
0000
1000
0000
0001
0000
1000
0000
0001
0000
1000
0000
0001
0000
1000
0000
0001
0000
1000
0000
,  // measure 42
0001
1000
0100
0020
0000
0030
0100
2000
,  // measure 43
0000
0000
0000
3000
0100
0010
0100
1000
,  // measure 44
0001
0100
0001
0020
0000
0030
0001
2000
,  // measure 45
0000
0000
0000
3000
0001
0100
0010
1000
,  // measure 46
0001
1000
0100
0020
0000
0030
0100
2000
,  // measure 47
0000
0000
0000
3000
0001
0010
0001
1000
,  // measure 48
0010
0100
0001
0020
0000
0030
0001
0200
,  // measure 49
0000
0000
0000
0300
0010
0100
0000
0001
,  // measure 50
1000
0100
1000
0020
0000
0030
0100
0001
,  // measure 51
1000
0100
1000
0020
0000
0030
0100
0001
,  // measure 52
1000
0100
1000
0020
0000
0030
0100
0001
,  // measure 53
1000
0000
0000
0000
0010
0000
0000
0100
0000
0100
0000
0000
0001
0000
0000
0000
,  // measure 54
1010
0000
0000
0000
0021
0000
0000
0100
0000
0100
0000
0000
0031
0000
0010
0000
,  // measure 55
0110
0000
0000
0000
2100
0000
0000
0001
0000
0001
0000
0000
3010
0000
0100
0000
,  // measure 56
0102
0000
0000
0000
0010
0000
0000
1000
0000
1000
0000
0000
0103
0000
0010
0000
,  // measure 57
1010
0000
0000
0000
2100
0000
0000
0010
0000
0010
0000
0000
3001
0000
1000
0001
,  // measure 58
0101
0000
0000
0000
0012
0000
0000
1000
0000
1000
0000
0000
0103
0000
0001
0000
,  // measure 59
0011
0000
0000
0000
1020
0000
0000
0100
0000
0100
0000
0000
1030
0000
0100
0000
,  // measure 60
0110
0000
0000
0000
0021
0000
0000
0001
0000
0001
0000
0000
0130
0000
0010
0000
,  // measure 61
0001
0000
1000
0000
0010
0000
1000
0000
0001
1000
0000
0010
0100
0000
0000
0000
,  // measure 62
0001
0100
1000
0200
0000
0310
1000
0200
,  // measure 63
0010
0000
1000
0000
0310
0001
1000
0100
,  // measure 64
1000
0001
0010
0200
0000
0310
1000
0002
,  // measure 65
0010
0000
0100
0000
1003
0100
0001
0100
,  // measure 66
0010
0001
0100
2000
0000
3100
0010
2000
,  // measure 67
0010
0000
0001
0000
3010
1000
0010
0100
,  // measure 68
0001
0010
1000
0020
0000
0130
0010
0001
,  // measure 69
1000
0000
0000
0000
0001
0000
0000
0100
0000
0100
0000
0100
0010
0000
1000
0000
,  // measure 70
1001
0000
0000
0000
;
