#VERSION:0.83;
#TITLE:Sail;
#SUBTITLE:(Radio Edit);
#ARTIST:Armin van Buuren;
#TITLETRANSLIT:;
#SUBTITLETRANSLIT:;
#ARTISTTRANSLIT:;
#GENRE:;
#ORIGIN:;
#CREDIT:;
#BANNER:Sail (Radio Edit).png;
#BACKGROUND:Sail (Radio Edit)-bg.png;
#PREVIEWVID:;
#JACKET:Sail (Radio Edit)-jacket.png;
#CDIMAGE:;
#DISCIMAGE:;
#LYRICSPATH:;
#CDTITLE:cdtitle.png;
#MUSIC:Sail (Radio Edit).ogg;
#OFFSET:-0.917000;
#SAMPLESTART:7.972995;
#SAMPLELENGTH:12.000000;
#SELECTABLE:YES;
#BPMS:0.000=136.000,
112.000=34.000,
118.000=17.000,
119.000=136.000;
#STOPS:;
#DELAYS:;
#WARPS:;
#TIMESIGNATURES:0.000=4=4;
#TICKCOUNTS:0.000=4;
#COMBOS:0.000=1;
#SPEEDS:0.000=1.000=0.000=0;
#SCROLLS:0.000=1.000;
#FAKES:;
#LABELS:0.000=Song Start;
#BGCHANGES:;
#KEYSOUNDS:;
#ATTACKS:
;

//---------------dance-single - ----------------
#NOTEDATA:;
#CHARTNAME:;
#STEPSTYPE:dance-single;
#DESCRIPTION:;
#CHARTSTYLE:;
#DIFFICULTY:Hard;
#METER:7;
#RADARVALUES:0.398530,0.477879,0.328673,0.176361,0.016033,348.000000,307.000000,41.000000,22.000000,0.000000,0.000000,0.000000,0.000000,0.000000,0.398530,0.477879,0.328673,0.176361,0.016033,348.000000,307.000000,41.000000,22.000000,0.000000,0.000000,0.000000,0.000000,0.000000;
#CREDIT:;
#NOTES:
0000
0000
0000
0000
,
0000
0000
0000
0000
,
0000
0000
0000
0000
,
0000
0000
0000
0000
,
0001
0100
0000
0100
0000
0100
0000
0100
,
0000
0001
0000
0001
0000
1000
0000
1000
,
0000
0010
0000
0010
0000
0010
0000
0010
,
0000
0010
0000
0010
0000
0100
0000
0100
,
0000
0001
0000
0001
0000
0001
0000
0001
,
0000
0001
0000
0001
0000
0001
0000
0001
,
0000
1000
0000
1000
0000
1000
0000
1000
,
0000
1000
0000
1000
0000
0010
0000
1000
,
0200
0010
0000
0010
0000
0010
0000
0310
,
0002
1000
0000
1000
0000
1000
0000
1003
,
0020
0100
0000
0100
0000
0100
0000
0130
,
0002
1000
0000
1000
0000
1000
0000
1003
,
0200
0010
0000
0010
0000
0010
0000
0310
,
0002
1000
0000
1000
0000
1000
0000
1003
,
0020
0100
0000
0100
0000
0100
0000
0130
,
0002
1000
0000
1000
0000
1000
0000
1003
,
1100
1000
1100
0000
,
0101
0100
0101
0000
,
1010
0010
1010
0000
,
1001
1000
1001
0000
,
0101
0001
1001
0000
,
1100
1000
1001
0000
,
1010
0010
0110
0000
,
0110
0000
0100
0000
0101
0000
0001
1000
,
0020
1000
0230
0001
0320
1000
0230
0001
,
0302
1000
2003
0002
3003
0000
1000
0001
,
0010
0001
0010
0001
0010
0001
0010
0100
,
0010
0100
0010
0100
1000
0100
1000
0001
,
1000
0001
1000
0001
1000
0001
1000
0001
,
1000
0001
1000
0010
1000
0010
1000
0010
,
0100
0010
0100
0010
0100
0010
0100
0010
,
0100
0010
0100
0010
0100
0010
0100
0001
,
0100
0001
0100
0001
0100
0001
0100
0001
,
0100
0001
0100
0010
0100
0010
1000
0100
,
0001
0100
1000
0100
0001
0100
1000
0100
,
0001
0100
1000
0100
0001
0100
1000
0010
,
0001
0010
1000
0010
0001
0010
1000
0010
,
0001
0010
1000
0010
0001
0010
0100
0010
,
0100
0010
0100
0001
0100
0001
1000
0001
,
1000
0001
0010
0001
0010
0001
0010
0100
,
1000
0000
0100
0000
0010
0000
0001
0000
0010
0000
0100
0000
1000
0000
0000
0001
,
0100
0010
1000
0000
0101
0000
0002
0000
,
0100
0010
0100
2003
,
0100
0010
0100
3020
,
1000
0100
0001
0100
,
1000
0230
0010
0302
,
0100
0100
0100
1000
,
1000
0010
0010
0203
,
0010
0010
0001
0001
,
0010
0000
0010
0000
0010
0310
1001
0000
,
0101
1001
1000
1100
,
0101
1001
0001
0101
,
1010
1001
0001
0011
,
1100
0011
0001
1001
,
0110
1001
0001
0101
,
0110
1010
1000
1010
,
0110
0101
0001
1001
,
0110
0000
0000
0110
0000
0000
0100
0000
0010
1000
0010
1000
0002
0000
0000
0000
,
0000
0000
0000
0003
;

//---------------dance-single - ----------------
#NOTEDATA:;
#CHARTNAME:;
#STEPSTYPE:dance-single;
#DESCRIPTION:;
#CHARTSTYLE:;
#DIFFICULTY:Medium;
#METER:5;
#RADARVALUES:0.258816,0.326970,0.200410,0.152312,0.000000,226.000000,201.000000,25.000000,19.000000,0.000000,0.000000,0.000000,0.000000,0.000000,0.258816,0.326970,0.200410,0.152312,0.000000,226.000000,201.000000,25.000000,19.000000,0.000000,0.000000,0.000000,0.000000,0.000000;
#CREDIT:;
#NOTES:
0000
0000
0000
0000
,
0000
0000
0000
0000
,
0000
0000
0000
0000
,
0000
0000
0000
0000
,
0001
1000
0000
1000
0000
1000
0000
1000
,
0000
0100
0000
0100
0000
1000
0000
1000
,
0000
0010
0000
0010
0000
0010
0000
0010
,
0000
0010
0000
0010
0000
0100
0000
0100
,
0000
0001
0000
0001
0000
0001
0000
0001
,
0000
0001
0000
0001
0000
0001
0000
0001
,
0000
0100
0000
0100
0000
0100
0000
0100
,
0000
0100
0000
0100
0000
0010
0000
0010
,
0200
0000
0000
0000
,
0002
0000
0000
0303
,
0020
0000
0000
0000
,
0200
0000
0000
0330
,
2000
0000
0000
0000
,
0020
0000
0000
3030
,
0200
0000
0000
0000
,
0020
0000
0000
0330
,
0120
0100
0130
0000
,
0201
0001
0301
0000
,
2001
0001
3001
0000
,
0012
0010
0013
0000
,
2100
0100
3100
0000
,
0210
0010
0310
0000
,
0021
0001
0031
0000
,
1002
1000
1003
0000
,
0101
0001
0100
1000
,
0100
0000
0010
0000
2000
0000
3000
0001
,
0000
0001
0000
0001
0000
0001
0000
0100
,
0000
0100
0000
0001
0000
0001
0000
0010
,
0000
0010
0000
0010
0000
0010
0000
0010
,
0000
0010
0000
0001
0000
0001
0000
1000
,
0000
1000
0000
1000
0000
1000
0000
1000
,
0000
1000
0000
1000
0000
1000
0000
0100
,
0000
0100
0000
0100
0000
0100
0000
0100
,
0000
0100
0000
1000
0000
1000
0000
0100
,
0000
1000
0000
0010
0000
0001
0000
0010
,
0000
0100
0000
1000
0000
0100
0000
0010
,
0000
1000
0000
0001
0000
0010
0000
0001
,
0000
1000
0000
0010
0000
0100
0000
0001
,
0000
1000
0000
0100
0000
1000
0000
0001
,
0000
0100
0000
0001
0000
1000
0000
0010
,
0000
0100
0000
0010
0000
0100
0002
0000
,
0010
0000
1003
0000
0000
0000
0001
0100
,
0000
0010
0000
1000
0010
1000
0000
0010
,
0000
0100
0000
0001
1000
0010
0000
0100
,
0000
0001
0000
0010
0100
1000
0000
0100
,
0000
1000
0000
0010
0100
0001
0000
1000
,
0000
0100
0000
1000
0010
0100
0000
0001
,
0000
1000
0000
0010
0100
0010
0000
0100
,
0000
0001
0000
0100
0000
0001
0000
1000
,
0000
0010
0000
1000
0000
0010
1010
0000
,
0010
0110
0000
0110
,
0010
1001
0000
0011
,
0010
0110
0000
1100
,
1000
1001
0000
0101
,
0001
1001
0000
1010
,
1000
1001
0000
1100
,
1000
1001
0000
0011
,
0010
0000
1001
0000
0001
1000
0020
0000
,
0000
0000
0000
0030
;

//---------------dance-single - ----------------
#NOTEDATA:;
#CHARTNAME:;
#STEPSTYPE:dance-single;
#DESCRIPTION:;
#CHARTSTYLE:;
#DIFFICULTY:Easy;
#METER:2;
#RADARVALUES:0.127117,0.222756,0.080164,0.184378,0.000000,111.000000,101.000000,10.000000,23.000000,0.000000,0.000000,0.000000,0.000000,0.000000,0.127117,0.222756,0.080164,0.184378,0.000000,111.000000,101.000000,10.000000,23.000000,0.000000,0.000000,0.000000,0.000000,0.000000;
#CREDIT:;
#NOTES:
0000
0000
0000
0000
,
0000
0000
0000
0000
,
0000
0000
0000
0000
,
0000
0000
0000
0000
,
0001
0000
1000
0000
,
0001
0000
0100
0000
,
0001
0000
1000
0000
,
0001
0000
0010
0000
,
0100
0000
1000
0000
,
0100
0000
1000
0000
,
0010
0000
0100
0000
,
0001
0000
1000
0000
,
0020
0000
0000
0030
,
0200
0000
0000
0300
,
0002
0000
0000
0003
,
2000
0000
0000
3000
,
2000
0000
0000
3000
,
0002
0000
0000
0003
,
0200
0000
0000
0300
,
0020
0000
0000
0030
,
1001
0000
0001
0000
,
1001
0000
1000
0000
,
0110
0000
0100
0000
,
0110
0000
0010
0000
,
1001
0000
0001
0000
,
1001
0000
1000
0000
,
1100
0000
0100
0000
,
1100
0000
1000
0000
,
0010
0100
0001
1000
,
0100
0000
1000
0000
0000
0000
0000
0001
,
0000
0000
0000
0001
0000
0000
0000
1000
,
0000
0000
0000
1000
0000
0000
0000
0010
,
0000
0000
0000
0010
0000
0000
0000
0100
,
0000
0000
0000
0100
0000
0000
0000
0001
,
0000
0000
0000
0001
0000
0000
0000
1000
,
0000
0000
0000
1000
0000
0000
0000
0010
,
0000
0000
0000
0100
0000
0000
0000
0001
,
0000
0000
0000
1000
0000
0000
0000
0001
,
0000
0001
0000
0001
0000
0000
0000
1000
,
0000
1000
0000
1000
0000
0000
0000
0010
,
0000
0010
0000
0010
0000
0000
0000
0100
,
0000
0100
0000
0100
0000
0000
0010
0000
,
0000
0100
0000
0010
,
0000
0100
0000
0010
,
1000
0100
0010
0001
,
1000
1001
0000
0002
,
0000
0000
0000
0023
,
0000
0000
0000
0032
,
0000
0000
0000
0000
,
0000
2003
0000
3020
,
0000
0000
0000
0000
,
0000
0000
0000
0230
,
0000
0000
0000
0000
,
0000
0302
0000
2003
,
0000
0000
0000
3200
,
0000
0000
0000
2300
,
0000
0000
0000
3020
,
0000
0000
0000
0230
,
0000
0000
0000
0302
,
0000
0000
0000
0023
,
0000
0000
0000
0230
,
0000
0000
0300
1001
;

//---------------dance-single - ----------------
#NOTEDATA:;
#CHARTNAME:;
#STEPSTYPE:dance-single;
#DESCRIPTION:;
#CHARTSTYLE:;
#DIFFICULTY:Beginner;
#METER:1;
#RADARVALUES:0.101923,0.198006,0.144296,0.064131,0.000000,89.000000,71.000000,18.000000,8.000000,0.000000,0.000000,0.000000,0.000000,0.000000,0.101923,0.198006,0.144296,0.064131,0.000000,89.000000,71.000000,18.000000,8.000000,0.000000,0.000000,0.000000,0.000000,0.000000;
#CREDIT:;
#NOTES:
0000
0000
0000
0000
,
0000
0000
0000
0000
,
0000
0000
0000
0000
,
0000
0000
0000
0000
,
1000
0000
0000
0000
,
0100
0000
0000
0000
,
1000
0000
0000
0000
,
1000
0000
0001
0000
,
1000
0000
0000
0000
,
0010
0000
0000
0000
,
0100
0000
0000
0000
,
0100
0000
0010
0000
,
1000
0000
0000
0000
,
0100
0000
0000
0000
,
1000
0000
0000
0000
,
0001
0000
0000
0000
,
0100
0000
0000
0000
,
0010
0000
0000
0000
,
1000
0000
0000
0000
,
0001
0000
0000
0000
,
1001
0000
0000
0000
,
1001
0000
0000
0000
,
0110
0000
0000
0000
,
0110
0000
0000
0000
,
1001
0000
0000
0000
,
1001
0000
0000
0000
,
0110
0000
0000
0000
,
0110
0000
0000
0000
,
1000
0001
1000
0100
,
0010
0001
0000
0010
,
0000
0000
0000
0100
,
0000
0000
0000
0001
,
0000
0000
0000
0000
,
0000
1000
0000
0001
,
0000
0000
0000
0000
,
0000
0000
0000
0100
,
0000
0000
0000
0000
,
0000
0010
0000
1000
,
0000
0000
0000
1000
,
0000
0000
0000
0001
,
0000
0000
0000
0001
,
0000
0000
0000
1000
,
0000
0000
0000
0001
,
0000
0000
0000
0100
,
0000
0010
0000
2002
,
0000
3003
0000
2000
,
0000
0000
3000
0002
,
0000
0000
0003
0200
,
0000
0000
0000
0000
,
0300
0020
0030
0020
,
0000
0000
0000
0000
,
0000
0000
0030
0200
,
0000
0000
0000
0000
,
0000
0000
0300
1001
,
0000
0001
0000
1001
,
0000
1000
0000
0110
,
0000
0010
0000
0110
,
0000
0100
0000
1001
,
0000
1000
0000
1001
,
0000
0001
0000
0110
,
0000
0010
0000
0110
,
0000
0100
0000
1001
;

//---------------dance-single - ----------------
#NOTEDATA:;
#CHARTNAME:;
#STEPSTYPE:dance-single;
#DESCRIPTION:;
#CHARTSTYLE:;
#DIFFICULTY:Challenge;
#METER:10;
#RADARVALUES:0.656201,0.830000,0.440903,0.408837,0.489001,573.000000,518.000000,55.000000,51.000000,0.000000,0.000000,1.000000,0.000000,0.000000,0.656201,0.830000,0.440903,0.408837,0.489001,573.000000,518.000000,55.000000,51.000000,0.000000,0.000000,1.000000,0.000000,0.000000;
#CREDIT:;
#NOTES:
// measure 0
0000
0000
0000
0000
,  // measure 1
0000
0000
0000
0000
,  // measure 2
0000
0000
0000
0000
,  // measure 3
0000
0000
0000
0000
,  // measure 4
1001
0001
0100
0001
0010
0001
1000
0001
,  // measure 5
0100
0010
1000
0010
0001
0100
1000
0100
,  // measure 6
0001
0010
0100
0010
1000
0010
0100
0010
,  // measure 7
0001
0010
0100
0010
0001
1000
0010
1000
,  // measure 8
0001
0010
0100
0010
0001
0010
0100
0010
,  // measure 9
1000
0010
0001
0010
0100
0010
0001
0010
,  // measure 10
0001
1000
0010
1000
0100
1000
0010
1000
,  // measure 11
0100
1000
0010
1000
0001
0010
0100
0010
,  // measure 12
0001
1000
0100
0000
1000
0001
0100
0000
0001
1000
0100
0000
1000
0001
0100
0000
,  // measure 13
0001
1000
0100
0000
1000
0001
0100
0000
0001
1000
0100
0000
1000
0001
0100
0000
,  // measure 14
1000
0001
0010
0000
0001
1000
0010
0000
1000
0001
0010
0000
0001
1000
0010
0000
,  // measure 15
1000
0001
0010
0000
0001
1000
0010
0000
1000
0001
0010
0000
0001
1000
0010
0000
,  // measure 16
1000
0010
0100
0000
0010
1000
0100
0000
0100
1000
0010
0000
0010
1000
0100
0000
,  // measure 17
0100
1000
0010
0000
0010
1000
0100
0000
0100
1000
0010
0000
0010
1000
0100
0000
,  // measure 18
0010
0001
0100
0000
0100
0001
0010
0000
0010
0001
0100
0000
0100
0001
0010
0000
,  // measure 19
0010
0001
0100
0000
0001
1000
0010
0000
0010
1000
0001
0000
0001
1000
0100
0000
,  // measure 20
1001
0000
0000
0001
0010
0000
0001
0000
1000
0000
0000
0001
1000
0000
0001
0000
,  // measure 21
0101
0000
0000
1000
0010
0000
1000
0000
0100
0000
0000
0010
0001
0000
1000
0000
,  // measure 22
1001
0000
0000
0001
0010
0000
0001
0000
1000
0000
0000
0100
0010
0000
0001
0000
,  // measure 23
0101
0000
0000
0001
1000
0000
0100
0000
1000
0000
0000
0100
0010
0000
0001
0000
,  // measure 24
1001
0000
0000
1000
0010
0000
0100
0000
0001
0000
0000
0010
0100
0000
1000
0000
,  // measure 25
1100
0000
0000
1000
0100
0000
1000
0000
0010
0000
0000
0100
0001
0000
0010
0000
,  // measure 26
0011
0000
0000
0010
0100
0000
0010
0000
0001
0000
0000
1000
0001
0000
0100
0000
,  // measure 27
0110
0000
0000
0010
1000
0000
0100
0000
1000
0000
0000
0100
0010
0000
0001
0000
,  // measure 28
0201
0001
1000
1000
0010
0010
0001
0001
,  // measure 29
0010
0000
0000
0000
0010
0000
0000
0000
0001
0000
0000
0000
0001
0000
0000
0000
0040
0000
0000
0000
0000
0000
0000
0330
1000
0000
0000
0000
1002
0000
0000
0000
,  // measure 30
0000
0000
0000
0000
0000
0003
2001
0000
0000
0000
0000
0000
0000
0000
0000
0000
0000
3000
1020
0000
0000
0000
0000
0000
0000
0000
0000
0000
0000
0030
2010
0000
0000
0000
0000
0000
0000
0000
0000
0000
0000
3000
1200
0000
0000
0000
0000
0000
,  // measure 31
0000
0000
0000
0000
0000
0300
1200
0000
0000
0000
0000
0000
0000
0000
0000
0000
0000
0300
0120
0000
0000
0000
0000
0000
0000
0000
0000
0000
0000
0030
0120
0000
0000
0000
0000
0000
0000
0000
0000
0000
0000
0030
0012
0000
0000
0000
0000
0000
,  // measure 32
0000
0000
0000
0000
0000
0003
0021
0000
0000
0000
0000
0000
0000
0000
0000
0000
0000
0030
0012
0000
0000
0000
0000
0000
0000
0000
0000
0000
0000
0003
0021
0000
0000
0000
0000
0000
0000
0000
0000
0000
0000
0030
0012
0000
0000
0000
0000
0000
,  // measure 33
0000
0000
0000
0000
0000
0003
0021
0000
0000
0000
0000
0000
0000
0000
0000
0000
0000
0030
0210
0000
0000
0000
0000
0000
0000
0000
0000
0000
0000
0300
0120
0000
0000
0000
0000
0000
0000
0000
0000
0000
0000
0030
1200
0000
0000
0000
0000
0000
,  // measure 34
0000
0000
0000
0000
0000
0300
2100
0000
0000
0000
0000
0000
0000
0000
0000
0000
0000
3000
1200
0000
0000
0000
0000
0000
0000
0000
0000
0000
0000
0300
2100
0000
0000
0000
0000
0000
0000
0000
0000
0000
0000
3000
1200
0000
0000
0000
0000
0000
,  // measure 35
0000
0000
0000
0000
0000
0300
2100
0000
0000
0000
0000
0000
0000
0000
0000
0000
0000
3000
1200
0000
0000
0000
0000
0000
0000
0000
0000
0000
0000
0300
2100
0000
0000
0000
0000
0000
0000
0000
0000
0000
3000
0000
1020
0000
0000
0000
0000
0000
,  // measure 36
0000
0000
0000
0000
0030
0000
2010
0000
0000
0000
0000
0000
0000
0000
0000
0000
0000
3000
1020
0000
0000
0000
0000
0000
0000
0000
0000
0000
0000
0030
2010
0000
0000
0000
0000
0000
0000
0000
0000
0000
0000
3000
1020
0000
0000
0000
0000
0000
,  // measure 37
0000
0000
0000
0000
0000
0030
2010
0000
0000
0000
0000
0000
0000
0000
0000
0000
0000
3000
1200
0000
0000
0000
0000
0000
0000
0000
0000
0000
0000
0300
0120
0000
0000
0000
0000
0030
0010
0000
0000
0000
0000
0000
0002
0000
0000
0000
0000
0000
,  // measure 38
1000
0000
0000
0003
0002
0000
0000
0000
0100
0000
0000
0003
0002
0000
0000
0000
0010
0000
0000
0003
0002
0000
0000
0000
1000
0000
0000
0003
0002
0000
0000
0000
,  // measure 39
0010
0000
0000
0003
0002
0000
0000
0000
0100
0000
0000
0003
0002
0000
0000
0000
1000
0000
0000
0003
0002
0000
0000
0000
1000
0000
0000
0003
0200
0000
0000
0000
,  // measure 40
0010
0000
0000
0300
0200
0000
0000
0000
0001
0000
0000
0300
0200
0000
0000
0000
0010
0000
0000
0300
0200
0000
0000
0000
1000
0000
0000
0300
0200
0000
0000
0000
,  // measure 41
0010
0000
0000
0300
0200
0000
0000
0000
0001
0000
0000
0300
0200
0000
0000
0000
0010
0000
0000
0300
0200
0000
0000
0000
1300
0000
0100
0000
1000
0000
0100
0000
,  // measure 42
0010
0100
0010
0100
0010
0001
0010
0001
0100
0001
0100
0001
0100
0010
0100
0010
,  // measure 43
1000
0010
1000
0010
1000
0001
1000
0001
0100
0001
0100
0001
0010
0100
1000
0010
,  // measure 44
0100
0001
1000
0100
1000
0010
0100
0001
0010
0001
0100
0010
1000
0000
0001
0100
,  // measure 45
0010
0000
1000
0000
1100
0000
0000
0000
0101
0000
0000
0000
0100
0010
0100
0000
,  // measure 46
0001
1000
0001
0000
0010
0001
0010
0000
0100
0010
0100
0000
1000
0100
1000
0000
,  // measure 47
0001
0100
0001
0000
0100
0010
0100
0000
0010
1000
0010
0000
1000
0100
1000
0000
,  // measure 48
0100
0010
0100
0000
0010
0001
0010
0000
0001
0100
0001
0000
1000
0001
1000
0000
,  // measure 49
0100
0010
0100
0000
0010
0001
1000
0000
1000
0001
0100
0000
0010
1000
0010
0000
,  // measure 50
0100
0001
0100
0000
0010
0100
0010
0000
0100
0001
0100
0000
0001
0010
0001
0000
,  // measure 51
0010
0100
0010
0000
0100
1000
0100
0000
1000
0001
1000
0000
0001
0100
0001
0000
,  // measure 52
1000
0100
1000
0000
0010
1000
0010
0000
1000
0001
1000
0000
0001
0010
0001
0000
,  // measure 53
0010
0100
0010
0000
0100
1000
0100
0000
1000
0010
1000
0000
1001
0000
0000
0001
,  // measure 54
0010
0000
0001
0000
0100
0000
0000
0010
1000
0000
0100
0000
1100
0000
0000
0100
,  // measure 55
0010
0000
0001
0000
0100
0000
0000
0010
0100
0000
0001
0000
0011
0000
0000
0001
,  // measure 56
1000
0000
0100
0000
1000
0000
0000
0100
0010
0000
0001
0000
0011
0000
0000
0001
,  // measure 57
1000
0000
0010
0000
0100
0000
0000
0100
0010
0000
1000
0000
1100
0000
0000
0100
,  // measure 58
0010
0000
0001
0000
1000
0000
0000
0001
0100
0000
0001
0000
0011
0000
0000
0001
,  // measure 59
0010
0000
0001
0000
1000
0000
0000
0100
0010
0000
0100
0000
1100
0000
0000
1000
,  // measure 60
0010
0000
0100
0000
0001
0000
0000
0001
0010
0000
0100
0000
0110
0000
0000
0000
,  // measure 61
1001
0000
0000
1100
0000
0000
0011
0000
0001
0100
0010
2000
0002
0000
0000
0000
,  // measure 62
0000
0000
0000
3003
;
