#VERSION:0.83;
#TITLE:STINGER MISSILE;
#SUBTITLE:;
#ARTIST:Akira Complex;
#TITLETRANSLIT:;
#SUBTITLETRANSLIT:;
#ARTISTTRANSLIT:;
#GENRE:;
#ORIGIN:;
#CREDIT:;
#BANNER:STINGER MISSILE.png;
#BACKGROUND:STINGER MISSILE-bg.png;
#PREVIEWVID:;
#JACKET:STINGER MISSILE-jacket.png;
#CDIMAGE:;
#DISCIMAGE:;
#LYRICSPATH:;
#CDTITLE:CDtitle.png;
#MUSIC:STINGER MISSILE.ogg;
#OFFSET:-0.003000;
#SAMPLESTART:29.539459;
#SAMPLELENGTH:14.769230;
#SELECTABLE:YES;
#BPMS:0.000=130.000;
#STOPS:;
#DELAYS:;
#WARPS:;
#TIMESIGNATURES:0.000=4=4;
#TICKCOUNTS:0.000=4;
#COMBOS:0.000=1;
#SPEEDS:0.000=1.000=0.000=0;
#SCROLLS:0.000=1.000;
#FAKES:;
#LABELS:0.000=Song Start;
#BGCHANGES:;
#KEYSOUNDS:;
#ATTACKS:
;

//---------------dance-single - ----------------
#NOTEDATA:;
#CHARTNAME:;
#STEPSTYPE:dance-single;
#DESCRIPTION:;
#CHARTSTYLE:;
#DIFFICULTY:Hard;
#METER:7;
#RADARVALUES:0.355996,0.440140,0.113271,0.137544,0.121362,308.000000,294.000000,14.000000,17.000000,0.000000,0.000000,2.000000,0.000000,0.000000,0.355996,0.440140,0.113271,0.137544,0.121362,308.000000,294.000000,14.000000,17.000000,0.000000,0.000000,2.000000,0.000000,0.000000;
#CREDIT:;
#NOTES:
// measure 0
0000
0000
0000
0000
,  // measure 1
0000
0000
0000
0000
,  // measure 2
0000
0000
0000
0000
,  // measure 3
0000
0000
0000
0000
,  // measure 4
0001
0000
1000
0000
0200
0300
1000
0000
,  // measure 5
1000
0000
0001
0000
1000
0000
0010
1000
,  // measure 6
0000
1000
0010
0000
0100
0000
0001
0000
,  // measure 7
0010
0000
0010
0000
0001
0010
0001
0100
,  // measure 8
0001
0000
0010
0000
0200
0300
0010
0000
,  // measure 9
0001
0000
0001
0000
1000
0000
0001
1000
,  // measure 10
0000
1000
0001
0000
1000
0000
0100
0000
,  // measure 11
1000
0000
0001
0000
0010
0100
1000
0001
,  // measure 12
0100
0000
0000
0001
0010
0000
0000
0100
1000
0000
0000
1000
0010
0000
0000
0100
,  // measure 13
0001
0000
0000
0001
0010
0000
0000
0010
0100
0000
0000
0100
1000
0000
0000
1000
,  // measure 14
0004
0400
0000
0000
0000
0000
0000
0000
0000
0000
0000
0000
0000
0000
0303
0000
,  // measure 15
1000
1000
1000
1000
,  // measure 16
0011
0000
0000
0000
0001
0000
1000
0000
0200
0000
0000
0000
1300
0000
0000
1000
,  // measure 17
0000
0000
1000
0000
0000
1000
0000
0000
1000
0000
0000
1000
0000
0000
1000
0000
,  // measure 18
0001
0000
0000
0000
0100
0000
0001
0000
0020
0000
0000
0000
0031
0000
0000
1000
,  // measure 19
0100
0000
1000
0000
0000
0010
0000
0000
0100
0000
0010
0000
0100
0000
0010
0000
,  // measure 20
0110
0000
0000
0000
0100
0000
0010
0000
2000
0000
0000
0000
3010
0000
0000
0010
,  // measure 21
0000
0000
0010
0000
0000
0010
0000
0000
0010
0000
0000
0010
0000
0000
0010
0000
,  // measure 22
0100
0000
1000
0001
0020
0000
0031
0000
,  // measure 23
1000
0010
1000
0010
1000
0100
0010
0001
,  // measure 24
1000
0000
0000
0000
0001
0000
0100
0000
2000
0000
0000
0000
3100
0000
0000
0100
,  // measure 25
0000
0000
0100
0000
0000
0100
0000
0000
0100
0000
0000
0100
0000
0000
0100
0000
,  // measure 26
0010
0000
0000
0000
1000
0000
0001
0000
0200
0000
0000
0000
0301
0000
0000
0010
,  // measure 27
0100
0000
0000
1000
0000
0000
0001
0000
1000
0000
0010
0000
0001
0000
0010
0000
,  // measure 28
1000
0000
0000
0000
0100
0000
1000
0000
0020
0000
0000
0000
0130
0000
0000
0001
,  // measure 29
0000
0000
0010
0000
0000
0001
0000
0000
1000
0000
0000
0100
0000
0000
0010
0000
,  // measure 30
0100
0000
0000
0000
0010
0000
0100
0000
2000
0000
0000
0000
3001
0000
0000
0100
,  // measure 31
0001
0010
0001
0010
0001
0010
1000
0010
,  // measure 32
0001
0000
1010
0010
1000
0000
1100
0000
,  // measure 33
1000
0000
0101
0001
0010
0000
0011
0000
,  // measure 34
0001
0000
1001
1000
0010
0000
1010
0000
,  // measure 35
0100
0001
0100
0001
0100
0001
0100
0001
,  // measure 36
0100
0000
0000
0000
0010
0000
1000
0000
0100
0000
0010
0000
0010
0000
0000
0100
,  // measure 37
0000
0000
0100
0000
0000
0100
0000
0000
0100
0000
0000
0000
0100
0000
0010
0000
,  // measure 38
0001
0000
0010
0001
1000
0010
0010
0000
,  // measure 39
1000
0001
0010
0001
1000
0100
0001
0100
,  // measure 40
1000
0000
0101
0100
0001
0000
0011
0000
,  // measure 41
0001
0000
1010
1000
0100
0000
1100
0000
,  // measure 42
1000
0000
1001
0001
0100
0000
0101
0000
,  // measure 43
0010
1000
0010
1000
0010
0100
0010
0001
,  // measure 44
0010
0000
0000
0000
0100
0000
0001
0000
0010
0000
0100
0000
0100
0000
0000
0010
,  // measure 45
0000
0000
0010
0000
0000
0010
0000
0000
0010
0000
0000
0000
0010
0000
0100
0000
,  // measure 46
1000
0000
0100
1000
0001
0100
0100
0000
,  // measure 47
0001
1000
0100
1000
0001
0010
1000
0010
,  // measure 48
0001
0100
0001
0100
,  // measure 49
0001
0100
0001
0100
,  // measure 50
0010
1000
0001
0010
,  // measure 51
0001
1000
0010
1000
,  // measure 52
0001
1000
0010
1000
,  // measure 53
0010
1000
0010
1000
,  // measure 54
0010
0100
0010
1000
,  // measure 55
0001
0010
0001
1000
,  // measure 56
0200
0000
0000
0000
,  // measure 57
0000
0000
0000
0000
0000
2300
0000
0000
,  // measure 58
0002
0000
0000
0000
,  // measure 59
0000
0000
0000
0000
3000
2000
0003
0000
,  // measure 60
3020
0000
0000
0000
,  // measure 61
0000
0000
0000
0000
0000
0230
0000
0000
,  // measure 62
0002
0000
0000
0000
,  // measure 63
0000
0000
0000
0000
,  // measure 64
0303
0000
0000
0000
;

//---------------dance-single - ----------------
#NOTEDATA:;
#CHARTNAME:;
#STEPSTYPE:dance-single;
#DESCRIPTION:;
#CHARTSTYLE:;
#DIFFICULTY:Medium;
#METER:5;
#RADARVALUES:0.301672,0.466031,0.177998,0.266997,0.008091,261.000000,239.000000,22.000000,33.000000,0.000000,0.000000,0.000000,0.000000,0.000000,0.301672,0.466031,0.177998,0.266997,0.008091,261.000000,239.000000,22.000000,33.000000,0.000000,0.000000,0.000000,0.000000,0.000000;
#CREDIT:;
#NOTES:
0000
0000
0000
0000
,
0000
0000
0000
0000
,
0000
0000
0000
0000
,
0000
0000
0000
0000
,
1000
0000
1000
0000
0002
0003
0100
0000
,
0010
0000
1000
0000
0001
0000
1000
0001
,
0000
0001
0100
0000
0010
0000
1000
0000
,
0001
0000
0001
0000
1000
0100
1000
0001
,
0100
0000
0100
0000
0020
0030
1000
0000
,
0001
0000
0010
0000
0001
0000
1000
0100
,
0000
0100
1000
0000
0001
0000
0100
0000
,
0010
0000
0010
0000
0100
0010
1000
0001
,
1000
1000
0010
0010
,
0100
0100
0001
0001
,
1000
0100
0010
0001
1000
0100
0010
0001
,
0011
0011
0011
0011
,
1100
0000
0100
1000
0020
0000
0130
0000
,
0001
0010
0001
1000
,
1001
0000
0001
1000
0020
0000
1030
0000
,
0100
0000
0010
0000
0001
0010
0001
0010
,
0100
0000
1000
0001
0020
0000
0031
0000
,
1000
0010
0100
0001
,
0011
0000
0100
0010
0002
0000
0103
0000
,
0010
0000
0010
0000
1000
0010
0100
0001
,
0011
0000
0010
0001
0200
0000
0310
0000
,
1000
0100
1000
0001
,
1001
0000
1000
0001
0200
0000
0301
0000
,
0010
0000
0100
0000
1000
0100
1000
0100
,
0010
0000
0001
1000
0200
0000
1300
0000
,
0001
0100
0010
1000
,
1100
0000
0010
0100
2000
0000
3010
0000
,
0100
0000
0100
0000
0001
0100
0010
1000
,
0001
0011
0010
0110
,
0100
0000
1100
0000
1000
0001
1000
0000
,
0001
0101
0100
0110
,
0010
0000
1010
0000
1000
0010
0100
0001
,
1000
0000
0000
0001
1000
0010
0010
0000
,
0000
0000
0000
0000
0000
0000
0000
0000
0100
0000
0000
0010
0000
0000
1000
0000
,
0001
0000
1000
0100
0010
0100
0100
0000
,
0010
0000
0001
0000
1000
0100
1000
0001
,
1000
1100
0100
0110
,
0010
0000
0011
0000
0001
1000
0001
0000
,
1000
1010
0010
0110
,
0100
0000
0101
0000
0001
0100
0010
1000
,
0001
0000
0000
1000
0001
0100
0100
0000
,
0000
0000
0000
0000
0000
0000
0000
0000
0010
0000
0000
0100
0000
0000
0001
0000
,
1000
0000
0001
0010
0100
0010
0010
0000
,
0100
0000
1000
0000
0001
0010
0001
1000
,
0020
0000
2030
0000
,
3002
0000
0023
0000
,
0230
0000
0320
0000
,
0230
0000
0320
0000
,
0032
0000
2003
0000
,
3002
0000
0203
0000
,
0320
0000
2030
0000
,
3020
0000
0230
0000
,
0302
0000
0000
0000
,
0000
0000
0000
0000
0000
0023
0000
0000
,
0230
0000
0000
0000
,
0000
0000
0000
0000
0000
2300
0000
0000
,
3002
0000
0000
0000
,
0000
0000
0000
0000
0000
0203
0000
0000
,
0020
0000
0000
0000
,
0000
0000
0000
0000
,
0330
0000
0000
0000
;

//---------------dance-single - ----------------
#NOTEDATA:;
#CHARTNAME:;
#STEPSTYPE:dance-single;
#DESCRIPTION:;
#CHARTSTYLE:;
#DIFFICULTY:Easy;
#METER:3;
#RADARVALUES:0.172219,0.362468,0.169907,0.088999,0.000000,149.000000,128.000000,21.000000,11.000000,0.000000,0.000000,0.000000,0.000000,0.000000,0.172219,0.362468,0.169907,0.088999,0.000000,149.000000,128.000000,21.000000,11.000000,0.000000,0.000000,0.000000,0.000000,0.000000;
#CREDIT:;
#NOTES:
0000
0000
0000
0000
,
0000
0000
0000
0000
,
0000
0000
0000
0000
,
0000
0000
0000
0000
,
1000
0000
0010
0000
,
0100
0000
0100
0000
,
0001
0000
1000
0000
,
0010
0010
0100
0100
,
0001
0100
0010
1000
,
0010
0100
0001
0001
,
0000
1000
0001
0010
,
0100
0100
0010
0001
,
1000
0100
0010
0001
,
1000
0100
0010
0001
,
1000
0100
0010
0001
,
1001
0110
1001
0110
,
1001
0001
0200
0000
,
0000
0000
0000
0000
,
0310
1000
0100
2000
,
0002
0000
0000
3003
,
0001
0100
0020
0000
,
0000
0000
0000
0000
,
1030
0001
0010
0001
,
1000
1000
0001
0100
,
0010
1000
0200
0000
,
0000
0000
0000
0000
,
1300
0001
0010
0100
,
0020
0000
0130
0010
,
0001
1000
0100
2000
,
0000
0000
0000
0000
,
3001
1000
0010
0100
,
0001
0001
1000
1000
,
1001
0000
1010
0000
,
1001
0000
0011
0000
,
1001
0000
1100
0000
,
1001
0000
0101
0000
,
0001
0000
1000
1000
,
0000
0000
0010
0000
,
0100
0000
0001
0001
,
1000
0010
0100
0001
,
0000
1100
0000
0011
,
0000
1100
0000
1001
,
0000
0101
0000
1010
,
0000
0101
0000
1001
,
1000
0000
0001
0001
,
0000
0000
0100
0000
,
0010
0000
1000
1000
,
0001
1000
0010
0100
,
0010
0000
0000
0000
,
0000
0000
0000
0000
,
1000
0000
0000
0000
,
0000
0000
0000
0000
,
0001
0000
0000
0000
,
0000
0000
0000
0000
,
0100
0000
0000
0000
,
0000
0000
0000
0000
,
0020
0000
0000
0000
,
0000
0000
0000
0030
,
2000
0000
0000
0000
,
0000
0000
0000
3000
,
0002
0000
0000
0000
,
0000
0000
0000
0003
,
0200
0000
0000
0000
,
0000
0000
0000
0000
,
0300
0000
0000
0000
;

//---------------dance-single - ----------------
#NOTEDATA:;
#CHARTNAME:;
#STEPSTYPE:dance-single;
#DESCRIPTION:;
#CHARTSTYLE:;
#DIFFICULTY:Beginner;
#METER:1;
#RADARVALUES:0.079752,0.207125,0.016182,0.000000,0.000000,69.000000,67.000000,2.000000,0.000000,0.000000,0.000000,0.000000,0.000000,0.000000,0.079752,0.207125,0.016182,0.000000,0.000000,69.000000,67.000000,2.000000,0.000000,0.000000,0.000000,0.000000,0.000000,0.000000;
#CREDIT:;
#NOTES:
0000
0000
0000
0000
,
0000
0000
0000
0000
,
0000
0000
0000
0000
,
0000
0000
0000
0000
,
0000
0000
0000
0000
,
0000
0000
0000
0000
,
0000
0000
0000
0000
,
0000
0000
0000
0000
,
1000
0000
0000
0000
,
1000
0000
0000
0000
,
0001
0000
0000
0000
,
0001
0000
0000
0000
,
0100
0000
0100
0000
,
0100
0000
0100
0000
,
0010
0000
0010
0000
,
1000
1000
1000
1000
,
1001
0000
0000
0000
,
0001
0000
0000
0000
,
1000
0000
0000
0000
,
0010
0000
0000
0000
,
0100
0000
0000
0000
,
0010
0000
0000
0000
,
1000
0000
0000
0000
,
0001
0000
0001
0000
,
0001
0000
0000
0000
,
1000
0000
0000
0000
,
0010
0000
0000
0000
,
1000
0000
0001
0001
,
0001
0000
0000
0000
,
0100
0000
0000
0000
,
0010
0000
0000
0000
,
1000
0000
0001
0000
,
0100
0000
0100
0000
,
0100
0000
0100
0000
,
0010
0000
0010
0000
,
0010
0000
0010
0000
,
1000
0000
0000
0000
,
0000
0000
0000
0000
,
0001
0000
0000
0000
,
0100
0000
0010
0000
,
1000
0000
1000
0000
,
1000
0000
1000
0000
,
0001
0000
0001
0000
,
0001
0000
0001
0000
,
0001
0000
0000
0000
,
0000
0000
0000
0000
,
0100
0000
0000
0000
,
0010
0000
0010
0000
,
1001
0000
0000
0000
,
0000
0000
0000
0000
,
1000
0000
0000
0000
,
0000
0000
0000
0000
,
0001
0000
0000
0000
,
0000
0000
0000
0000
,
0100
0000
0000
0000
,
0000
0000
0000
0000
,
0010
0000
0000
0000
,
0000
0000
0000
0000
,
1000
0000
0000
0000
,
0000
0000
0000
0000
,
0010
0000
0000
0000
,
0000
0000
0000
0000
,
0100
0000
0000
0000
,
0000
0000
0000
0000
,
0001
0000
0000
0000
;

//---------------dance-single - ----------------
#NOTEDATA:;
#CHARTNAME:;
#STEPSTYPE:dance-single;
#DESCRIPTION:;
#CHARTSTYLE:;
#DIFFICULTY:Challenge;
#METER:9;
#RADARVALUES:0.539773,0.802608,0.202270,0.380268,0.400495,467.000000,442.000000,25.000000,47.000000,0.000000,0.000000,0.000000,0.000000,0.000000,0.539773,0.802608,0.202270,0.380268,0.400495,467.000000,442.000000,25.000000,47.000000,0.000000,0.000000,0.000000,0.000000,0.000000;
#CREDIT:;
#NOTES:
// measure 0
0000
0000
0000
0000
,  // measure 1
0000
0000
0000
0000
,  // measure 2
0000
0000
0000
0000
,  // measure 3
0000
0000
0000
0000
,  // measure 4
1000
0000
0001
0100
0010
0100
0001
1000
0100
0000
1000
0001
0100
0000
0010
1000
,  // measure 5
0010
1000
0010
0000
0100
0000
0001
1000
0001
0000
0001
1000
0001
0000
1000
0000
,  // measure 6
0000
0000
0001
0100
0001
0010
0001
1000
0010
0000
0100
0000
0001
1000
0100
0000
,  // measure 7
1000
0000
0010
0000
0001
0000
0010
0000
1000
0000
0010
0100
0001
1000
0100
0000
,  // measure 8
0010
0000
0001
0010
0001
0100
0010
1000
0001
0000
1000
0001
0100
0000
0010
0100
,  // measure 9
0010
1000
0001
0000
1000
0000
0100
1000
0100
0000
1000
0100
1000
0000
0001
0000
,  // measure 10
0000
0000
0100
0010
1000
0001
0010
0000
0100
0000
0010
0000
0001
1000
0001
0000
,  // measure 11
0010
0000
1000
0000
0010
0000
0001
0000
0010
0000
0100
0010
0001
1000
0010
0000
,  // measure 12
0100
0000
0001
0100
0001
0000
0100
0010
0100
0000
0010
1000
0010
0000
1000
0100
,  // measure 13
1000
0000
0100
0010
0100
0000
0010
0001
0010
0000
0001
1000
0001
0000
0100
0010
,  // measure 14
1000
0001
1000
0001
1000
0001
1000
0001
1000
0001
1000
0001
1000
0001
1000
0001
,  // measure 15
0010
0000
1001
0000
0100
0000
1001
0000
0110
0000
0100
0010
1000
0001
0010
0000
,  // measure 16
1100
0000
0000
0000
0100
0000
0010
0000
0001
0000
0000
0000
2000
0000
3000
2000
,  // measure 17
0000
3000
2000
0000
3000
2000
0000
3000
0020
0000
0030
0020
0000
0030
0020
0000
,  // measure 18
1030
0000
0000
0000
1000
0000
0001
0000
0100
0000
0000
0000
0010
0000
0000
1000
,  // measure 19
0010
0000
0010
1000
0000
1000
0001
0000
0001
0010
0001
0010
0001
0010
0001
0010
,  // measure 20
0100
0000
0000
0000
0010
0000
0001
0000
0200
0000
0000
0000
0320
0000
0030
0020
,  // measure 21
0000
0030
0020
0000
0030
0020
0000
0030
0020
0000
0030
0020
0000
0000
2030
0000
,  // measure 22
3001
0000
0010
0001
0100
0000
0010
0000
,  // measure 23
1000
0000
0100
0000
0001
0000
0100
0000
1000
0000
0010
0100
0001
1000
0100
0000
,  // measure 24
0011
0000
0000
0000
0010
0000
0100
0000
1000
0000
0000
0000
0002
0000
0003
0002
,  // measure 25
0000
0003
0002
0000
0003
0002
0000
0003
0200
0000
0300
0200
0000
0300
0200
0000
,  // measure 26
0301
0000
0000
0000
0001
0000
1000
0000
0010
0000
0000
0000
0100
0000
0000
0001
,  // measure 27
0100
0000
0100
0001
0000
0001
1000
0000
0100
0000
0010
0001
0100
0010
1000
0000
,  // measure 28
0010
0000
0000
0000
0010
0000
0100
0000
0002
0000
0000
0000
0203
0000
0300
0200
,  // measure 29
0000
0300
0200
0000
0300
0200
0000
0300
0200
0000
0300
0200
0000
0000
0302
0000
,  // measure 30
1003
0000
0100
1000
0010
0000
0100
0000
,  // measure 31
0001
0000
0010
0000
1000
0000
0010
0000
0001
0000
0100
0010
1000
0001
0010
0000
,  // measure 32
0100
0000
0011
0001
0100
0000
1010
0010
,  // measure 33
0100
0000
0110
0010
1000
0000
1001
0001
,  // measure 34
0010
0000
0000
0000
0110
0000
0010
0000
0001
0000
0000
0000
0101
0000
0001
0100
,  // measure 35
0000
0100
0010
0100
0000
0010
0100
0001
1000
0001
1000
0001
1000
0001
1000
0001
,  // measure 36
1000
0000
0000
0000
0100
0000
0010
0000
0001
0000
0011
0000
0201
0000
0300
0200
,  // measure 37
0000
0300
0200
0000
0300
0200
0000
0300
0200
0000
0000
0000
0310
0000
0010
0000
,  // measure 38
1000
0000
0001
1000
0100
0110
1100
0000
,  // measure 39
1000
0000
0001
0000
0100
0000
0010
0000
1000
0000
0001
0010
0100
1000
0001
0000
,  // measure 40
0010
0000
1100
1000
0010
0000
0101
0100
,  // measure 41
0010
0000
0110
0100
0001
0000
1001
1000
,  // measure 42
0100
0000
0000
0000
0110
0000
0100
0000
1000
0000
0000
0000
1010
0000
1000
0010
,  // measure 43
0000
0010
0100
0010
0000
0100
0010
1000
0001
1000
0010
1000
0100
1000
0010
1000
,  // measure 44
0001
0000
0000
0000
0010
0000
0100
0000
1000
0000
1100
0000
1020
0000
0030
0020
,  // measure 45
0000
0030
0020
0000
0030
0020
0000
0030
0020
0000
0000
0000
0130
0000
0100
0000
,  // measure 46
0001
0000
1000
0001
0010
0110
0011
0000
,  // measure 47
0001
0000
1000
0000
0010
0000
0100
0000
0001
0000
1000
0100
0010
0001
1000
0000
,  // measure 48
0001
1000
0001
1000
0100
1000
0001
1000
,  // measure 49
0100
1000
0001
1000
0100
1000
0001
1000
,  // measure 50
0010
0100
0001
1000
0001
1000
0010
1000
,  // measure 51
0001
0100
0010
1000
0001
1000
0001
1000
,  // measure 52
0001
1000
0001
1000
0100
1000
0001
1000
,  // measure 53
0100
1000
0001
1000
0100
1000
0001
1000
,  // measure 54
0100
1000
0001
1000
0100
1000
0100
1000
,  // measure 55
0100
0010
0001
1000
0010
0100
0001
1000
,  // measure 56
0200
0000
0000
0000
,  // measure 57
0000
0000
0000
0000
0000
0020
0000
0300
,  // measure 58
0002
0000
0000
0000
,  // measure 59
0000
0000
0000
0000
0030
2000
0003
0000
,  // measure 60
0002
0000
0000
0000
,  // measure 61
0000
0000
0000
3000
0203
0000
0000
0000
,  // measure 62
2000
0000
0000
0000
,  // measure 63
0000
0000
0000
0000
,  // measure 64
3300
0000
0000
0000
;
