#VERSION:0.83;
#TITLE:STARLiGHT;
#SUBTITLE:;
#ARTIST:星龍;
#TITLETRANSLIT:;
#SUBTITLETRANSLIT:;
#ARTISTTRANSLIT:;
#GENRE:;
#ORIGIN:;
#CREDIT:;
#BANNER:STARLiGHT.png;
#BACKGROUND:STARLiGHT-bg.png;
#PREVIEWVID:;
#JACKET:;
#CDIMAGE:;
#DISCIMAGE:;
#LYRICSPATH:;
#CDTITLE:;
#MUSIC:STARLiGHT.mp3;
#OFFSET:-1.906001;
#SAMPLESTART:22.349516;
#SAMPLELENGTH:9.648241;
#SELECTABLE:YES;
#BPMS:0.000=199.000;
#STOPS:196.000=0.905;
#DELAYS:;
#WARPS:;
#TIMESIGNATURES:0.000=4=4;
#TICKCOUNTS:0.000=4;
#COMBOS:0.000=1;
#SPEEDS:0.000=1.000=0.000=0;
#SCROLLS:0.000=1.000;
#FAKES:;
#LABELS:0.000=Song Start;
#BGCHANGES:;
#KEYSOUNDS:;
#ATTACKS:
;

//---------------dance-single - ----------------
#NOTEDATA:;
#CHARTNAME:;
#STEPSTYPE:dance-single;
#DESCRIPTION:;
#CHARTSTYLE:;
#DIFFICULTY:Hard;
#METER:10;
#RADARVALUES:0.624660,0.962994,0.315074,0.153695,0.276651,569.000000,528.000000,41.000000,20.000000,0.000000,0.000000,1.000000,0.000000,0.000000,0.624660,0.962994,0.315074,0.153695,0.276651,569.000000,528.000000,41.000000,20.000000,0.000000,0.000000,1.000000,0.000000,0.000000;
#CREDIT:;
#NOTES:
0000
0000
0000
0000
,
0000
0000
0000
0000
,
0000
0000
0000
0000
,
0000
0000
0000
0000
,
0000
0000
0000
0000
,
1000
0000
1000
0000
1000
0000
1000
0010
,
0000
0010
0000
0010
0000
0010
0100
0000
,
0001
1000
0001
0010
,
0001
1000
0010
0100
,
0001
0000
0001
0000
0001
0000
0001
0010
,
0000
0010
0000
0010
0000
0010
0001
0000
,
1000
1000
1000
1000
,
1000
0000
0000
0000
1000
0000
0000
0000
1000
0000
0001
1000
0001
0000
0000
0000
,
0010
0100
0010
0100
0001
1000
0001
1000
,
0100
0010
0100
0010
0001
1000
0001
1000
,
0001
0100
0001
0100
0001
0100
0001
0100
0010
1000
0010
1000
0010
1000
0010
1000
,
0010
0000
0000
0000
0000
0100
1001
0000
,
1000
0001
0010
0001
0000
0100
0001
1000
,
0100
0001
0100
1000
0010
0010
0100
0100
,
0001
1000
1010
0000
1000
0001
0011
0000
,
0001
1000
0000
1000
0100
0010
0001
0010
0001
0000
1000
0100
1000
0000
0100
0000
,
2001
0000
0000
0000
0000
0000
0010
0000
0000
0010
0000
0000
3010
0000
0000
0000
,
0100
0000
0100
0000
0001
0100
0001
0000
2000
0000
0002
0000
0000
0000
3003
0000
,
1000
0000
0100
0000
0010
0000
0001
0000
0010
0000
0100
0000
1000
0010
0000
0000
,
0100
0000
0002
0000
2000
0003
3000
0000
,
0101
0000
0001
1001
0000
1000
0100
0001
,
0100
0010
0001
0100
,
1010
0000
1000
0100
0000
0010
0001
0000
,
1001
0000
0001
0010
0000
0100
0010
0001
,
1001
0000
0001
0100
0000
0010
1000
0100
,
1000
0001
0010
0001
,
1010
0000
0000
0100
0000
0000
0001
0000
,
0020
0230
2000
3300
,
1000
0000
0001
0000
0100
0001
0010
0000
,
0100
0000
1000
0000
0001
1000
0001
0000
,
1000
0000
0001
0000
0010
0100
1000
0000
,
1020
0000
0000
0130
0000
0000
0000
0000
,
0010
0000
1000
0000
0100
0010
0001
0000
,
0010
0000
0001
0000
1000
0010
1000
0000
,
0010
0000
0100
0000
0001
1000
0100
0000
,
0010
0000
0000
0000
0010
0000
0000
0000
0010
0100
0010
0100
0000
0000
0000
0000
,
0010
0000
0001
0000
0010
0000
0100
1000
,
0000
0001
0000
0100
0000
0010
1000
0000
,
0001
0000
1000
0100
0000
0100
1000
0000
,
1001
0101
0000
0000
,
1001
0001
0100
0010
,
1001
1000
0100
0010
,
1001
0010
1001
0100
,
1001
0110
1001
0110
,
0000
0000
0110
0000
1001
0000
0100
0010
,
1001
0000
0000
0000
1000
0000
0000
0000
0100
0000
0000
1000
0000
0001
0000
0000
,
0100
0000
0001
0000
0010
0000
0000
0000
0100
0000
0000
0001
0000
1000
0000
0000
,
0010
0000
0100
0000
0001
0000
0000
0000
0010
0000
0000
0001
0000
1000
0000
0000
,
0100
0000
0010
0000
0001
0000
0000
0000
0100
0000
0000
0001
0000
1000
0000
0000
,
0100
0000
1000
0000
0010
0000
0000
0000
0100
0000
0000
0001
0000
1000
0000
0000
,
0100
0000
0010
0000
0001
0000
0000
0000
0010
0000
0000
0001
0000
1000
0000
0000
,
0100
0000
1000
0000
0010
0000
0000
0000
0100
0000
0000
0001
0000
1000
0000
0000
,
0100
0010
0011
0000
1010
0000
1000
0001
,
1001
0000
0000
0000
0001
0000
0100
0000
0010
0000
1000
0000
0001
0000
1000
0001
,
0000
1000
0001
0000
1000
0000
0100
0000
1000
0000
0010
0000
0100
0001
0100
0001
,
0100
0001
0100
0000
0010
0000
1000
0000
0000
0000
0100
0000
0010
0000
0010
0000
,
0000
0000
0010
0000
0001
0000
0000
0000
1000
0001
0000
0100
0000
0010
0000
0000
,
1000
0000
0001
1000
0010
1000
0001
0010
,
1000
0010
0001
1000
0100
1000
0001
0100
,
1000
0100
0001
1000
0010
0010
0010
0010
,
0010
0000
0010
0000
0010
0000
0000
0000
0100
0010
0000
1000
0000
0001
0000
0000
,
1000
0001
0100
0010
,
1000
0010
0000
0100
0000
0010
0100
0000
,
0100
0002
2003
3200
,
0310
0002
0000
2000
0000
0000
3003
0000
,
0000
1000
0010
0001
,
0000
0010
0000
0100
0000
0001
0000
1000
,
0100
0000
0010
0000
0001
0200
0000
0020
,
0000
0000
0000
0000
,
0330
0101
0001
0011
,
0010
0110
0100
1100
,
1000
1001
0001
0101
,
0100
0110
0010
1010
,
1000
0001
0001
0001
,
0001
1000
0000
1000
0000
1000
0010
0000
,
0010
0100
0001
0001
,
0000
0010
0000
0010
0000
0100
1000
0100
,
0010
0001
2000
0000
0000
0000
0000
0000
,
0000
0004
0000
0000
,
3003
0000
1000
0000
0000
0010
0000
0000
,
0100
0000
0011
0000
1010
0000
1000
0001
,
1001
0000
0000
0000
0001
0000
0000
0000
0100
0000
0000
0010
0000
1000
0000
0000
,
0100
0000
0010
0000
0001
0000
0000
0000
0100
0000
0000
1000
0000
0001
0000
0000
,
0010
0000
0100
0000
1000
0000
0000
0000
0001
0000
0000
1000
0000
0100
0000
0000
,
1000
0000
0001
0000
0010
0000
0000
0000
0100
0000
0000
0010
0000
0001
0000
0000
,
1000
0000
0010
0000
0100
0000
0000
0000
0001
0000
0000
0010
0000
0100
0000
0000
,
1000
0001
0011
0000
1010
0000
1000
0001
,
1001
0000
0000
0000
0001
0000
0100
0000
0010
0000
1000
0000
0100
0000
0001
0100
,
0000
0100
1000
0000
0010
0000
0100
0000
0001
0000
0010
0001
0010
0001
0010
0001
,
1000
0000
0010
0000
0001
0000
1000
0000
0010
0000
1000
0000
0100
0010
0100
0010
,
0000
0000
0100
0010
0100
0000
0001
0000
1000
0000
0001
0000
0010
0000
0100
0000
,
1000
0000
0001
1000
0010
0100
0001
0010
,
0100
1000
0100
1000
0100
0000
1000
0000
0010
0000
0100
0000
0001
0000
1000
0000
,
0001
0010
0001
0010
0001
0000
1000
0000
0010
0100
0010
0100
0010
0100
0010
0100
,
0010
0100
0010
0100
0020
0000
0000
0000
0000
0000
2030
0000
0000
0000
0002
0000
,
0000
3003
0000
0000
;

//---------------dance-single - ----------------
#NOTEDATA:;
#CHARTNAME:;
#STEPSTYPE:dance-single;
#DESCRIPTION:;
#CHARTSTYLE:;
#DIFFICULTY:Easy;
#METER:6;
#RADARVALUES:0.362281,0.577796,0.238227,0.084532,0.000000,330.000000,299.000000,31.000000,11.000000,0.000000,0.000000,0.000000,0.000000,0.000000,0.362281,0.577796,0.238227,0.084532,0.000000,330.000000,299.000000,31.000000,11.000000,0.000000,0.000000,0.000000,0.000000,0.000000;
#CREDIT:;
#NOTES:
// measure 0
0000
0000
0000
0000
,  // measure 1
0000
0000
0000
0000
,  // measure 2
0000
0000
0000
0000
,  // measure 3
0000
0000
0000
0000
,  // measure 4
0000
0000
0000
0000
,  // measure 5
0000
0000
0000
0000
,  // measure 6
0000
0000
0000
0000
,  // measure 7
0000
0000
0000
0000
,  // measure 8
0000
0000
0000
0000
,  // measure 9
1000
0000
0000
0000
0000
0000
0000
0010
,  // measure 10
0000
0000
0000
0100
,  // measure 11
0001
0000
0000
0000
,  // measure 12
0000
0000
0000
0000
,  // measure 13
1000
0001
0100
0010
,  // measure 14
1000
0001
1000
0000
,  // measure 15
1000
0100
0010
0002
,  // measure 16
2000
0000
0000
0000
0000
0003
3000
0000
,  // measure 17
0001
0100
0010
1000
,  // measure 18
0001
0000
0010
0000
0100
0010
0100
0010
,  // measure 19
0001
1001
1000
1001
,  // measure 20
0020
0000
0000
0000
0030
0100
0001
0100
,  // measure 21
0020
0000
1030
0001
,  // measure 22
1000
0000
0100
0000
0010
0001
1000
0000
,  // measure 23
0101
1010
1100
1001
,  // measure 24
0000
0000
0002
0000
2000
0003
3000
0000
,  // measure 25
0001
0000
0000
1000
0000
0000
0000
0101
,  // measure 26
0000
0000
0000
0000
,  // measure 27
0001
0000
0000
1100
0000
0000
0000
0000
,  // measure 28
1000
0000
0000
0011
0000
0000
0000
0000
,  // measure 29
0010
0000
0000
0100
0000
0000
0000
1100
,  // measure 30
0000
0000
0000
0000
,  // measure 31
1000
0000
0000
0010
0000
0000
0100
0000
,  // measure 32
0002
2003
3020
0000
,  // measure 33
1030
0001
0100
0000
,  // measure 34
0001
0000
1000
0000
0010
1000
0010
0000
,  // measure 35
1000
0001
0100
0000
,  // measure 36
0001
0000
0000
1000
0000
0000
0000
0000
,  // measure 37
0100
0010
0001
0000
,  // measure 38
0010
0000
0100
0000
0010
0001
0010
0000
,  // measure 39
0100
1000
0001
0000
,  // measure 40
1000
0000
1000
0000
0001
1000
0001
0000
,  // measure 41
1000
0000
0000
0010
0000
0000
0100
0001
,  // measure 42
0000
0100
0000
0001
0000
0100
0000
0000
,  // measure 43
0001
0000
0000
0010
0000
0000
0001
0000
,  // measure 44
0000
0000
0000
0000
1000
0001
0000
1000
,  // measure 45
1001
0000
0000
0000
,  // measure 46
1010
0000
0000
0000
,  // measure 47
0101
0000
0011
0000
,  // measure 48
1100
0110
0011
1001
,  // measure 49
0000
0000
1001
0000
0110
0000
0010
0100
,  // measure 50
0010
0100
0001
0010
,  // measure 51
0100
0010
0001
1000
,  // measure 52
0100
1000
0010
0100
,  // measure 53
0001
1000
0100
1000
,  // measure 54
0001
0100
0001
0010
,  // measure 55
0001
1000
0100
1000
,  // measure 56
0010
0100
0001
1000
,  // measure 57
0010
0000
1000
0000
0001
0000
1000
0001
,  // measure 58
1000
0001
1000
0010
,  // measure 59
1000
0001
0100
0001
,  // measure 60
0010
0100
1000
0100
,  // measure 61
0010
0001
1000
0001
,  // measure 62
1001
0001
1000
0010
,  // measure 63
1000
0001
0100
0001
,  // measure 64
0010
0100
1000
1000
,  // measure 65
1000
0100
0010
0001
,  // measure 66
1001
0000
0001
0000
1000
0001
0000
0100
,  // measure 67
0000
0000
0000
0000
,  // measure 68
0000
0010
0100
0001
,  // measure 69
0000
1000
0000
1000
0000
0000
0000
0000
,  // measure 70
0000
0100
1000
0010
,  // measure 71
0000
0100
0000
0001
0000
0100
0000
0001
,  // measure 72
0100
0000
0010
0000
1000
0001
0000
1000
,  // measure 73
0000
0000
0000
0000
,  // measure 74
0000
1001
0000
1001
,  // measure 75
0000
0110
0000
0110
,  // measure 76
0000
1010
0000
1010
,  // measure 77
0000
0101
0000
0101
,  // measure 78
0000
0001
1000
0001
,  // measure 79
1000
0001
0000
1000
0000
0001
1000
0000
,  // measure 80
0001
0010
0100
0010
,  // measure 81
0000
0100
0000
0010
0000
0100
0010
0001
,  // measure 82
0010
0100
2000
0000
0000
0000
0000
0000
,  // measure 83
0000
0000
0000
0000
,  // measure 84
0000
0000
3001
0000
0000
1000
0000
0000
,  // measure 85
0010
0000
0100
0000
0010
0000
0100
0010
,  // measure 86
0100
0001
0100
0010
,  // measure 87
0100
0001
1000
0100
,  // measure 88
1000
0010
0100
0001
,  // measure 89
1000
0100
1000
0010
,  // measure 90
0100
0001
0010
0100
,  // measure 91
1000
0000
0100
0000
0100
0000
0010
0001
,  // measure 92
1000
0100
1000
0100
,  // measure 93
0100
1000
0001
0100
,  // measure 94
0001
1000
0010
1000
,  // measure 95
0001
0010
0100
1000
,  // measure 96
1001
0001
0010
0001
,  // measure 97
0001
0010
0001
0100
,  // measure 98
0100
0000
0010
0000
1000
0001
1000
0001
,  // measure 99
1000
0001
0200
0000
0000
0000
0000
0000
,  // measure 100
0000
0310
0000
0000
;

//---------------dance-single - ----------------
#NOTEDATA:;
#CHARTNAME:;
#STEPSTYPE:dance-single;
#DESCRIPTION:;
#CHARTSTYLE:;
#DIFFICULTY:Medium;
#METER:8;
#RADARVALUES:0.477552,0.616316,0.261281,0.107586,0.007685,435.000000,401.000000,34.000000,14.000000,0.000000,0.000000,0.000000,0.000000,0.000000,0.477552,0.616316,0.261281,0.107586,0.007685,435.000000,401.000000,34.000000,14.000000,0.000000,0.000000,0.000000,0.000000,0.000000;
#CREDIT:;
#NOTES:
0000
0000
0000
0000
,
0000
0000
0000
0000
,
0000
0000
0000
0000
,
0000
0000
0000
0000
,
0000
0000
0000
0000
,
0001
0000
1000
0000
0001
0000
1000
0010
,
0000
0100
0000
0010
0000
0100
0010
0000
,
1000
0010
1000
0010
,
0100
0001
0100
0001
,
0100
0000
0010
0000
1000
0000
0010
0100
,
0000
0001
0000
0010
0000
0100
1000
0000
,
0100
1000
0010
0100
,
0001
0000
0100
0000
0010
0100
1001
0000
,
1000
0010
0100
0001
,
0100
0000
0010
1000
0001
0000
0000
0000
,
1000
0100
1000
0100
0010
0100
0010
0001
,
0010
0000
0000
0000
0000
0100
1001
0000
,
1000
0000
0010
0100
0000
0010
0100
0000
,
0001
0000
0010
0000
0100
1000
0100
1000
,
0100
0110
0010
0011
,
0002
0000
0000
0000
0003
1000
0001
0100
,
0010
0000
0000
0000
0000
0000
0100
0000
0000
0100
0000
0000
0100
0000
0000
0000
,
0001
0000
0100
0000
0010
1000
0001
0000
,
1000
0100
0010
0001
0010
0100
1000
0000
,
0000
0000
0020
0000
0200
0030
0300
0000
,
0001
0000
1000
0010
0000
0100
0001
1000
,
0000
0000
0000
0000
,
0100
0000
1000
0010
0000
0000
0100
0000
,
0001
0000
0010
0100
0000
0000
0010
0000
,
0001
0000
1000
0001
0000
0100
0001
0010
,
0000
0000
0000
0000
,
0100
0000
1000
0010
0000
0100
0001
0000
,
2000
3002
0203
0000
,
0301
0000
0100
0000
0010
1000
0000
0000
,
0100
0000
0010
0000
0001
0100
0001
0000
,
1000
0000
0100
0000
0010
0100
0010
0000
,
0100
0000
0000
1100
0000
0000
0000
0000
,
1000
0000
0010
0000
0100
0001
0100
0000
,
0001
0000
1000
0000
0010
1000
0010
0000
,
1000
0000
0100
0000
0010
0001
0010
0000
,
0100
0000
0100
0000
0100
0100
0100
0000
,
1000
0000
0001
0000
1000
0000
0001
1000
,
0000
0010
0000
1000
0000
0010
1000
0000
,
0001
0100
0010
1000
,
0001
1000
0100
0010
,
1001
0000
0000
0000
,
0110
0000
0000
0000
,
0101
0000
1010
0000
,
1100
1010
0101
1001
,
0000
0000
1001
0000
0110
0000
0100
0001
,
0010
0000
0100
0000
1000
0000
0010
1000
,
0010
0000
0100
0000
0001
0000
0010
0100
,
0010
0000
0100
0000
1000
0000
0001
0100
,
0001
0000
1000
0000
0010
0000
0100
0001
,
0100
0000
0001
0000
1000
0000
0100
0010
,
0100
0000
0010
0000
0001
0000
1000
0010
,
1000
0000
0010
0000
0100
0000
0001
0100
,
0001
0000
1000
0000
0001
0000
1000
0001
,
1000
0000
0001
0000
1000
0000
0010
1000
,
0010
0000
0100
0000
0001
0000
0010
0100
,
0010
0100
1000
0000
0100
0000
1000
1000
,
0100
0000
1000
0000
0010
0000
0100
0001
,
1000
0000
0001
0000
1000
0000
0010
0100
,
0001
1000
0010
0000
0100
0000
0010
0100
,
0001
1000
0010
0100
0001
0100
0001
0100
,
0001
0100
0001
0000
0100
0000
0010
0000
,
1000
0000
0001
0000
1000
0020
0000
2000
,
0000
0000
0000
0000
,
3030
1000
0100
1000
,
0000
0001
0000
1000
0000
0000
0000
0000
,
0000
0010
0100
0001
,
0000
0010
0000
0100
0000
1000
0000
0100
,
0010
0000
0100
0000
1000
0002
0000
0020
,
0000
0000
0000
0000
,
0033
0101
0000
0011
,
0000
1100
0000
1010
,
0000
1001
0000
0011
,
0000
1100
0000
1010
,
1010
1000
1000
1000
,
1000
0100
0000
0100
0000
0100
1000
0000
,
1000
0010
0100
0100
,
0000
0010
0000
0010
0000
0100
0010
1000
,
0001
0010
0200
0000
0000
0000
0000
0000
,
0000
0000
0000
0000
0000
0000
0000
1300
,
0100
0010
0001
0000
0000
1000
0000
0000
,
0010
0000
0110
0000
1001
0000
0100
0010
,
0100
0001
1000
0010
,
0100
0001
0100
0000
0010
0000
0100
0000
,
0010
1000
0001
0010
,
0100
1000
0100
0000
1000
0000
0010
0000
,
0100
0001
0100
0000
0010
0000
1000
0000
,
0001
1000
0010
0000
0100
0000
0010
0100
,
0010
1010
0001
0100
,
0010
0000
1100
0000
0010
0000
0100
0010
,
0001
0011
0100
1100
,
1000
1001
0110
0101
,
1010
0000
0000
0000
0001
0000
1000
0000
0000
0000
0010
0000
1000
0000
0000
0010
,
0000
0100
0001
1000
0000
0001
0100
0010
,
1000
0001
0100
0010
1000
0001
1000
0001
,
1000
0001
0020
0000
0000
0032
0000
2000
,
0000
3003
0000
0000
;

//---------------dance-single - ----------------
#NOTEDATA:;
#CHARTNAME:;
#STEPSTYPE:dance-single;
#DESCRIPTION:;
#CHARTSTYLE:;
#DIFFICULTY:Beginner;
#METER:2;
#RADARVALUES:0.128445,0.308158,0.046108,0.000000,0.000000,117.000000,111.000000,6.000000,0.000000,0.000000,0.000000,0.000000,0.000000,0.000000,0.128445,0.308158,0.046108,0.000000,0.000000,117.000000,111.000000,6.000000,0.000000,0.000000,0.000000,0.000000,0.000000,0.000000;
#CREDIT:;
#NOTES:
0000
0000
0000
0000
,
0000
0000
0000
0000
,
0000
0000
0000
0000
,
0000
0000
0000
0000
,
0000
0000
0000
0000
,
0000
0000
0000
0000
,
0000
0000
0000
0000
,
0000
0000
0000
0000
,
0000
0000
0000
0000
,
1000
0000
0000
0001
,
0000
0000
0000
0100
,
0100
0000
0000
0000
,
0000
0000
0000
0000
,
1001
0000
0000
0000
,
0010
0000
0000
0000
,
0100
0000
0000
0000
,
0010
0000
0000
0000
,
1001
0000
0000
0000
,
1000
0000
0000
0000
,
0010
0000
0000
0000
,
0100
0000
0000
0000
,
0001
0000
0000
0000
,
1000
0000
0000
0000
,
0001
0000
0000
0000
,
0010
0000
0000
0000
,
0001
0000
0001
0000
,
0001
0000
0000
0000
,
1000
0000
0000
0000
,
0010
0000
0000
0000
,
0100
0000
0100
0000
,
0100
0000
0000
0000
,
0010
0000
0000
0000
,
1000
0000
0000
0000
,
0001
0000
0000
0000
,
0010
0000
0000
0000
,
0001
0000
0000
0000
,
1000
0000
0000
0000
,
0001
0000
0000
0000
,
0010
0000
0000
0000
,
0001
0000
0000
0000
,
0100
0000
0100
0000
,
0010
0000
0000
1000
,
0000
0000
0000
0000
,
0001
0000
0000
0000
,
1000
0000
0000
0000
,
0100
0000
0000
0000
,
1000
0000
0000
0000
,
0010
0000
0100
0000
,
0001
0001
1000
1000
,
0000
0010
0010
0000
,
0000
0100
0000
0000
,
0000
0010
0000
0000
,
0000
1000
0000
0000
,
0000
0001
0000
0000
,
0000
1000
0000
0000
,
0000
0100
0000
0000
,
0000
1000
0000
0000
,
0000
0010
0000
0000
,
0000
0100
0000
0000
,
0000
0010
0000
0000
,
0000
1000
0000
0001
,
0000
1000
0000
0000
,
0000
0010
0000
0000
,
0000
1000
0000
0000
,
0000
0001
0000
0001
,
0000
0001
0000
0000
,
0000
0010
0000
0000
,
0000
0100
0000
0000
,
0000
1000
0000
1000
,
0000
1000
0000
0000
,
0000
0001
0000
0000
,
0000
0001
0000
0000
,
0000
0100
0000
0100
,
0000
0000
0000
0000
,
0000
0010
0000
0000
,
0000
1000
0000
0000
,
0000
0001
0000
0000
,
0000
1000
0000
0000
,
0000
0010
0000
0000
,
0000
0100
0000
0000
,
0000
0001
0001
0001
,
0000
1000
0000
0001
,
0001
1000
0000
0000
,
0000
0000
0000
0000
,
0000
0010
0000
0000
,
0000
0100
0000
0000
,
0000
0001
0000
0000
,
0000
1000
0000
0000
,
0000
0001
0000
0000
,
0000
0010
0000
0000
,
0000
0001
0000
0000
,
0000
1000
1000
1000
,
0000
0001
0000
0000
,
0000
0010
0000
0000
,
0000
0001
0000
0000
,
0000
1000
0000
0000
,
0000
1001
0000
0000
,
0000
0110
0000
0000
,
0000
0110
0100
0100
,
0100
0010
0000
0000
,
0000
1001
0000
0000
;
