#TITLE:生命の環を紡いで;
#SUBTITLE:;
#ARTIST:han@*mori;
#TITLETRANSLIT:SEIMEI NO WA WO TSUMUIDE;
#SUBTITLETRANSLIT:;
#ARTISTTRANSLIT:;
#GENRE:;
#CREDIT:DigiMindAxel;
#BANNER:SEIMEI NO WA WO TSUMUIDE.png;
#BACKGROUND:SEIMEI NO WA WO TSUMUIDE-bg.png;
#LYRICSPATH:;
#CDTITLE:;
#MUSIC:SEIMEI NO WA WO TSUMUIDE.mp3;
#OFFSET:-3.983002;
#SAMPLESTART:87.565186;
#SAMPLELENGTH:15.384613;
#SELECTABLE:YES;
#DISPLAYBPM:*;
#BPMS:0.000000=135.000000
,15.000000=124.999992
,16.000000=120.000000
,18.000000=115.000000
,19.000000=105.000000
,20.000000=142.000000
,23.000000=156.000000
,103.000000=172.000000
,135.000000=156.000000
,183.000000=142.000000
,186.000000=125.999992
,210.000000=234.000000
,312.000000=243.000015
,330.000000=251.999985
,342.000000=258.000000
,358.500000=86.000000
;
#STOPS:
;
#BGCHANGES:;
#KEYSOUNDS:;
#ATTACKS:;

//---------------dance-single - ----------------
#NOTES:
     dance-single:
     :
     Hard:
     13:
     0.899364,1.322279,0.278375,0.142756,0.877951,882.000000,843.000000,39.000000,20.000000,0.000000,0.000000,0.899364,1.322279,0.278375,0.142756,0.877951,882.000000,843.000000,39.000000,20.000000,0.000000,0.000000:
0000
0000
0000
0000
,
0000
0000
0000
0000
,
0000
0000
0000
0000
,
1001
0000
0001
0100
0010
1000
1001
0000
1000
0010
0100
0010
,
1001
0000
0001
0010
0100
1000
0001
0100
1000
0100
1000
0010
,
0200
0000
0000
0000
0000
0000
0301
0010
,
0010
0000
0000
0001
0000
0000
1000
0000
0000
1000
0000
0000
0010
1000
0010
0100
0000
0000
0010
0000
0000
1000
0001
1000
,
0100
0000
0010
0000
0001
0000
0100
0000
0010
0000
1000
0000
0002
0000
0000
1003
,
0001
1000
0010
0100
0001
0010
0100
0010
0001
1000
0001
0100
1000
0000
0100
0000
,
0001
0000
0000
1000
0000
0000
0100
0000
0000
1000
0000
0000
0010
0100
0010
1000
0000
0000
1000
0000
0000
0001
0100
0001
,
0010
0010
0001
0010
0001
1000
0010
0100
,
0010
1000
0010
1000
0100
1000
0001
0010
0001
1000
0010
0000
0100
0001
0010
0100
,
0010
0001
0011
0000
1100
0000
1000
0010
0100
0010
1000
0100
0010
0100
1000
0000
,
0001
1000
0100
1000
0010
1000
1100
0000
1001
0000
1000
0100
0001
0100
1000
0010
,
0100
0001
0010
0000
0000
0000
0010
0001
0010
1000
0010
0100
1000
0010
0100
0001
,
0010
0000
0000
0001
0000
0000
0100
0000
0000
0000
0000
0000
0101
0000
0000
0000
0000
0000
0100
0000
0000
0000
0000
0000
0010
0000
0000
0000
0000
0000
0100
0000
0000
0010
0000
0000
1000
0000
0000
0100
0000
0000
0010
0000
0001
0000
0010
0000
,
0100
0000
0000
1000
0000
0000
0001
0100
0001
0010
0000
0000
0001
0000
0000
1000
0000
0000
0001
0000
0000
0010
0000
0000
,
0001
0000
2000
0000
0000
3010
1000
0100
1000
0001
0010
0001
0100
0010
1000
0100
,
0010
0000
0000
0100
0000
0000
1000
0000
0000
0000
0000
0000
0010
0000
0000
0000
0000
0000
0100
0000
0000
0000
0000
0000
0001
0000
0000
0000
0000
0000
0010
0000
0000
0000
0000
0000
0100
0000
0000
0000
0000
0000
0010
0000
0001
0000
1000
0000
,
0010
0000
0000
0100
0000
0000
0010
1000
0001
0100
0000
0000
0001
0000
0000
1000
0000
0000
0100
0000
0000
1000
0000
0000
,
0001
0000
2000
0000
0001
0000
3001
0010
0001
1000
0100
0010
0100
1000
0010
0100
,
0001
0000
1000
0001
0100
0001
0010
0100
1100
0000
0011
0000
0010
0001
1000
0100
,
1000
0001
1000
0010
0001
0000
0001
0010
0100
0001
0010
0100
0110
0000
0101
0000
,
0001
0100
0010
1000
0100
0001
0100
0010
0001
0000
0000
0000
1000
0001
0100
0001
,
0010
0100
0010
0001
0100
0010
1000
0100
0010
0100
1000
0001
1000
0010
1000
0001
,
0010
0100
0010
0001
0000
0000
0000
0000
0000
0000
0000
0000
1000
0100
1000
0100
,
0010
0001
0010
0000
0000
0010
0001
1000
0001
1000
0100
1000
0100
0010
0100
1000
,
0001
1000
0001
0000
0000
0000
1000
0010
1000
0100
1000
0100
0020
0000
0031
0200
,
0000
0301
2000
0000
3200
0000
0310
0002
0000
1003
0002
0000
1003
0100
0010
0000
,
2001
0000
3001
0000
1000
0100
0001
0100
0010
0001
1000
0000
0001
0100
0010
0100
,
0001
1000
0002
0000
0000
0000
1003
0000
0000
0100
0000
0000
0010
0100
1000
0010
,
0100
0000
0000
0001
0000
0000
0020
0000
0000
0000
0000
0000
0000
0000
0000
0000
0000
0000
0130
0000
0000
0010
0000
0000
0001
0000
0000
1000
0000
0000
0010
0000
0000
1000
0000
0000
0100
0000
0000
0000
0000
0000
0000
0000
0010
0000
0000
0000
,
0000
0001
0000
1100
0000
1000
0000
0010
0000
0101
0000
0002
,
0000
0000
0023
0000
0000
0000
0230
0000
0000
0000
2300
0000
0000
0000
3020
0000
0000
0000
0130
0000
0000
0001
0000
0000
,
0010
0000
0000
0001
0000
0000
1000
0000
0000
0100
0000
0000
0010
0100
0010
0100
0000
0000
0010
0000
0000
0001
1000
0001
,
1000
0100
1000
0010
0100
0001
0010
0001
,
1000
0100
1000
0001
0000
0000
1001
0001
,
0010
0000
0001
0000
1000
0000
0100
0000
0010
0001
0100
0010
1000
0001
0010
0001
,
1000
0010
1000
0100
0010
0000
0100
0000
1000
0000
0010
0000
0100
0000
0001
0000
,
0010
0100
0010
0001
1000
0010
1000
0010
0100
0001
0010
0100
1000
0000
0001
0100
,
0010
0100
0001
0000
0010
0100
1000
0000
0100
0010
0001
0100
0010
1000
0001
0010
,
0001
0010
0100
1000
0001
0000
1000
0001
0100
0000
0010
0000
0100
0001
0010
0000
,
0100
0000
0010
0000
0001
0000
1000
0000
0010
0000
0100
0000
0001
0000
0000
0000
0010
0000
0000
0000
0100
0000
0000
0000
1000
0001
1000
0000
0001
1000
0001
0000
,
1000
0001
1000
0000
0001
1000
0001
0000
0100
0000
0010
0000
1000
0000
0001
0000
0010
0000
0100
0000
0010
0000
0001
0000
1000
0000
0010
0000
0100
0000
0001
0000
,
0010
0000
0001
0000
1000
0000
0100
0000
0010
0100
0010
0000
0100
0010
0100
0000
0010
0100
0010
0000
0001
0000
1000
0000
0010
0000
1000
0000
0001
0000
0010
0000
,
0100
0000
0100
0000
0100
0000
0100
0000
0100
0000
0100
0000
1001
1000
0010
1000
,
0001
1000
0100
0000
0000
0000
0000
0000
1001
0000
0001
0000
0010
0000
0001
0000
,
1000
0100
1000
0000
0000
0100
0010
0001
,
0010
0100
1000
0001
0000
0000
0001
1000
,
0001
0010
0100
0010
0011
0001
0100
0101
,
0100
0010
1010
0000
0000
1100
0100
0010
,
0011
0010
0100
0110
0000
0000
0110
0010
,
0000
0001
0100
0000
0100
0010
1000
0001
0010
0000
0100
0000
0010
0000
0001
0000
,
1000
0010
0100
0001
0010
0001
1000
0100
,
1000
0100
0001
0100
1000
0100
0001
0100
,
1000
0010
0100
0001
0010
0100
0010
0001
,
1000
0000
0001
0100
0010
1000
0001
0010
,
0100
0000
0010
0001
1000
0000
0010
0000
,
0100
0000
0010
0000
1000
0000
0001
0000
0100
0001
0100
0001
0100
0001
0100
0001
,
0100
0001
0100
0001
0100
0001
0100
0001
0100
0001
1000
0000
0100
0000
0010
0000
,
0001
1000
0001
1000
0001
1000
0001
1000
0001
1000
0001
1000
0001
0000
0010
0000
,
0100
0000
0010
0000
0001
0000
1000
0000
0010
0000
1000
0000
0100
0000
0010
0001
,
0010
0001
0010
0001
0010
0000
0100
0000
1000
0000
0001
0100
0001
0100
0001
0100
,
0001
0100
0010
1000
0100
0000
0100
0010
,
0001
1000
0001
0100
0010
0000
1000
0000
,
0010
0100
0001
0010
,
0100
0000
0010
0000
0001
0000
1000
0001
,
0100
0001
1000
0000
1000
0100
1000
0000
,
1000
0001
0100
0000
0010
1000
0100
0010
,
0001
0100
0010
1000
0001
0010
0001
0100
0010
1000
0100
1000
0001
0100
0010
1000
,
0001
0010
0100
0010
0001
1000
0001
0100
0010
0000
0000
0000
1000
0000
0010
0000
,
0100
0001
0010
0100
0010
0001
1000
0001
,
1000
0010
1000
0010
1000
0010
0100
0010
0100
0001
0100
0001
0100
0010
1000
0001
,
0010
0100
1000
0010
0100
0010
0100
0001
1000
0000
0000
0000
0001
0000
0000
0000
,
0100
0110
0101
1001
,
0101
0001
1000
1010
,
0101
0011
1100
0100
,
0010
0001
1000
0010
,
0100
0001
0010
0110
,
1100
0000
1001
0000
0101
0000
0001
0100
,
0010
1000
0100
0000
0010
0001
0100
0010
,
1000
0000
0010
0100
0001
0010
0100
0000
,
0010
0001
1000
0010
0100
0000
0010
1000
,
0100
0010
0001
0000
0010
0001
0100
0010
,
1000
0000
0100
1000
0010
0100
0001
0000
,
0100
0010
1000
0001
1000
0010
0010
0100
,
0001
0001
0010
0100
0100
0010
0001
0001
,
1000
0010
0010
1000
0100
0100
0010
0001
,
0001
0100
1001
1001
0000
0000
0000
0000
,
0000
0000
0000
0000
0000
0001
0100
1000
,
0010
0001
1000
0010
1000
0001
0100
0000
,
0000
0001
0100
1000
0010
0001
2000
0002
,
0000
0000
3000
0000
0000
0003
0000
0000
;

//---------------dance-single - ----------------
#NOTES:
     dance-single:
     :
     Medium:
     9:
     0.560828,0.727254,0.256961,0.214134,0.203428,550.000000,514.000000,36.000000,30.000000,0.000000,0.000000,0.560828,0.727254,0.256961,0.214134,0.203428,550.000000,514.000000,36.000000,30.000000,0.000000,0.000000:
0000
0000
0000
0000
,
0000
0000
0000
0000
,
0000
0000
0000
0000
,
1001
0000
1000
0000
0100
0000
1001
0000
0001
0000
0010
0000
,
1100
0000
1000
0000
0100
0000
0011
0001
0100
0010
1000
0001
,
0010
0000
0000
0000
0000
0000
1000
0010
,
0010
0000
1000
0000
0001
0000
0001
0000
0010
0100
0010
0000
0100
0000
1000
0001
,
1000
0100
0010
0001
0001
1000
0020
0000
,
0130
0000
0000
0100
0000
0000
0010
0000
0000
0010
1000
0000
0100
0000
0010
0000
,
0010
0000
0100
0000
1000
0000
1000
0000
0100
0010
0100
0000
0010
0000
0001
0100
,
0001
1000
0001
0010
0010
0001
0200
0000
,
0310
0000
0000
1000
0000
0000
0100
0000
0000
1000
0000
0000
0001
0000
1000
0000
,
0001
1001
1001
0001
1000
0001
1001
0000
,
0010
0000
0100
0000
0010
0000
0110
0000
0110
0000
0100
0000
0000
0001
0000
0000
,
0010
0000
0100
0000
0000
0000
0010
0000
0000
0001
0000
0000
1000
0000
0100
0000
,
0010
0000
0001
0000
0100
0000
0100
0000
0010
0000
1000
0000
1000
0000
0001
0010
,
0100
0000
0010
0000
0001
0100
0010
0000
1000
0000
0001
0000
0010
0000
0001
0000
,
1000
0000
0020
0000
0000
0000
0130
0000
0000
0001
0000
0000
0010
0000
0000
0000
,
0100
0000
1000
0000
1000
0000
0001
0000
0010
0000
0010
0000
0001
0000
1000
0010
,
0100
0000
0010
0000
0100
0010
1000
0000
0100
0000
0010
0000
0001
0000
0010
0000
,
0100
0000
0010
0000
0001
0000
1000
0000
0000
0001
0000
0000
0100
0000
0000
0010
,
0000
1000
0010
0100
0101
0101
0001
0100
,
0010
1001
0000
1000
0100
0010
0011
1100
,
1000
0000
0000
0011
0000
0000
0001
0000
1001
0000
0000
0000
1000
0000
0000
0110
,
0000
0000
0100
0000
0000
0101
0000
0000
0001
0000
0000
0011
0000
0000
0010
0000
,
0000
0100
1000
0001
0000
0000
0000
0000
0000
0000
0000
0000
1000
0000
0010
0000
,
1000
0200
0000
0310
0100
1000
0001
0010
,
0001
0000
0200
0000
0000
0000
0310
0000
1000
0000
0001
0000
0010
0000
0000
0010
,
0000
0000
0010
0000
0100
0000
0000
0100
0000
0000
0100
0000
1000
0000
0100
0000
,
0002
0203
0310
0001
1000
0100
1000
0001
,
0100
0000
0002
0000
0000
0000
1003
0000
0000
0001
0000
0000
0010
0000
0001
0000
,
1000
0000
0000
0200
0000
0000
0000
0000
0000
1300
0000
0000
0100
0000
0000
0010
0000
0000
0001
0000
0000
0000
0100
0000
,
0000
0100
0000
0010
0000
1000
0000
1000
0000
0001
0000
1000
,
0000
0000
0100
0000
0000
0000
0010
0000
0000
0000
0001
0000
0000
0000
1000
0000
0000
0000
0001
0000
0000
1000
0000
0000
,
0010
1000
0001
0010
0001
1000
0001
0010
,
0001
0010
0001
1000
0100
1000
0001
0100
,
0001
1000
0100
0010
0000
0000
0100
0010
,
0001
0000
1000
0000
0010
0000
0100
0000
0001
0000
0000
1010
0000
0000
1000
0000
,
0000
1100
0000
0000
0100
0000
0010
0000
0100
0000
1000
0000
0010
0000
0100
0000
,
0001
0000
1000
0000
0001
0000
2002
0000
0000
0000
3003
0000
0001
0000
0000
0100
,
0010
1000
0200
1300
0010
0100
0001
0010
,
0100
0000
0010
0000
0001
0000
0000
1000
0010
0000
0100
0000
0001
0000
1000
0000
,
0100
0010
0001
1000
0000
0000
0002
0203
,
0320
0000
2030
0000
3200
0000
0320
0000
0130
0000
0000
0010
0000
0000
0001
0000
,
0000
1000
0000
0000
0001
0000
0001
0000
0001
0000
1000
0000
0010
0000
1000
0000
,
0100
0000
0100
0000
0100
0000
0100
0000
0100
0000
0100
0000
0010
0001
0100
0010
,
1000
0001
1000
0000
0000
0000
0000
0000
1001
0000
0000
0000
0000
0000
0001
0000
,
0000
0000
0010
0000
0000
0001
0010
0100
,
1000
0100
0010
0100
0000
0000
1000
0100
,
0010
0001
0010
0100
0110
0000
0000
1001
,
0000
0000
1010
0000
0000
0101
0000
0000
,
0011
0001
0010
0100
0000
0000
0100
0010
,
0000
0001
1000
0000
0000
0000
0000
0000
0001
0000
0000
0000
0100
0000
0000
0000
,
0100
0010
1000
1000
,
0001
0100
0010
1000
0001
0010
0100
0010
,
0001
1000
0100
1000
0001
0000
0100
0000
,
0010
0000
1000
0010
0100
0001
0010
0000
,
0100
0000
0010
0100
0010
0001
1000
0100
,
0010
0000
0100
0000
1000
0000
0001
0000
0400
0040
0000
0000
0000
0000
0000
0000
,
0000
0000
0330
0100
,
4004
0000
3003
1001
,
1000
0000
0100
0000
1000
0010
0100
0000
,
1001
0000
0001
0010
0100
0000
1001
0000
,
1000
0001
0010
0001
1000
0000
0001
0010
,
0001
0100
0010
1000
0200
0000
0000
0000
,
0000
0320
0000
0000
,
0032
0000
0000
2000
,
0000
0000
3003
0000
0001
0000
0001
0100
,
0010
0000
0100
0010
1000
0000
0100
1000
,
0004
0400
0000
0000
0000
0000
0000
0000
0000
0000
0000
0000
0000
0000
0000
0000
,
0000
0000
0000
0303
0101
0000
0001
1000
,
0010
0000
1000
0100
0010
0000
0100
0010
,
0004
4000
0000
0000
0000
0000
0000
0000
0000
0000
0000
0000
0000
0000
0000
0000
,
0000
0000
0000
3003
2001
0000
3010
0000
,
0100
0101
0001
1000
,
0200
1000
1300
1100
,
0100
0010
0002
1000
,
1003
0001
0001
1000
,
0001
1000
0010
2000
,
3020
0000
0230
0000
0301
0000
1000
0010
,
1000
0000
0100
0000
0010
0001
0010
0000
,
0001
0000
1000
0010
1000
0000
0100
0000
,
0010
0001
0010
0000
0100
0000
1000
0001
,
1000
0000
0010
0000
0100
0001
0100
0000
,
0001
0000
0010
0100
0010
0000
0100
0000
,
1000
0100
1000
0000
0001
0100
0001
0000
,
0001
0010
0000
0010
0100
0000
0100
1000
,
0000
1000
0001
0000
0001
0100
0000
0010
,
1000
0000
0001
0100
0000
0000
0000
0000
,
0000
0000
0000
0000
0000
0001
0010
0001
,
1000
0100
1000
0001
0010
0100
0010
0000
,
0000
0100
0010
0001
1000
0100
0002
0200
,
0000
0000
0003
0000
0000
0300
0000
0000
;

//---------------dance-single - ----------------
#NOTES:
     dance-single:
     :
     Easy:
     7:
     0.369127,0.528912,0.249823,0.278375,0.053534,362.000000,327.000000,35.000000,39.000000,0.000000,0.000000,0.369127,0.528912,0.249823,0.278375,0.053534,362.000000,327.000000,35.000000,39.000000,0.000000,0.000000:
0000
0000
0000
0000
,
0000
0000
0000
0000
,
0000
0000
0000
0000
,
1001
0000
0101
0000
,
1010
0000
1200
0000
,
0300
0000
0000
1000
,
0000
0010
0000
0000
0100
0000
0000
0001
,
0000
0000
0010
0000
0000
0001
0000
0000
,
2000
0000
3000
0001
,
0000
0100
0000
0000
0010
0000
0000
1000
,
0000
0000
0010
0000
0000
1000
0000
0000
,
0200
0000
0000
0300
,
0000
1000
0001
0000
0000
0000
1001
0000
,
0000
0000
0000
0000
0000
0000
1000
0000
0001
0000
0100
0000
0000
0100
0000
0000
,
0100
0000
0100
0000
0000
0000
0010
0000
0000
0010
0000
0000
0010
0000
0010
0000
,
0000
0100
0000
0000
0001
0000
0000
0010
,
0000
0000
0001
0000
0000
1000
0000
0000
,
0100
0000
0000
2002
0000
0000
0000
3003
,
0000
0001
0000
0000
0010
0000
0000
0001
,
0000
0000
1000
0000
0000
0010
0000
0000
,
1000
0000
0000
0000
0000
0000
0100
0000
0000
1000
0000
0000
1000
0000
0000
0010
,
0000
0100
0000
0000
0110
0110
0000
0000
,
0000
1001
0000
0000
0000
0000
0110
0110
,
0001
0000
0000
1000
0000
0000
0010
0000
0100
0000
0000
0000
0100
0000
0000
0010
,
0000
0000
1000
0000
0000
0001
0000
0000
0010
0000
0000
0001
0000
0000
1000
0000
,
0000
0001
0000
0000
0000
0000
0000
0000
0000
0000
0000
0000
1000
0000
0000
0000
,
0010
0000
0100
0010
,
1000
0000
0001
0010
,
0100
0000
0010
0000
0001
0000
1000
0001
,
0200
0302
1003
0010
,
1000
0200
1300
0010
,
0100
0002
0103
1001
,
0000
0000
0000
0010
0000
0000
0000
0000
0000
0000
0000
0100
,
0000
0010
0000
1000
0000
0010
0000
0100
0000
0001
0000
0000
,
0000
1000
0000
0000
0100
0000
0000
1000
,
0000
0000
0010
0000
0000
0100
0000
0000
,
0001
0100
0010
1000
0000
0000
1001
0000
,
0000
0001
0000
0000
1000
0010
0100
0001
,
0100
0010
1000
0000
0000
1001
0000
0000
,
0001
0010
0100
0010
0001
1000
0010
0000
,
0100
0001
0010
0100
1000
0000
0000
0001
,
0000
0000
0100
0000
0001
0100
0010
1000
,
0100
0000
0000
1000
0000
0000
0002
0203
,
0320
0000
2030
0000
3002
0000
0203
0000
0310
0000
0000
1000
0000
0000
0100
0000
,
0000
1000
0000
0000
0002
0000
0023
0000
0230
0000
0320
0000
0032
0000
2003
0000
,
3010
0100
0010
0100
0010
0100
2002
0000
,
0000
3003
1000
0000
,
0000
0000
0001
0000
0000
0010
0000
0000
,
0100
0000
0000
0010
,
0000
0001
0000
0000
1001
0000
0000
1010
,
0000
0000
0101
0000
0000
0011
0000
0000
,
1100
0000
0000
1001
0000
0000
0001
0000
,
0000
1000
0000
0000
0001
0000
0100
0000
,
0100
0010
1000
1000
,
0001
0010
0100
0010
,
0001
1000
0001
0100
,
1010
1000
1000
0001
,
0010
0100
1100
0100
,
0100
0000
0010
0000
0001
1000
0001
1000
,
0001
1000
0001
1000
0001
0000
1000
0000
,
0010
0100
0010
0100
0010
0100
0010
0000
,
1000
0000
0100
0000
0010
0001
0010
0000
,
0000
0000
0001
1000
0010
0000
0000
0000
,
0100
0000
0010
1000
0100
0000
0010
0000
,
0001
0010
0001
1000
0200
0000
0000
0000
,
0000
1000
0000
0000
,
2300
0000
0000
0001
,
0000
0000
3001
0100
,
0010
1000
0010
0100
,
0001
1000
0010
0100
0001
1000
0010
0100
,
0001
1000
0010
0100
0001
0000
0010
0000
,
0001
1000
0100
1000
,
0001
0010
0100
1000
0001
0010
0100
1000
,
0001
0010
0100
1000
0002
0000
0100
0000
,
0103
0002
2003
3200
,
0320
0100
0130
0020
,
0032
2003
3200
1000
,
1300
1000
0010
0010
,
0100
0001
0001
2000
,
3002
0203
0310
1000
,
1100
0000
0001
1001
,
0000
0001
0011
0000
,
1000
1100
0000
1000
,
1001
0000
0100
0101
,
0000
0010
1010
0000
,
1000
0000
1100
0000
0000
0001
0000
0000
,
0100
0000
0000
0010
0000
0000
1000
0000
,
0000
1010
0000
0000
0101
0000
0000
0011
,
0000
0110
0000
0000
,
0000
0000
0000
0000
0000
1000
0000
0000
,
0100
0000
0000
0010
0000
0000
0001
0000
,
0000
1000
0000
0000
0020
0000
0000
0200
,
0000
0000
0030
0000
0000
0300
0000
0000
;

//---------------dance-single - ----------------
#NOTES:
     dance-single:
     :
     Beginner:
     4:
     0.151933,0.262314,0.014276,0.000000,0.000000,149.000000,147.000000,2.000000,0.000000,0.000000,0.000000,0.151933,0.262314,0.014276,0.000000,0.000000,149.000000,147.000000,2.000000,0.000000,0.000000,0.000000:
// measure 0
0000
0000
0000
0000
,  // measure 1
0000
0000
0000
0000
,  // measure 2
0000
0000
0000
0000
,  // measure 3
1000
0000
1000
0000
,  // measure 4
0001
0000
0001
0000
,  // measure 5
0000
0000
0000
0010
,  // measure 6
0000
0000
0000
0000
1000
0000
0000
1000
,  // measure 7
0000
1000
0000
0000
,  // measure 8
0001
0000
0000
0100
,  // measure 9
0000
0000
0000
0000
0010
0000
0000
0010
,  // measure 10
0000
0010
0000
0000
,  // measure 11
1000
0000
0000
0001
,  // measure 12
0000
1000
0000
0001
0000
0000
1000
0000
,  // measure 13
0001
0000
0000
1000
0000
0001
0000
0000
,  // measure 14
0000
0000
0000
0100
0000
0000
0000
0000
,  // measure 15
0000
0010
0000
0000
0000
0000
0000
0100
,  // measure 16
0000
0000
0000
0000
0000
0010
0000
0000
,  // measure 17
0000
0000
0000
1000
0000
0000
0000
0000
,  // measure 18
0000
0001
0000
0000
0000
0000
0000
1000
,  // measure 19
0000
0000
0000
0000
0000
0100
0000
0000
,  // measure 20
0000
0000
0000
1000
0000
0000
0000
0000
,  // measure 21
0000
0001
0000
0000
1000
0000
0001
0000
,  // measure 22
0000
0100
0000
0010
0000
0000
1000
0000
,  // measure 23
0010
0000
0000
0100
,  // measure 24
0000
0000
0010
0000
,  // measure 25
0000
0000
0000
1000
,  // measure 26
0000
0000
0000
0001
,  // measure 27
0000
0000
0000
0100
,  // measure 28
0000
0010
0000
1000
,  // measure 29
0000
0000
0000
0001
,  // measure 30
0000
0000
0000
1000
,  // measure 31
0000
0000
0000
0010
,  // measure 32
0000
0010
0000
0000
,  // measure 33
0000
0000
0000
0100
,  // measure 34
0000
0000
0000
0000
,  // measure 35
0000
0000
0000
0000
,  // measure 36
0000
0000
0000
0010
,  // measure 37
0000
0000
1000
0000
,  // measure 38
0000
0001
0000
0000
,  // measure 39
0100
0000
0000
0010
,  // measure 40
0000
0000
1000
0000
,  // measure 41
0000
0001
0000
0000
,  // measure 42
0100
0000
0000
0010
,  // measure 43
0000
0000
1000
0000
,  // measure 44
0000
0100
0000
0000
,  // measure 45
1000
0000
0000
1000
0000
0000
1000
0000
,  // measure 46
0000
0000
1001
0000
,  // measure 47
0000
0000
0000
0000
,  // measure 48
0000
0000
0000
0000
,  // measure 49
0000
0000
0000
0000
0010
0000
0000
0010
,  // measure 50
0000
0000
0010
0000
0000
0100
0000
0000
,  // measure 51
0100
0000
0000
0100
0000
0000
0001
0000
,  // measure 52
0000
1000
0000
0000
0001
0000
0000
0000
,  // measure 53
0000
1000
0000
0000
,  // measure 54
0010
0000
0000
1000
,  // measure 55
0000
0000
0001
0000
,  // measure 56
0000
1000
0000
0000
,  // measure 57
0010
0000
0000
1000
,  // measure 58
0000
0000
0100
0100
,  // measure 59
0100
0100
0000
0000
,  // measure 60
0010
0010
0010
0010
,  // measure 61
0000
0000
0001
0001
,  // measure 62
0000
1000
1000
0000
,  // measure 63
0001
0001
0001
1000
,  // measure 64
1000
1000
0010
0000
,  // measure 65
0000
0100
0000
0000
,  // measure 66
0010
0000
0000
1000
,  // measure 67
0000
0000
1001
0000
,  // measure 68
0000
0000
0000
0000
,  // measure 69
0010
0000
0000
1000
0000
0000
0010
0000
,  // measure 70
0000
0100
0000
0000
0001
0000
0000
0000
,  // measure 71
0000
0000
0000
0000
,  // measure 72
0001
0000
0000
0100
0000
0000
0010
0000
,  // measure 73
0000
1000
0000
0000
0010
0000
0000
0000
,  // measure 74
0000
1000
1000
1000
,  // measure 75
1000
0000
0000
0001
,  // measure 76
0001
0001
0001
0000
,  // measure 77
0000
0000
0000
0000
,  // measure 78
0000
0000
0000
0100
,  // measure 79
0100
0100
0010
0000
,  // measure 80
0000
1000
0000
0000
,  // measure 81
0001
0000
0000
0010
,  // measure 82
0000
0000
0001
0000
,  // measure 83
0000
1000
0000
0000
,  // measure 84
0010
0000
0000
1000
,  // measure 85
0000
0000
0000
0000
0000
0001
0000
0000
,  // measure 86
1000
0000
0000
0010
0000
0000
1000
0000
,  // measure 87
0000
0010
0000
0000
0100
0000
0000
0001
,  // measure 88
0000
1000
0000
0000
,  // measure 89
0000
0000
0000
0000
0000
0010
0000
0000
,  // measure 90
0100
0000
0000
0001
0000
0000
1000
0000
,  // measure 91
0000
0001
0000
0000
1000
0000
0000
0010
;
