#TITLE:SCHWARZSCHILD FIELD;
#SUBTITLE:;
#ARTIST:L.E.D.;
#TITLETRANSLIT:;
#SUBTITLETRANSLIT:;
#ARTISTTRANSLIT:;
#GENRE:;
#CREDIT:;
#BANNER:SCHWARZSCHILD FIELD.png;
#BACKGROUND:SCHWARZSCHILD FIELD-bg.png;
#LYRICSPATH:;
#CDTITLE:SCHWARZSCHILD FIELD-jacket.png;
#MUSIC:SCHWARZSCHILD FIELD.mp3;
#OFFSET:-0.300999;
#SAMPLESTART:22.660028;
#SAMPLELENGTH:12.000000;
#SELECTABLE:YES;
#BPMS:0.000000=150.000000
;
#STOPS:16.500000=0.800000,
17.000000=0.200000,
18.000000=0.200000,
18.500000=0.200000,
21.000000=0.800000,
26.500000=1.400000
;
#BGCHANGES:;
#KEYSOUNDS:;
#ATTACKS:;

//---------------dance-single - ----------------
#NOTES:
     dance-single:
     :
     Hard:
     9:
     0.579884,0.675932,0.163135,0.355059,0.407838,369.000000,17.000000,37.000000,0.000000,0.000000,0.000000,0.579884,0.675932,0.163135,0.355059,0.407838,369.000000,17.000000,37.000000,0.000000,0.000000,0.000000:
0000
0000
0000
0000
,
0000
0000
0000
0000
,
0000
0000
0000
0000
,
0000
0000
0000
0000
0000
0000
0000
0000
0000
0000
0000
0000
0001
1000
0001
1000
,
0001
0010
0110
1100
0100
1001
0001
0100
,
0001
0000
0011
0000
0010
0000
0200
0000
0300
0000
0010
0001
0100
0001
1000
0001
,
0000
1000
0000
1000
0000
0001
0000
0100
0001
0000
0000
0000
1000
0000
0000
0000
,
0011
0000
0001
0100
0010
0000
0100
0000
,
1010
0000
0000
0000
1000
0001
0000
1000
0002
0000
0023
0000
0130
0000
0000
0100
,
0000
0000
0100
0000
0000
0100
0000
0000
0100
0000
1000
0000
0010
0000
0100
0000
,
0010
0100
0000
0001
0000
1000
0000
0100
0000
1000
0100
0010
0002
0000
2003
0000
,
3002
0000
0003
1000
0020
0000
0000
0000
0100
0000
0000
0000
1030
0000
0000
0100
,
0000
0000
1000
0000
0000
0001
0000
0000
0100
0000
0001
0000
0010
0000
0000
0100
,
0000
0000
0010
0000
0000
0001
0000
0000
1000
0000
0001
0000
0010
0000
0000
0100
,
0000
0000
1000
0000
0000
0010
0000
0000
0100
0000
0001
0000
0010
0000
0000
1000
,
0000
0000
0010
0000
0000
0100
0000
0000
1000
0000
0100
0000
0010
0000
0000
0100
,
0000
0000
1000
0000
0000
0010
0000
0000
0100
0000
0001
0000
0010
0000
0000
0100
,
0000
0000
0010
0000
0000
0001
0000
0000
1000
0000
0001
0000
0010
0000
0000
0001
,
0000
0000
0100
0000
0010
0000
1000
0000
0010
1000
0010
1000
0010
0000
0000
1000
,
0000
0000
0001
0000
0000
0010
0000
0100
0020
0000
0031
0000
1000
0000
0000
0010
,
0000
0000
0100
0000
0000
0010
0000
0000
0100
0000
0001
0000
0010
0000
0000
0100
,
0000
0000
0010
0000
0001
0000
0001
0000
0010
0000
0100
0000
1001
0000
0000
1000
,
0000
0000
0001
0000
0000
1000
0000
0000
0001
1000
0001
1000
0001
0100
0000
0010
,
1000
0000
0001
0100
0000
0010
1000
0000
0001
0000
1000
0000
1200
0000
0000
0000
,
0000
0000
0300
0200
0310
0001
1200
0000
,
1000
0010
0301
0021
,
0100
1000
0001
0130
,
0010
0000
0000
0000
0100
0000
0010
0000
0100
0000
0010
0000
0100
1000
0000
1000
,
0001
0000
0001
0100
0000
0100
0010
0000
0100
0010
1000
0001
0100
0000
1000
0000
,
0100
0010
2000
0000
0000
3010
0000
0100
,
0001
1000
0002
0000
0000
0000
0013
0100
,
0010
0001
1000
0001
0100
0002
0000
1003
,
1000
0100
0010
0100
1000
0001
0100
0001
,
1000
0100
0020
0000
0000
0230
0000
1300
,
0100
0001
0200
0000
0000
0000
0310
0001
,
0010
0100
0010
0001
1000
0002
0000
0103
,
0001
0000
1000
0000
0100
0000
0010
0000
0100
0000
1000
0000
0001
0000
0000
0100
,
0000
0000
0001
0000
0100
0000
0000
0010
0000
0000
1000
0000
0000
0000
0001
0000
,
1000
0000
0100
0000
1000
0000
0000
0010
0000
0000
0100
0000
0001
0000
0000
0001
,
0000
0000
1000
0000
0010
0000
0000
0010
0000
0000
0100
0000
0001
0000
0000
0100
,
0000
0000
0010
0000
1000
0000
0100
0000
0001
0000
0100
0000
1000
0000
0000
0100
,
0000
0000
1000
0000
0010
0000
0000
0010
0000
0000
0100
0000
0001
0000
0010
0000
,
0100
0000
0010
0000
0100
0000
0000
1000
0000
0000
0010
0000
0110
0000
0000
0100
,
0000
0000
0001
0000
1001
0000
0000
1000
0000
0000
0100
0000
0010
0000
0000
0001
,
0000
0000
1000
0001
1000
0001
0100
0010
1000
0001
1000
0001
0200
0000
0000
0000
,
0000
0000
0000
0300
,
0000
0000
0000
2002
0000
0000
0000
0000
,
0000
3003
0000
0000
0000
0000
0000
0000
,
0000
0000
0000
1001
,
0001
0000
0100
0000
0010
1000
0100
0000
,
0010
0000
0100
0000
1000
0010
0100
0000
,
0001
0000
1000
0000
0010
0000
0200
1300
,
0200
0000
0301
0000
0100
0010
0100
0010
0200
0000
0302
0000
1003
0000
0000
0100
,
0000
0000
1000
0000
0010
0000
0010
0000
0010
0000
0100
0000
0001
0000
0000
0010
,
0000
0000
0100
0000
0010
0000
0010
0000
0010
0000
0100
0000
1000
0000
0000
0010
,
0000
0100
0001
0001
0001
0010
0100
0100
,
0100
0010
0100
0000
0100
1000
0100
0010
0100
1000
0001
0000
0100
0000
0000
1000
,
0000
0000
0100
0000
0010
0000
0010
0000
0010
0000
0100
0000
0001
0000
0000
0010
,
0000
0100
0010
0010
0010
0100
2020
3030
,
0202
0000
0000
0000
0000
0000
0000
0000
0000
0000
0000
0000
0000
0000
0000
0000
0000
0000
0000
0000
0000
0000
0000
0000
0303
0000
0000
0000
0000
0000
0000
0000
0000
0000
0000
0000
0000
0000
0000
0000
0000
0000
0000
0000
0000
0000
0000
0000
0001
0000
0000
0000
0000
0000
0000
0000
0000
0000
0000
0000
0000
0000
0000
0000
0000
0000
0000
0000
0000
0000
0000
0000
1000
0000
0000
0000
0000
0000
0000
0000
0000
0000
0000
0000
0000
0000
0000
0000
0000
0000
0000
0000
0000
0000
0000
0000
0002
0000
0000
0000
0000
0000
0000
0000
0000
0000
0000
0000
0000
0000
0000
0000
0000
0000
0000
0000
0000
0000
0000
0000
0103
0000
0000
0000
0000
0000
0000
0000
0000
0000
0000
0000
0000
0000
0000
0000
0000
0000
0000
0000
0000
0000
0000
0000
0020
0000
0000
0000
0000
0000
0000
0000
0000
0000
0000
0000
0000
0000
0000
0000
0000
0000
0000
0000
0000
0000
0000
0000
0200
0000
0000
0000
0000
0000
0000
0000
0000
0000
0000
0000
0000
0000
0000
0000
0000
0000
0000
0000
0000
0000
0030
0000
,
0002
0000
0000
0000
0000
0000
0000
0000
0000
0000
0000
0000
0000
0000
0000
0000
0000
0000
0000
0000
0000
0000
0300
0000
2000
0000
0000
0000
0000
0000
0000
0000
0000
0000
0000
0000
0000
0000
0000
0000
0000
0000
0000
0000
0000
0000
0003
0000
0010
0000
0000
0000
0000
0000
0000
0000
0000
0000
0000
0000
0000
0000
0000
0000
0000
0000
0000
0000
0000
0000
3000
0000
1000
0000
0000
0000
0000
0000
0000
0000
0000
0000
0000
0000
0010
0000
0000
0000
0000
0000
0000
0000
0000
0000
0000
0000
0000
0000
0000
0000
0000
0000
0000
0000
0000
0000
0000
0000
0100
0000
0000
0000
0000
0000
0000
0000
0000
0000
0000
0000
0001
0000
0000
0000
0000
0000
0000
0000
0000
0000
0000
0000
0000
0000
0000
0000
0000
0000
0000
0000
0000
0000
0000
0000
2002
0000
0000
0000
0000
0000
0000
0000
0000
0000
0000
0000
0000
0000
0000
0000
0000
0000
0000
0000
0000
0000
0000
0000
0000
0000
0000
0000
0000
0000
0000
0000
0000
0000
0000
0000
0000
0000
0000
0000
0000
0000
0000
0000
0000
0000
0000
0000
,
0000
3003
0000
0000
;

//---------------dance-single - ----------------
#NOTES:
     dance-single:
     :
     Medium:
     7:
     0.472955,0.499602,0.326271,0.105558,0.148741,300.000000,34.000000,11.000000,0.000000,0.000000,0.000000,0.472955,0.499602,0.326271,0.105558,0.148741,300.000000,34.000000,11.000000,0.000000,0.000000,0.000000:
// measure 0
0000
0000
0000
0000
,  // measure 1
0000
0000
0000
0000
,  // measure 2
0000
0000
0000
0000
,  // measure 3
0000
0000
0000
0000
0000
0000
0010
0010
,  // measure 4
1000
0010
0100
0010
1000
0001
1000
0100
,  // measure 5
0010
0001
0010
0000
0000
0100
0000
1000
,  // measure 6
0000
0010
0000
0100
0000
0000
0010
0000
,  // measure 7
1010
0000
1000
0010
1000
0000
0010
0000
,  // measure 8
0110
0000
0000
0000
0100
0000
0000
0000
0010
0000
1000
0000
0001
0000
0000
0001
,  // measure 9
0000
0000
1000
0000
0000
1000
0000
0000
0001
0000
0100
0000
0001
0000
0000
0000
,  // measure 10
0100
0000
0000
0010
0000
1000
0000
0010
0000
0000
0100
0000
0020
0000
0000
0000
,  // measure 11
0230
0000
0310
1000
1001
0000
0001
0000
,  // measure 12
1001
0000
0001
1000
0010
0000
0100
0000
,  // measure 13
0110
0000
0100
0010
1000
0000
0001
0000
,  // measure 14
0110
0000
0000
0000
0100
0000
1000
0000
0010
0000
0000
0000
0100
0000
0000
0001
,  // measure 15
0000
0000
1000
0000
0000
0100
0000
0000
1000
0000
0010
0000
0100
0000
0000
0000
,  // measure 16
0101
0000
0001
0100
0010
0000
0100
0000
,  // measure 17
0110
0000
0010
1000
0100
0000
1000
0000
,  // measure 18
1100
0000
0000
0000
1000
0000
1000
0000
0001
0000
0001
0000
1000
0000
0000
0001
,  // measure 19
0000
0000
0100
0000
0000
0001
0000
0000
0100
0000
0010
0000
1000
0000
0000
0000
,  // measure 20
1010
0000
0010
0100
0001
0000
1000
0000
,  // measure 21
1100
0000
0000
0000
0100
0000
1000
0000
0010
0000
0100
0000
0001
0000
0000
0001
,  // measure 22
0000
0000
1000
0000
0000
1000
0000
0000
0001
0000
0100
0000
0001
0000
0000
0000
,  // measure 23
0100
0000
0000
0010
0000
0000
1000
0000
0010
0000
0100
0000
0102
0000
0000
0000
,  // measure 24
0000
0000
0000
0203
0301
0000
0101
0000
,  // measure 25
0100
0110
0010
1010
,  // measure 26
1000
1001
1000
0101
,  // measure 27
0101
0000
0000
0000
0101
0000
0100
0000
0101
0000
0001
0000
0101
0000
0000
0100
,  // measure 28
0000
0000
0010
0000
0000
1000
0000
0000
0010
0000
0100
0000
1000
0000
0100
0000
,  // measure 29
0001
1000
0200
0000
0300
1000
0000
0100
,  // measure 30
1000
0010
0200
0000
0300
0000
0010
1000
,  // measure 31
0010
0000
0100
0010
0100
0000
0100
0010
,  // measure 32
1000
0001
0010
0100
0010
0001
1000
0000
,  // measure 33
0001
0100
0020
0000
0000
0130
0000
0010
,  // measure 34
1000
0010
2000
0000
0000
3000
1000
0000
,  // measure 35
0001
0000
0100
0000
0001
0100
0000
0001
,  // measure 36
0010
0000
0100
0000
0010
0000
0001
0000
1000
0000
0100
0000
0010
0000
0000
0100
,  // measure 37
0000
0000
1000
0000
0010
0000
0000
0100
0000
0000
0001
0000
0000
0000
0001
0000
,  // measure 38
1000
0000
0001
0000
0100
0000
0000
0001
0000
0000
1000
0000
0100
0000
0000
0100
,  // measure 39
0000
0000
1000
0000
0010
0000
0000
0010
0000
0000
0100
0000
0110
0000
0000
0010
,  // measure 40
0000
0000
0100
0000
0010
0000
1000
0000
0001
0000
0000
0000
1001
0000
0000
0100
,  // measure 41
0000
0000
0001
0000
0100
0000
0000
0010
0000
0000
0001
0000
0000
0000
1000
0000
,  // measure 42
0001
0000
0010
0000
0100
0000
0000
0010
0000
0000
0001
0000
1000
0000
0000
1000
,  // measure 43
0000
0000
0001
0000
0100
0000
0000
0100
0000
0000
0001
0000
0100
0000
0010
0000
,  // measure 44
1000
0001
0100
0010
1000
0100
0010
0000
,  // measure 45
0000
0000
0000
0000
,  // measure 46
0000
0000
0000
0020
0000
0000
0000
0000
,  // measure 47
0000
0030
0000
0000
0000
0000
0000
0000
,  // measure 48
0000
0000
0000
1001
,  // measure 49
0001
1000
0100
1100
,  // measure 50
0100
1000
0010
0110
,  // measure 51
0110
0000
1001
0000
1001
0000
0001
0100
,  // measure 52
0010
0000
0100
0000
0001
0000
1000
0000
0001
0000
0000
0000
1000
0000
0000
0100
,  // measure 53
0000
0000
1000
0000
0010
0000
1000
0000
0010
0000
0000
0000
0100
0000
0000
0001
,  // measure 54
0000
0000
1000
0000
0100
0000
0010
0000
0100
0000
0000
0000
0100
0000
0000
1000
,  // measure 55
0000
0010
0100
0001
0100
0000
0001
0001
,  // measure 56
1000
0000
1000
0000
0001
0000
0100
0000
0010
0000
1000
0000
0001
0000
0000
0001
,  // measure 57
0000
0000
0100
0000
0010
0000
1000
0000
0010
0000
0000
0000
0100
0000
0000
0010
,  // measure 58
0000
0100
0010
1000
0001
0000
1001
0000
,  // measure 59
1001
0000
0001
1000
1001
0000
0001
0100
,  // measure 60
0010
0000
1000
0000
0001
0000
0000
1010
0000
0000
1000
0000
2002
0000
0000
0000
,  // measure 61
0000
3003
0000
0000
;

//---------------dance-single - ----------------
#NOTES:
     dance-single:
     :
     Easy:
     5:
     0.360543,0.411437,0.422232,0.124751,0.000000,206.000000,44.000000,13.000000,0.000000,0.000000,0.000000,0.360543,0.411437,0.422232,0.124751,0.000000,206.000000,44.000000,13.000000,0.000000,0.000000,0.000000:
0000
0000
0000
0000
,
0000
0000
0000
0000
,
0000
0000
0000
0000
,
0000
0000
0000
0000
0000
0000
0001
1000
,
0001
0000
0100
0010
0000
0100
0010
0100
,
0010
0100
0000
0000
0000
0010
0000
0100
,
0000
0001
0000
1000
0000
0000
0001
0000
,
1000
0001
0100
0001
,
0100
0010
0100
0001
,
1000
0100
1000
0001
,
0100
0000
0010
0000
1000
0000
0001
1000
,
0001
1000
0001
0000
0000
0000
1000
0000
,
1100
0100
0010
0001
,
0011
0001
0100
0010
,
0110
0100
0010
1000
,
1010
0010
1010
1000
,
1001
0001
0100
0001
,
0011
0010
0100
1000
,
1100
1000
0100
0010
,
0100
0000
1000
0001
0100
0000
0001
0000
,
1001
1000
0100
1000
,
1010
0010
0100
0102
,
0000
0000
0000
0000
0103
0010
2000
0000
,
0000
0000
3000
1002
,
0000
0000
0003
2000
,
3000
0002
0003
2000
,
3000
0002
0003
1000
,
0001
0000
1000
0001
1000
0001
1000
0000
,
0001
0100
0010
0100
,
0010
2000
3000
0010
,
0100
0002
0003
0100
,
0010
1000
0100
0001
,
0100
1000
0010
0100
,
0001
0020
0000
0130
,
1000
0020
0000
0130
,
0001
1000
0100
1000
,
0001
0100
0001
1000
,
1100
0100
0010
0001
,
0101
0001
0100
0010
,
0110
0100
0010
1010
,
0010
0110
1001
0001
,
1001
1000
0100
0010
,
0110
0100
1000
1100
,
0011
1100
0011
0101
,
1010
0101
1010
1001
,
0000
0000
0000
0000
,
0000
0000
0000
0000
,
0000
0000
0000
0000
,
0000
0000
0000
1001
,
0000
0000
0000
1001
,
0000
0000
0000
1001
,
0000
1001
0000
1001
,
0110
1001
0110
0100
,
0001
0000
0100
0010
0100
0000
0010
0000
,
1000
0000
0001
1000
0001
0000
1000
0000
,
0100
0000
0010
0001
0010
0000
0001
0100
,
0001
0000
0100
0010
0100
0000
0010
0000
,
1000
0000
0001
1000
0001
0000
1000
0000
,
0100
0000
0010
0001
0010
0000
0011
0000
,
1100
0011
1100
0101
,
1010
0000
0001
0100
0010
1000
2002
0000
,
0000
3003
0000
0000
;

//---------------dance-single - ----------------
#NOTES:
     dance-single:
     :
     Challenge:
     11:
     0.796484,1.000000,0.239905,0.441425,0.906840,510.000000,25.000000,46.000000,0.000000,0.000000,0.000000,0.796484,1.000000,0.239905,0.441425,0.906840,510.000000,25.000000,46.000000,0.000000,0.000000,0.000000:
0000
0000
0000
0000
,
0000
0000
0000
0000
,
0000
0000
0000
0000
,
2000
0000
0000
0000
3002
0000
0000
0000
0203
0000
0000
0000
0310
0100
0010
0100
,
0110
1001
1010
0101
0011
1100
1100
0100
,
0010
0000
0011
0000
1100
0000
0001
0000
0000
0000
0100
0001
0010
0100
0001
1000
,
0000
0001
0000
0100
0000
1000
0000
0100
0010
0000
0000
0000
1000
0000
0100
0000
,
0110
0010
0001
1000
1001
0000
0001
0100
,
0101
0000
0001
0000
1000
0001
1000
0001
0000
0001
1000
0100
1000
0000
0100
0010
,
0000
0001
0100
0000
0010
1000
0000
0010
1000
0001
1000
0001
1000
0100
1000
0100
,
0010
0001
0000
1000
0000
0001
0000
0010
0000
0100
0010
0001
2000
3200
0302
0203
,
0320
0032
0103
0000
0010
1000
0010
1000
0001
0010
0001
0010
0001
0000
0000
0100
,
0000
0000
0001
0000
0000
1000
0000
0000
0100
0000
0010
0000
0001
0000
0000
1000
,
0000
0000
0010
1000
0000
0001
2000
0000
0000
0000
0000
0000
3100
0000
0000
0010
,
0000
0000
0001
0000
0000
0100
0000
0000
0010
0000
0100
0010
1000
0000
0000
0010
,
0000
0000
0100
0010
0000
0010
0000
0000
0100
0000
0001
0000
1000
0000
0000
0001
,
0000
0000
0100
0001
0000
1000
0000
0001
0010
0000
0100
0000
1000
0000
0000
0100
,
0000
0000
0010
0001
1000
0001
0100
0001
0010
0100
1000
0001
1000
0000
0000
0000
,
0001
0000
0000
0000
0100
0000
0100
0000
0100
0010
0100
0001
0100
0000
0000
0110
,
0000
0000
0000
0000
0000
0000
1000
0000
0000
0000
0000
0000
0000
0000
0000
0010
0000
0000
0100
0000
0000
0001
0000
0000
1000
0000
0001
0000
1000
0000
0001
0000
0000
0000
0000
0000
0100
0000
0000
0000
0000
0000
0010
0000
0000
1000
0000
0000
,
0000
0000
0001
1000
0000
0100
0000
0010
0001
0000
0010
0000
0001
0000
1000
0010
,
0000
0000
0100
0001
1000
0000
1000
0000
1000
0001
1000
0100
2000
0000
0000
3200
,
0000
0000
0302
0000
0000
0203
0000
0000
0310
0001
0010
0001
2000
3200
0310
0002
,
0203
0000
0000
0310
0000
0000
2000
0000
0000
3002
0000
0000
0013
0000
0000
0200
0000
0000
2300
0000
0000
3010
0000
0000
0100
0000
0000
0001
1000
0000
0001
0000
1000
0000
0001
0000
2000
0000
0000
0000
0000
0000
0000
0000
0000
3002
0000
0000
,
0000
0000
0200
0000
0000
0303
0200
0302
2000
3003
1000
0001
0100
0000
0010
0000
,
1000
0000
0010
1000
0001
0000
0001
0010
,
0100
0000
1000
0100
0010
0000
1001
0000
,
1001
0000
0000
0000
1001
0000
1001
0000
0110
0000
0110
0000
0001
1000
0000
0010
,
0100
0000
0100
0010
0000
1000
0001
0100
0010
1000
0001
0010
0001
0000
0100
0000
,
0001
1000
0020
0000
0000
0230
0000
0301
,
0100
0010
2000
0000
0000
0000
3001
1000
,
0100
1000
0001
0010
0001
2000
0000
3001
,
0100
0010
0001
0010
1000
0001
1000
0010
,
1000
0001
0200
0000
0000
0320
0000
1030
,
0010
0100
0002
0000
0000
0000
1003
0001
,
0010
0001
1000
0100
1000
0002
0000
1003
,
0010
0000
0100
0000
1000
0000
0100
0000
0001
0000
1000
0000
0001
0000
0000
1000
,
0000
0000
0100
0000
0010
0000
0001
0100
0000
0010
1000
0000
0000
0010
1000
0100
,
0010
0001
1000
0010
1000
0000
0000
0001
0000
0000
1000
0000
0100
0000
0000
0010
,
0000
0000
0001
1000
0010
0000
0000
0100
0000
0000
0010
0000
1000
0010
0000
1000
,
0010
0000
1000
0010
0100
0001
0010
0100
0010
0001
1000
0010
0100
0000
0000
0010
,
0000
0000
1000
0000
0001
0000
0010
0100
0000
0100
1000
0000
0100
0010
0001
0010
,
0001
1000
0010
1000
0001
0000
0000
1000
0000
0000
0010
0100
0001
0000
0100
0000
,
0010
0000
0010
0000
1000
0000
0001
0000
0100
0000
0100
0000
0001
1000
0000
1000
,
0001
0000
0001
0100
0010
1000
0010
0001
0010
0100
0001
1000
0001
0000
0000
0000
,
0000
0000
0000
0000
,
0000
0000
0000
0220
0000
0000
0000
0000
,
0000
0330
0000
0000
0000
0000
0000
0000
,
0000
0000
0000
0000
0000
0000
0000
0000
0000
0000
0000
0000
1001
0000
0000
1000
,
0000
0000
0001
0000
0100
0000
0000
0010
0000
0000
0100
0000
0101
0000
0000
0001
,
0000
0000
0000
0000
0000
0000
1000
0000
0000
0000
0000
0000
0100
0000
0000
0000
0000
0000
0000
0000
0000
0010
0000
0000
0000
0000
0000
0000
0000
0000
0001
0000
0000
0000
0000
0000
1000
0000
0100
0000
1000
0000
0100
0000
1000
0000
0100
0000
,
1000
0000
0100
0000
1000
0000
0100
0000
1000
0000
0100
0000
1000
0000
0100
0000
1000
0000
0100
0000
1000
0000
0100
0000
1000
0000
0100
0000
1000
0000
0100
0000
1000
0000
0100
0000
1000
0000
0000
0100
0000
0000
0010
0000
0000
0001
0000
0000
,
1000
0100
0010
0001
2000
3002
2003
3002
2003
0000
3002
0000
0103
0000
0000
0001
,
0000
0000
1000
0000
0010
0000
0010
0000
0100
0000
0010
0000
1000
0000
0001
0100
,
0000
0100
0010
1000
0001
0000
0001
0000
0010
0000
0001
0000
1001
0000
0000
1000
,
0000
0010
0100
0010
1000
0001
0010
0010
,
0010
0001
0010
0000
0010
0001
0010
1000
0010
0001
0010
0100
1000
0000
0000
0001
,
0000
0000
0100
0000
0001
0000
0001
0000
0100
0000
0010
0000
1010
0000
1000
0001
,
0000
0000
0001
0000
1000
0000
0010
0000
0100
0000
0000
0000
0100
0000
0000
0000
0001
0000
0000
0000
1000
0000
0000
0000
0001
1000
0001
1000
0001
0000
0000
0000
,
1000
0001
1000
0001
1000
0000
0001
0000
1000
0000
0001
0000
1000
0000
0001
0000
1000
0001
1000
0001
1000
0001
1000
0001
1000
0000
0010
0000
0100
0000
0001
0000
,
0010
0100
1000
0010
0100
0000
0010
1000
0000
0100
0001
0000
2002
0000
0000
0000
,
0000
3003
0000
0000
;

//---------------dance-single - ----------------
#NOTES:
     dance-single:
     :
     Beginner:
     2:
     0.182328,0.291484,0.095962,0.076770,0.000000,115.000000,10.000000,8.000000,0.000000,0.000000,0.000000,0.182328,0.291484,0.095962,0.076770,0.000000,115.000000,10.000000,8.000000,0.000000,0.000000,0.000000:
0000
0000
0000
0000
,
0000
0000
0000
0000
,
0000
0000
0000
0000
,
0000
0000
0000
0000
,
1001
0000
0000
0000
,
0000
0000
0000
0000
0000
1000
0000
0001
,
0000
0100
0000
0010
0000
0000
1000
0000
,
0000
0001
0000
1000
,
0000
0010
0000
0100
,
0000
0000
0010
0010
,
0000
1000
0000
0002
,
0000
0003
0000
1000
,
0000
1000
0000
0001
,
0000
0100
0000
0001
,
0000
0100
0000
0010
,
0010
0010
0000
0100
,
0000
0100
0000
0001
,
0000
1000
0000
0001
,
0000
1000
1000
1000
,
0000
0000
0000
0010
,
0000
0000
0000
0100
,
0000
0001
0000
1000
,
0000
0000
0001
0001
,
0000
0100
0000
0020
,
0000
0030
0000
0100
,
0000
0010
0000
1000
,
0000
0001
0000
1001
,
0000
0110
0000
0010
,
0010
0100
0100
0001
,
0000
2000
3000
0001
,
0000
0200
0300
0010
,
0000
1000
0000
0100
,
0000
1000
1000
0001
,
0000
0020
0030
0001
,
0000
0020
0030
0001
,
0000
0100
0000
0010
,
0000
1000
1000
0001
,
0000
0100
0000
0000
,
0010
0010
0000
1000
,
0000
0001
0000
1001
,
0000
0010
0010
0100
,
0000
0010
0000
0000
,
1000
1000
0000
0001
,
0000
1000
0000
0010
,
0000
0100
0010
1001
,
0000
0000
0000
0000
,
0000
0000
0000
0000
,
0000
0000
0000
0000
,
0000
0000
0000
0010
,
0000
0000
0000
0100
,
0000
0000
0000
0002
,
0000
0000
0003
1000
,
0001
0200
0300
0010
,
0000
1000
0000
0001
,
0000
1000
0000
0100
,
0000
1000
0000
0010
,
0010
0100
0010
0100
,
0000
0001
0000
1000
,
0000
0001
0000
1001
,
1001
0110
0110
0001
,
1000
0010
0100
1001
;
