#VERSION:0.81;
#TITLE:SAX@ARENA;
#SUBTITLE:(Mitomi Tokoto Remix);
#ARTIST:DAISHI DANCE x SHINJI TAKEDA;
#TITLETRANSLIT:;
#SUBTITLETRANSLIT:;
#ARTISTTRANSLIT:;
#GENRE:;
#ORIGIN:;
#CREDIT:;
#BANNER:SAX@ARENA (Mitomi Tokoto Remix).png;
#BACKGROUND:SAX@ARENA (Mitomi Tokoto Remix)-bg.png;
#PREVIEWVID:;
#JACKET:SAX@ARENA (Mitomi Tokoto Remix)-jacket.png;
#CDIMAGE:;
#DISCIMAGE:Mount-Fuji-Tokyo-Japan-Desktop-Wallpaper.jpg;
#LYRICSPATH:;
#CDTITLE:;
#MUSIC:SAX@ARENA (Mitomi Tokoto Remix).ogg;
#OFFSET:-14.987000;
#SAMPLESTART:44.980000;
#SAMPLELENGTH:12.000000;
#SELECTABLE:YES;
#BPMS:0.000=128.000;
#STOPS:184.000=0.234,
184.500=0.234;
#DELAYS:;
#WARPS:;
#TIMESIGNATURES:0.000=4=4;
#TICKCOUNTS:0.000=4;
#COMBOS:0.000=1;
#SPEEDS:0.000=1.000=0.000=0;
#SCROLLS:0.000=1.000;
#FAKES:;
#LABELS:0.000=Song Start;
#BGCHANGES:;
#KEYSOUNDS:;
#ATTACKS:
;

//---------------dance-single - ----------------
#NOTEDATA:;
#CHARTNAME:;
#STEPSTYPE:dance-single;
#DESCRIPTION:;
#CHARTSTYLE:;
#DIFFICULTY:Hard;
#METER:8;
#RADARVALUES:0.499320,0.476786,0.123810,0.028571,0.523810,351.000000,13.000000,3.000000,0.000000,0.000000,0.000000,0.000000,0.000000,0.499320,0.476786,0.123810,0.028571,0.523810,351.000000,13.000000,3.000000,0.000000,0.000000,0.000000,0.000000,0.000000;
#CREDIT:;
#NOTES:
0001
0001
1000
1000
,
0001
1000
0001
1000
,
0010
0010
0100
0100
,
0010
0100
0010
0100
,
0001
0001
0010
0010
,
0001
1000
0010
0100
,
0010
0010
0100
0100
,
0010
1000
0100
0010
,
0001
0000
0010
0000
0100
0000
0010
0000
0001
1000
0000
0010
0000
0000
0100
0000
,
0010
0000
1000
0000
0100
0000
0010
0000
0001
0010
0000
0001
0000
0000
0000
0000
,
0010
0000
0100
0000
1000
0000
0100
0000
1000
0100
0000
0100
0000
0000
1000
0000
,
0010
0000
0100
0000
0001
0000
1000
0000
0001
1000
0000
0100
0000
0000
0000
0000
,
0000
0100
0010
0001
0100
1000
0100
0010
,
0001
0000
0100
0000
1000
0000
0100
0000
0010
1000
0000
0001
0000
0000
0000
0000
,
0120
0100
0100
0130
,
0210
0010
0010
0310
,
0001
0000
0000
0000
0010
0000
0000
0000
0100
1000
0000
0001
0000
0001
0000
0001
,
1000
0000
0100
0000
1000
0000
0010
0000
0100
0001
0000
0100
0000
0000
0000
0000
,
0010
0000
0000
0000
1000
0000
0000
0000
0001
0010
0000
0100
0000
0100
0000
0100
,
0010
0000
0100
0000
1000
0000
0100
0000
0010
0100
0000
1000
0000
0001
0010
0000
,
0001
0000
0000
0000
0100
0000
0000
0000
0010
1000
0000
0001
0000
0001
0000
0001
,
1000
0000
0100
0000
1000
0000
0001
0000
0010
0100
0000
1000
0000
0000
0000
0000
,
0001
0000
0000
0000
0010
0000
0000
0000
0100
0010
0000
0001
0000
0001
0000
1000
,
0001
0000
0010
0000
0100
0000
0010
0000
0001
1000
0000
0001
0000
0100
0010
1000
,
0000
0001
0000
0100
0010
1000
0000
0010
0000
0100
0001
1000
0000
0001
0000
1000
,
0020
0000
0000
0000
,
1030
0000
0000
0100
0000
0000
0010
0000
0100
0000
0000
1000
0000
0000
0001
0000
,
0000
0000
0000
0000
0000
0000
0000
0000
0000
0000
0100
0000
0000
0100
0000
0000
,
0100
0000
0000
0100
0000
0000
0100
0000
0000
0100
0000
0000
0100
0000
0000
0000
,
0100
0001
0000
1000
0000
0001
0000
0000
1000
0000
0001
0010
0000
0000
0000
0000
,
0100
0000
0000
0000
0010
0000
0000
0000
0001
0000
0000
1000
0000
1000
0000
0000
,
0001
0000
0000
0000
0100
0000
0000
0000
0010
0000
0000
0100
0000
0100
0000
0000
,
0010
0000
0000
0000
1000
0000
0000
0000
0001
0000
0000
0010
0000
0010
0000
0000
,
0100
0000
0000
0000
0010
0000
0000
0000
0001
0000
0000
0100
0000
0100
0000
0000
,
0010
0000
0000
0000
1000
0000
0000
0000
0001
0000
0000
0100
0000
0100
0000
0100
,
0001
0000
0000
0000
0010
0000
0000
0000
0100
0000
1000
0010
0000
0010
0100
0010
,
1000
0000
0000
0000
0010
0000
0000
0000
0100
0000
0000
0001
0000
0001
0000
1000
,
0001
0000
0001
1000
0000
1000
0000
1000
0001
0000
0001
1000
0000
1000
0000
1000
,
0001
0000
0001
1000
0000
0001
1000
0000
0001
1000
0000
0001
1000
0000
0001
1000
,
0100
0000
0100
0000
1000
0000
1000
0000
0010
0000
0000
0100
0000
0100
0000
0000
,
0101
0000
0000
0000
1010
0000
0000
0000
1000
0100
0000
0001
0000
0100
0000
0010
,
0001
0000
0100
0000
1000
0000
0100
0000
0010
1000
0000
1001
0000
0000
0000
0000
,
0011
0000
0000
0000
0110
0000
0000
0000
0100
1000
0000
0010
0000
0001
0000
0010
,
0100
0000
0001
0000
0010
0000
0100
0000
1000
0001
0000
0100
0000
0001
0010
0000
,
1001
0000
0000
0000
0101
0000
0000
0000
0001
0010
0000
0100
0000
1000
0000
1000
,
0010
0000
0001
0000
0010
0000
0100
0000
0010
1000
0000
0001
0000
0000
0000
0000
,
0110
0000
1001
0000
0001
0100
0000
0100
0000
0100
0000
0100
0010
0000
0010
0000
,
1000
0000
1000
0000
0001
0010
0000
0010
0000
0000
0000
0000
0100
0000
0000
0000
,
1000
0100
1000
0000
0100
0010
0100
0000
,
0010
0001
0010
0000
0001
1000
0001
0000
,
0100
0001
0100
0000
0010
0100
0010
0000
,
1000
0010
1000
0010
0100
0001
1000
0000
,
0100
0010
0001
0000
0010
0100
1000
0000
,
0001
1000
0010
0000
1000
0001
0010
0000
,
0001
1000
0100
0000
1000
0001
0100
0000
,
0010
0000
1000
0000
0001
0000
0000
1010
0000
0000
1001
0000
0000
0000
0000
0000
;

//---------------dance-single - ----------------
#NOTEDATA:;
#CHARTNAME:;
#STEPSTYPE:dance-single;
#DESCRIPTION:;
#CHARTSTYLE:;
#DIFFICULTY:Medium;
#METER:6;
#RADARVALUES:0.408163,0.397321,0.276190,0.028571,0.142857,268.000000,29.000000,3.000000,0.000000,0.000000,0.000000,0.000000,0.000000,0.408163,0.397321,0.276190,0.028571,0.142857,268.000000,29.000000,3.000000,0.000000,0.000000,0.000000,0.000000,0.000000;
#CREDIT:;
#NOTES:
1001
0001
1000
0010
,
1000
1000
1000
1000
,
0010
0100
0001
0010
,
0100
0100
0100
0100
,
0010
0001
1000
0010
,
0100
0100
0100
0100
,
0010
1000
0001
0010
,
0001
0001
0001
0001
,
1001
0001
1000
0010
1000
0000
1010
0000
,
1000
0001
0010
0001
1000
0000
1001
0000
,
0001
1000
0100
1000
0001
0000
1001
0000
,
0001
1000
0001
0100
0001
0000
1001
0000
,
0001
0100
0001
0000
0100
0000
0010
0000
,
1000
0010
1000
0000
0010
0000
0100
0000
,
2002
0000
0000
0000
3003
0000
0001
1000
,
0010
0100
0001
1000
,
0100
0000
0000
0000
1000
0000
0000
0000
0010
0000
0000
0100
0000
0010
0000
0000
,
0100
0000
0010
0000
1000
0000
0001
0000
1000
0000
0000
0100
0000
0000
0000
0000
,
1000
0000
0000
0000
0010
0000
0000
0000
0100
0000
0000
0010
0000
0010
0000
0000
,
0100
0000
0010
0000
1000
0000
0001
0000
0010
0000
0000
0100
0000
0000
0010
0000
,
0001
0000
0000
0000
0010
0000
0000
0000
0100
0000
0000
1000
0000
1000
0000
0000
,
0100
0000
1000
0000
0010
0000
0100
0000
0001
0000
0000
1000
0000
0000
0000
0000
,
0010
0000
0000
0000
1000
0000
0000
0000
0010
0000
0000
0100
0000
0100
0000
0000
,
0010
0000
1000
0000
0001
0000
0100
0000
0010
0000
0000
1000
0000
0000
0010
0000
,
0000
0100
0000
0000
0010
0000
0000
1000
0000
0000
0010
0000
0000
0100
0000
0000
,
0002
0000
0000
0000
,
1003
0001
0100
0001
,
0010
0000
0000
0100
,
0100
0100
0100
0100
,
1000
0100
1000
0010
,
0100
0100
0001
0100
,
0001
0001
1000
0010
,
0110
0110
0010
1000
,
1001
1001
0001
0010
,
0110
1001
0101
0100
,
0101
1010
1000
0001
,
1001
0001
1001
1000
,
0001
0100
0001
1000
,
0100
0000
0000
1000
0000
0000
0010
0000
0000
0100
0000
0000
0010
0000
1000
0000
,
0001
1000
0010
0100
,
0101
0000
0000
0000
1010
0000
0000
0000
0101
0000
0000
0001
0000
0001
0000
0000
,
0100
0000
0010
0000
1000
0000
0001
0000
0010
0000
0000
0100
0000
0000
0000
0000
,
0110
0000
0000
0000
1100
0000
0000
0000
0100
0000
0000
1000
0000
1000
0000
0000
,
0100
0000
1000
0000
0010
0000
0100
0000
0010
0000
0000
1000
0000
0000
0010
0000
,
0110
0000
0000
0000
1001
0000
0000
0000
0001
0000
0000
0100
0000
0100
0000
0000
,
0001
0000
1000
0000
0100
0000
0001
0000
0100
0000
0000
0010
0000
0000
0000
0000
,
0110
0000
1001
0000
0110
0000
0000
0100
0000
0100
0000
0000
0010
0000
1000
0000
,
0010
0000
0100
0000
0001
0000
0000
0010
0000
0000
0000
0000
0100
0000
0000
0000
,
1000
0100
1000
0000
0100
0000
0010
0000
,
0001
0010
0001
0000
1000
0000
0001
0000
,
0100
0010
1000
0000
0010
0000
0100
0000
,
0001
0100
0001
0000
0100
0010
0100
0000
,
0010
1000
0010
0000
0100
0000
0001
0000
,
1000
0100
1000
0000
0100
0000
0010
0000
,
0001
1000
0001
0000
1000
0000
0010
0000
,
0100
0000
0001
0000
0100
0000
0000
0001
0000
0000
1001
0000
0000
0000
0000
0000
;

//---------------dance-single - ----------------
#NOTEDATA:;
#CHARTNAME:;
#STEPSTYPE:dance-single;
#DESCRIPTION:;
#CHARTSTYLE:;
#DIFFICULTY:Easy;
#METER:3;
#RADARVALUES:0.231293,0.290714,0.076190,0.066667,0.000000,155.000000,8.000000,7.000000,0.000000,0.000000,0.000000,0.000000,0.000000,0.231293,0.290714,0.076190,0.066667,0.000000,155.000000,8.000000,7.000000,0.000000,0.000000,0.000000,0.000000,0.000000;
#CREDIT:;
#NOTES:
0001
0000
1000
0000
,
0001
0001
0001
0000
,
0010
0000
0100
0000
,
0010
0010
0010
0000
,
0100
0000
1000
0000
,
0001
0001
0001
0000
,
1000
0000
0010
0000
,
1000
1000
1000
0000
,
0010
1000
0001
0000
,
1000
0100
1000
0000
,
0100
0010
0001
0000
,
0001
1000
0100
0000
,
1000
0000
0001
0000
,
0100
0100
0001
0000
,
0020
0000
0030
0100
,
0010
0000
0100
0000
,
1000
0001
1000
0001
,
0100
0001
0010
0100
,
1000
1000
0010
0100
,
0001
1000
0100
1000
,
0010
0010
0100
0001
,
0010
0001
1000
1000
,
0001
0001
0100
0010
,
1000
0010
0100
0001
,
0010
0000
0001
0000
,
2000
0000
0000
3000
,
0002
0003
0200
0000
,
0300
0000
0000
0000
0000
0020
0000
0000
,
0000
0000
0000
0000
0000
0000
0000
0030
,
0200
0300
0002
0003
,
0000
0000
0000
0000
,
0000
0000
0000
0000
,
1000
0000
0001
0000
,
0100
0000
0001
0000
,
1000
0000
0001
0000
,
0010
0000
0100
0000
,
1000
1000
0001
0001
,
0100
0001
0010
0100
,
0010
0010
0010
0010
,
0010
0100
0010
0100
,
1001
1001
0001
1000
,
0100
1000
0001
1000
,
1001
1001
1000
0001
,
0100
0001
0010
0001
,
1001
1001
0001
0010
,
0001
0100
0010
1000
,
1001
1001
0001
0000
1000
0000
0100
0000
,
0100
1000
0010
0100
,
0000
0010
0000
0100
,
0000
0001
0000
1000
,
0000
0100
0000
1000
,
0000
0010
0100
0001
,
0000
1000
0000
0100
,
0000
1000
0000
0010
,
0000
0100
0000
0001
,
0000
1000
0001
0000
;

//---------------dance-single - ----------------
#NOTEDATA:;
#CHARTNAME:;
#STEPSTYPE:dance-single;
#DESCRIPTION:;
#CHARTSTYLE:;
#DIFFICULTY:Beginner;
#METER:1;
#RADARVALUES:0.117007,0.158571,0.009524,0.000000,0.000000,85.000000,1.000000,0.000000,0.000000,0.000000,0.000000,0.000000,0.000000,0.117007,0.158571,0.009524,0.000000,0.000000,85.000000,1.000000,0.000000,0.000000,0.000000,0.000000,0.000000,0.000000;
#CREDIT:;
#NOTES:
// measure 0
0001
0000
0000
0000
,  // measure 1
1000
1000
1000
0000
,  // measure 2
0001
0000
0000
0000
,  // measure 3
0100
0100
0100
0000
,  // measure 4
0001
0000
0000
0000
,  // measure 5
0010
0010
0010
0000
,  // measure 6
0001
0000
1000
0000
,  // measure 7
0010
0010
0010
0000
,  // measure 8
0100
0000
0000
0000
,  // measure 9
0001
0000
0000
0000
,  // measure 10
1000
0000
0000
0000
,  // measure 11
0001
0000
0000
0000
,  // measure 12
0100
0000
0000
0000
,  // measure 13
0001
0000
0000
0000
,  // measure 14
1001
0000
0000
0000
,  // measure 15
1000
0000
0000
0000
,  // measure 16
0100
0100
0100
0000
,  // measure 17
0000
0000
0000
0000
,  // measure 18
1000
1000
1000
0000
,  // measure 19
0000
0000
0000
0000
,  // measure 20
0001
0001
0001
0000
,  // measure 21
0000
0000
0000
0000
,  // measure 22
0010
0010
0010
0000
,  // measure 23
0000
0000
0000
0000
,  // measure 24
1000
0000
0000
0000
,  // measure 25
0001
0000
0000
0000
,  // measure 26
1000
0000
0000
0000
,  // measure 27
0001
0000
0000
0000
,  // measure 28
0100
0000
0000
0000
,  // measure 29
0100
0000
0000
0000
,  // measure 30
0010
0000
0000
0000
,  // measure 31
1000
0000
0000
0000
,  // measure 32
0001
0000
0000
0000
,  // measure 33
1000
0000
0000
0000
,  // measure 34
0010
0000
0000
0000
,  // measure 35
1000
0000
0000
0000
,  // measure 36
0010
0000
0000
0000
,  // measure 37
0100
0000
0001
0000
,  // measure 38
1000
0000
0000
0000
,  // measure 39
0001
0000
0000
0000
,  // measure 40
1000
0000
1000
0000
,  // measure 41
1000
1000
1000
0000
,  // measure 42
0001
0000
0001
0000
,  // measure 43
0001
0001
0001
0000
,  // measure 44
0100
0000
0100
0000
,  // measure 45
0100
0100
0100
0000
,  // measure 46
0010
0010
0000
0010
,  // measure 47
0010
0010
0000
1000
,  // measure 48
0000
0000
0000
0001
,  // measure 49
0000
0000
0000
1000
,  // measure 50
0000
0000
0000
0100
,  // measure 51
0000
0100
0000
0100
,  // measure 52
0000
0000
0000
0010
,  // measure 53
0000
0000
0000
0010
,  // measure 54
0000
0000
0000
0010
,  // measure 55
0000
0001
1000
0000
;
