#TITLE:Russkij Pusskij;
#SUBTITLE:;
#ARTIST:Carlito;
#TITLETRANSLIT:;
#SUBTITLETRANSLIT:;
#ARTISTTRANSLIT:;
#GENRE:;
#CREDIT:;
#BANNER:Russkij Pusskij.png;
#BACKGROUND:Russkij Pusskij-bg.png;
#LYRICSPATH:;
#CDTITLE:;
#MUSIC:Russkij Pusskij.ogg;
#OFFSET:-2.115000;
#SAMPLESTART:48.046036;
#SAMPLELENGTH:14.896549;
#SELECTABLE:YES;
#BPMS:0.000000=145.000000
,168.000000=70.000000
,169.000000=75.000000
,170.000000=82.000000
,173.000000=88.000000
,174.000000=91.000000
,176.000000=96.000000
,178.000000=98.000000
,179.000000=100.000000
,181.000000=108.000000
,185.000000=115.000000
,188.000000=120.000000
,190.000000=123.000000
,193.000000=130.000000
,197.000000=140.000000
,200.000000=142.000000
,202.000000=145.000000
;
#STOPS:
;
#BGCHANGES:;
#KEYSOUNDS:;
#ATTACKS:;

//---------------dance-single - ----------------
#NOTES:
     dance-single:
     :
     Hard:
     7:
     0.445121,0.506878,0.079666,0.115074,0.044259,352.000000,343.000000,9.000000,13.000000,0.000000,0.000000,0.445121,0.506878,0.079666,0.115074,0.044259,352.000000,343.000000,9.000000,13.000000,0.000000,0.000000:
0000
0000
0000
0000
,
0000
0000
0000
0000
,
0000
0000
0000
0000
,
0000
0000
0000
0000
,
0001
0100
0001
0010
0100
1000
0001
1000
,
1001
0000
1001
0000
1001
0000
0000
1000
,
0100
0010
0100
1000
0100
0010
0000
0100
,
0010
0001
1000
0100
0010
0001
0001
0010
,
0100
1000
0001
0100
0001
1000
0000
0000
,
0001
0010
0001
1000
0100
0000
0000
0000
,
0010
0001
0100
0010
1000
0100
0000
0010
,
0001
0100
0010
1000
0001
0000
0000
0100
,
0001
1000
0100
1000
0001
0100
0000
0001
,
0010
0000
0100
0000
1000
0000
0000
0010
0100
0000
0000
0000
0000
0000
0000
0000
,
0001
0000
0000
0000
0000
0000
1000
0000
0100
0000
0000
0010
0000
0000
0100
0000
,
1000
0000
0000
0000
0000
0000
0001
0000
0010
0000
0000
0100
0000
0000
1000
0000
,
0001
0000
0000
0000
0000
0000
1000
0000
0010
0000
0000
0100
0000
0000
0001
0000
,
1000
0000
0000
0000
0000
0000
0100
0000
1000
0000
0000
0001
0000
0000
0100
0000
,
0001
0000
0000
0000
0000
0000
0001
0000
1000
0000
0000
0010
0000
0000
0100
0000
,
0010
0000
0000
0000
0000
0000
0010
0000
0100
0000
0000
0001
0000
0000
1000
0000
,
0100
0000
0000
0010
0000
0000
0000
0000
0100
0000
0000
0010
0000
0000
0001
0000
,
2000
0000
0000
3001
2000
0000
0000
0000
,
3001
1000
0010
1000
0001
0010
0001
1000
,
1001
0110
1001
0002
,
1003
0000
0001
1000
0100
0000
1000
0001
,
0100
0000
0001
1000
0100
0000
0010
0001
,
0100
0000
0010
0100
0001
0000
0100
0010
,
1000
0000
0100
0010
0001
0000
0200
0000
,
0310
0000
1000
0001
0010
0000
0001
1000
,
0010
0000
1000
0001
0010
0000
0002
0000
,
0103
0000
0010
1000
0100
0000
0010
0001
,
0100
0000
0010
0100
0001
0000
1000
0000
,
0001
0010
0001
0010
0001
0010
0000
0010
,
0100
0010
0100
1000
0001
0000
0000
1000
,
0010
1000
0010
1000
0010
1000
0000
0010
,
0100
0010
1000
0001
0100
0000
0000
0001
,
0010
0001
0010
0001
0010
0001
0000
0010
,
0100
1000
0001
0100
0010
0000
0000
0100
,
0001
0100
0001
0100
0001
0100
0000
0001
,
0100
0010
1000
0100
0010
0000
0000
0000
,
2001
0000
3010
1000
0100
0100
0000
0010
,
0001
0010
0001
0010
0100
0000
0000
0000
,
2002
0000
3003
0000
1000
0000
0001
1000
,
0010
0000
1000
0001
0010
0000
0001
1000
,
0010
0000
1000
0001
0100
0000
0001
0100
,
0010
0000
0100
0001
0010
0000
0100
1000
,
0010
0000
0200
0000
0301
0000
1000
0001
,
0100
0000
0010
0100
0001
0000
0100
0010
,
1000
0000
0100
0000
0010
0000
0001
0010
,
0100
0000
1000
0010
0100
0000
0010
0100
,
0001
0000
2000
0000
3001
0000
0100
0010
,
1000
0000
0010
0100
0001
0000
0100
0010
,
1000
0000
0001
1000
0001
0000
0010
0001
,
0100
0000
0010
1000
0100
0000
0010
0001
,
1000
0000
0020
0000
0130
0000
0001
0100
,
0010
0000
1000
0100
0010
0000
0100
1000
,
0001
0000
1000
0000
0010
0000
0100
0001
,
0010
0000
0100
1000
0010
0000
0100
0001
,
1000
0000
1001
0000
1000
0010
0001
0010
,
1000
0010
0010
1000
0001
0100
1000
0100
,
0001
0001
0001
0100
0010
0010
0100
0001
,
1000
1000
0010
0100
0001
1000
0100
0010
,
0001
0000
1000
0002
2000
0000
0000
0000
0000
0000
0000
0000
0000
0000
0000
0000
,
0000
0000
0003
0000
0000
3000
0000
0000
;

//---------------dance-single - ----------------
#NOTES:
     dance-single:
     :
     Medium:
     6:
     0.393274,0.478718,0.566517,0.115074,0.000000,311.000000,247.000000,64.000000,13.000000,0.000000,0.000000,0.393274,0.478718,0.566517,0.115074,0.000000,311.000000,247.000000,64.000000,13.000000,0.000000,0.000000:
0000
0000
0000
0000
,
0000
0000
0000
0000
,
0000
0000
0000
0000
,
0000
0000
0000
0000
,
1000
0100
0010
0001
,
1001
1001
1001
0000
,
0001
0000
0100
0000
0010
1000
0010
0000
,
1000
0000
0100
0000
0010
0001
0010
0000
,
0001
0000
0100
0000
0010
1000
0010
0000
,
1000
0000
0001
0000
0100
0010
1000
0001
,
0010
0000
0100
0000
1000
0100
1000
0000
,
0010
0000
0100
0000
0001
0100
0001
0000
,
1000
0000
0100
0000
1000
0010
1000
0000
,
0010
0000
0100
0000
0001
0100
0010
0000
,
2000
3010
0100
0001
,
0020
0130
1000
0010
,
0200
0301
0100
0010
,
2000
3001
1000
0100
,
2000
3010
0100
0001
,
0020
0130
0010
0001
,
0200
0000
0310
0000
0100
0000
0001
1000
,
0002
0000
0000
1003
0002
0000
0000
0000
,
1003
0010
0100
0001
,
1001
0110
1001
0001
,
0101
0100
0110
0010
,
1010
1000
1001
0001
,
1001
1000
1001
0001
,
1001
0110
1001
0001
,
0011
0010
0110
0100
,
1100
1000
1010
0010
,
0110
0110
1001
1001
,
0110
1001
0110
0000
,
1000
0000
0010
0000
1000
0010
0000
0000
,
0100
0000
0001
0100
0010
0000
0000
0000
,
0100
0000
0010
0000
0100
0010
0000
0000
,
0100
0000
0010
0100
0001
0000
0000
0000
,
1000
0000
0100
0000
0010
0001
0000
0000
,
0010
0000
0001
0100
0010
0000
0000
0000
,
0100
0000
0010
0000
0100
0001
0000
0000
,
1000
0000
0100
1000
0010
0000
0000
0000
,
1000
0000
0001
0000
0100
0001
0000
1000
,
0001
1000
0001
1000
0001
0000
0000
0000
,
2002
3003
0000
0000
0101
0000
0100
0000
,
0110
0010
1010
1000
,
1001
0001
0011
0010
,
0110
0100
1100
0011
,
1100
1000
1010
0010
,
0110
0100
0101
0001
,
0011
0010
0110
0100
,
1100
1000
1001
0110
,
1001
0001
0101
0100
,
0110
0010
1010
1000
,
1001
0001
0011
0010
,
0110
0100
1100
0101
,
1100
1000
1010
0010
,
0110
0100
0101
0001
,
0011
0010
0110
0100
,
1100
1000
1001
0110
,
1001
0000
0001
0100
,
0010
0000
1000
0010
0100
0000
0001
0000
,
0010
0100
1000
0100
0010
0000
0100
0000
,
1000
0000
0010
0000
0100
0010
1000
0001
,
0100
0010
2002
0000
0000
0000
0000
0000
,
0000
0000
3000
0000
0000
0003
0000
0000
;

//---------------dance-single - ----------------
#NOTES:
     dance-single:
     :
     Easy:
     4:
     0.259232,0.309759,0.097370,0.053111,0.000000,205.000000,194.000000,11.000000,6.000000,0.000000,0.000000,0.259232,0.309759,0.097370,0.053111,0.000000,205.000000,194.000000,11.000000,6.000000,0.000000,0.000000:
0000
0000
0000
0000
,
0000
0000
0000
0000
,
0000
0000
0000
0000
,
0000
0000
0000
0000
,
1000
0100
0010
0001
,
1001
1001
1001
0000
,
1000
0001
1000
0000
,
0010
0100
0010
0000
,
1000
0010
0100
0000
,
0001
0010
0100
0000
,
0010
0010
0001
0000
,
1000
1000
0100
0000
,
1000
0010
0100
0000
,
0010
0100
0001
0000
,
1001
0000
0001
0000
,
1000
0000
0100
0000
,
1000
0000
0010
0000
,
0100
0000
0010
0000
,
1001
0000
0001
0000
,
0100
0000
0010
0000
,
1000
0000
0100
0000
,
2000
0000
0002
3003
,
0001
0100
0010
1000
,
1001
1001
1001
0000
,
0001
0100
0001
1000
,
0001
0010
0001
1000
,
0100
1000
0100
0010
,
0100
1000
0010
0100
,
0001
1000
0100
1000
,
0010
1000
0100
1000
,
0010
0100
0001
0010
,
0001
0010
0100
0000
,
1000
1000
1000
0000
,
0001
1000
0100
0000
,
0010
0010
0010
0000
,
0100
0010
0001
0000
,
0100
0100
0100
0000
,
0010
0100
0001
0000
,
1000
1000
1000
0000
,
0100
1000
0010
0000
,
1001
0000
0010
0000
,
1000
0001
0100
0000
,
2002
3003
1000
0001
,
1000
0001
1000
0001
,
1000
0001
1000
0001
,
1000
0001
1000
0001
,
1000
0001
1000
0001
,
1000
0001
1000
0001
,
1000
0001
1000
0001
,
1000
0001
1000
0001
,
1000
0001
1000
0100
,
1000
0010
1000
0001
,
1000
0001
0100
0001
,
0010
0001
1000
0001
,
0100
0010
1000
0100
,
1000
0010
1000
0100
,
1000
0001
1000
0010
,
0100
0001
0010
0100
,
1000
0000
0100
1000
,
0010
0100
0010
0100
,
0001
0001
1000
0100
,
1000
0010
0100
0100
,
0010
2002
0000
0000
,
0000
0000
0000
0000
0000
3003
0000
0000
;

//---------------dance-single - ----------------
#NOTES:
     dance-single:
     :
     Beginner:
     2:
     0.128984,0.192859,0.026555,0.000000,0.000000,102.000000,99.000000,3.000000,0.000000,0.000000,0.000000,0.128984,0.192859,0.026555,0.000000,0.000000,102.000000,99.000000,3.000000,0.000000,0.000000,0.000000:
0000
0000
0000
0000
,
0000
0000
0000
0000
,
0000
0000
0000
0000
,
0000
0000
0000
0000
,
0000
0000
0000
0000
,
0000
0000
0000
0000
,
0010
0000
0000
0000
,
1000
0000
0000
0000
,
0100
0000
0000
0000
,
1000
0000
0000
0000
,
0001
0000
0000
0000
,
0010
0000
0000
0000
,
0001
0000
0000
0000
,
1000
0000
0000
0000
,
0010
0000
0000
0000
,
0100
0000
0000
0000
,
0010
0000
0000
0000
,
1000
0000
0000
0000
,
0001
0000
0000
0000
,
0010
0000
0000
0000
,
0100
0000
0000
0000
,
1000
0000
1000
0000
,
0001
0000
0000
0000
,
0010
0010
0010
0000
,
0100
0000
0000
0000
,
1000
0000
0000
0000
,
0001
0000
0001
0000
,
1000
0000
1000
0000
,
0010
0000
0000
0000
,
0010
0000
0000
0000
,
0100
0000
0100
0000
,
0010
0000
0010
0000
,
1000
1000
1000
0000
,
0001
0001
0001
0000
,
1000
1000
1000
0000
,
0001
0001
0001
0000
,
0100
0100
0100
0000
,
0010
0010
0010
0000
,
0100
0100
0100
0000
,
0010
0010
0010
0000
,
0100
0000
0000
0000
,
0000
0000
0000
0000
,
1001
0000
1000
0000
,
1000
0000
1000
0000
,
1000
0000
0001
0000
,
0001
0000
0001
0000
,
0001
0000
0100
0000
,
0100
0000
0100
0000
,
0100
0000
0010
0000
,
0010
0000
0010
0010
,
0010
0000
1001
0000
,
1000
0000
1000
0000
,
1000
0000
0001
0000
,
0001
0000
0001
0000
,
0001
0000
0100
0000
,
0100
0000
0100
0000
,
0100
0000
0010
0000
,
0010
0000
0010
0000
,
0010
0000
1000
0000
,
0000
0000
0001
0000
,
0000
0000
0100
0000
,
0000
0000
0010
0010
,
0010
1001
0000
0000
;

//---------------dance-single - ----------------
#NOTES:
     dance-single:
     :
     Challenge:
     9:
     0.648713,0.787702,0.460295,0.433740,0.402758,513.000000,461.000000,52.000000,49.000000,0.000000,0.000000,0.648713,0.787702,0.460295,0.433740,0.402758,513.000000,461.000000,52.000000,49.000000,0.000000,0.000000:
// measure 0
0000
0000
0000
0000
,  // measure 1
0000
0000
0000
0000
,  // measure 2
0000
0000
0000
0000
,  // measure 3
0000
0000
0000
0000
,  // measure 4
0001
0100
1000
0010
0001
1000
0010
0001
,  // measure 5
0011
0000
1010
0000
0011
0000
0000
0001
,  // measure 6
0100
0001
1000
0100
0010
0100
0000
0010
,  // measure 7
0001
0100
0010
1000
0100
0010
0010
0100
,  // measure 8
0010
0001
1000
0010
0100
0001
0000
0000
,  // measure 9
0010
0000
0001
0000
1000
0000
0001
0000
0100
0000
0010
0100
0010
0000
1000
0000
,  // measure 10
0001
0010
1000
0010
0001
0010
0000
0100
,  // measure 11
1000
0000
0000
0010
0000
0000
0100
0000
0000
0001
0000
0000
0010
0000
0000
0100
0010
0100
0010
0000
0000
0100
0000
0000
,  // measure 12
0010
0001
0100
1000
0100
0010
0000
0100
,  // measure 13
0001
0000
0000
0000
0000
0000
0010
0000
0000
0000
0000
0000
1000
0000
0000
0000
0000
0000
0000
0000
0000
0010
0000
0000
0001
0000
1000
0000
0001
0000
1000
0000
0001
0000
1000
0000
0001
0000
0000
0000
0000
0000
0000
0000
0000
0000
0000
0000
,  // measure 14
1010
0000
0000
0000
1000
0000
0001
0000
0020
0000
0000
0230
0000
0000
0320
0000
,  // measure 15
0100
0000
0000
0000
0031
0000
0100
0000
2000
0000
0000
3200
0000
0000
0320
0000
,  // measure 16
0100
0000
0000
0000
1030
0000
0001
0000
0200
0000
0000
2300
0000
0000
3200
0000
,  // measure 17
0010
0000
0000
0000
0301
0000
0010
0000
0200
0000
0000
2300
0000
0000
3020
0000
,  // measure 18
0100
0000
0000
0000
1030
0000
0001
0000
0020
0000
0000
0230
0000
0000
0320
0000
,  // measure 19
0001
0000
0000
0000
0130
0000
1000
0000
0020
0000
0000
0230
0000
0000
0301
1000
,  // measure 20
0002
0000
0000
0010
0000
0000
0003
0000
1000
0000
0000
0010
0000
0000
0100
0000
,  // measure 21
0002
0000
0000
1003
0002
0000
0000
0003
,  // measure 22
1000
0010
0001
0100
1000
0010
0001
1000
,  // measure 23
1001
0110
1001
0120
,  // measure 24
1030
0000
1000
0001
0021
0000
0130
1000
,  // measure 25
1020
0000
0130
0001
1001
0000
0001
0010
,  // measure 26
0210
0000
1300
0010
0210
0000
0301
1000
,  // measure 27
1020
0000
1030
0001
0011
0000
1010
0000
,  // measure 28
0201
0000
0310
1000
1200
0000
0310
0001
,  // measure 29
0021
0000
0130
1000
1001
0000
0201
0000
,  // measure 30
0310
0000
0100
0001
0021
0000
0130
1000
,  // measure 31
1020
0000
0000
0000
0000
0000
0000
0000
0000
0000
0000
0000
0130
0000
0000
0000
0000
0000
0001
0000
0000
0000
0000
0000
1001
0000
0000
0000
0000
0000
1000
0000
0001
0000
1000
0000
0001
0000
0000
0000
0000
0000
1000
0000
0000
0001
0000
0000
,  // measure 32
0100
0000
0001
1000
0100
0000
1000
0001
0100
0000
0010
0000
0000
0000
1000
0001
,  // measure 33
0010
0000
0001
1000
0010
0000
1000
0001
0010
0000
0000
0000
0000
0000
0100
1000
,  // measure 34
0010
0000
0010
0100
0001
0000
0001
0100
0010
0000
1000
0000
0000
0000
0001
1000
,  // measure 35
0100
0000
0000
0000
0000
0000
1000
0000
0000
0001
0000
0000
0100
0000
0000
0000
0000
0000
0010
0000
0000
1000
0000
0000
0100
0000
0000
0000
0000
0000
0010
0000
0100
0000
0010
0000
0100
0000
0000
0000
0000
0000
0010
0000
0000
0100
0000
0000
,  // measure 36
1000
0000
0100
0010
0001
0000
0010
0100
1000
0000
0001
0000
0000
0000
1000
0010
,  // measure 37
0100
0000
0001
0100
0010
0000
0100
0001
1000
0000
0000
0000
0000
0000
0001
0100
,  // measure 38
1000
0000
1000
0100
0010
0000
0010
0100
0001
0000
1000
0000
0000
0000
1000
0010
,  // measure 39
0001
0000
0000
0000
0000
0000
0001
0000
0000
0010
0000
0000
0100
0000
0000
0000
0000
0000
0100
0000
0000
0001
0000
0000
1000
0000
0001
0000
1000
0000
0001
0000
1000
0000
0001
0000
0100
0000
0000
0000
0000
0000
0000
0000
0000
0000
0000
0000
,  // measure 40
0001
1000
0001
1000
0100
0000
0010
0000
0011
0000
1010
0000
0000
0000
1000
0001
,  // measure 41
0100
0000
0001
1000
0100
0000
1000
0001
0010
0000
0100
0000
1001
0000
0000
0000
,  // measure 42
0220
0330
0002
0000
0013
0001
0010
0100
,  // measure 43
1100
1000
0001
0100
0101
0001
1000
0010
,  // measure 44
1001
0000
1000
0001
0101
0100
0010
1000
,  // measure 45
1100
0100
0010
0001
1001
1000
0010
0100
,  // measure 46
0101
0000
0021
0000
0130
0010
0001
0100
,  // measure 47
1010
1000
0001
0010
1100
1000
0100
1000
,  // measure 48
0110
0000
0101
0000
1001
0001
0010
0001
,  // measure 49
0101
0000
0100
0000
0010
0000
1000
0000
1100
0000
1000
0000
0001
0100
0001
0100
,  // measure 50
0001
0100
0001
0100
0020
0000
0000
0000
1030
0000
0000
0001
1000
0000
0010
0000
,  // measure 51
0200
0000
0000
0310
1000
0000
0001
0000
0200
0000
0000
0310
1000
0000
0001
0000
,  // measure 52
1001
0000
0000
0000
0001
0000
0010
0000
0210
0000
0000
1300
0010
0000
0100
0000
,  // measure 53
0002
0000
0000
0013
0100
0000
1000
0000
0020
0000
0000
0130
0001
0000
0010
0000
,  // measure 54
1001
0000
0000
0000
0110
0000
0000
0000
1001
0000
0000
0001
1000
0000
0010
0000
,  // measure 55
2000
0000
0000
3100
1000
0000
0001
0000
0020
0000
0000
0130
0010
0000
0001
0000
,  // measure 56
1001
0000
0000
0000
0110
0000
0000
0000
1002
0000
0000
1003
0001
0000
0010
0000
,  // measure 57
0002
0000
0000
1003
0100
0000
1000
0000
0020
0000
0000
0130
0010
1000
0001
1000
,  // measure 58
0001
1000
0001
1000
0010
0000
0000
0000
1000
0000
0001
1000
0100
0000
1000
0001
,  // measure 59
0100
0000
0001
1000
0100
0010
0100
0010
0100
0000
0010
0001
0100
0000
0100
0010
,  // measure 60
1000
0000
0001
0000
1000
0000
0001
1000
0010
0100
0010
1000
0010
0100
0010
1000
,  // measure 61
0010
0000
1000
0001
0010
0000
0100
0010
0001
1000
0001
1000
0100
0000
0010
0000
,  // measure 62
0001
0000
0100
0010
0220
0000
0000
0000
0000
0000
0000
0000
0000
0000
0000
0000
,  // measure 63
0000
0000
0000
0000
0030
0000
0000
0000
0000
0300
0000
0000
0000
0000
0000
0000
;
