#VERSION:0.82;
#TITLE:Run Boy Run;
#SUBTITLE:;
#ARTIST:Woodkid;
#TITLETRANSLIT:;
#SUBTITLETRANSLIT:;
#ARTISTTRANSLIT:;
#GENRE:;
#ORIGIN:;
#CREDIT:;
#BANNER:Run Boy Run.png;
#BACKGROUND:Run Boy Run-bg.png;
#PREVIEWVID:;
#JACKET:Run Boy Run-jacket.png;
#CDIMAGE:;
#DISCIMAGE:295742443_640.jpg;
#LYRICSPATH:;
#CDTITLE:;
#MUSIC:Run Boy Run.mp3;
#OFFSET:-3.630996;
#SAMPLESTART:25.050531;
#SAMPLELENGTH:14.328360;
#SELECTABLE:YES;
#BPMS:0.000=134.000;
#STOPS:;
#DELAYS:;
#WARPS:;
#TIMESIGNATURES:0.000=4=4;
#TICKCOUNTS:0.000=4;
#COMBOS:0.000=1;
#SPEEDS:0.000=1.000=0.000=0;
#SCROLLS:0.000=1.000;
#FAKES:;
#LABELS:0.000=Song Start;
#BGCHANGES:;
#KEYSOUNDS:;
#ATTACKS:
;

//---------------dance-single - ----------------
#NOTEDATA:;
#CHARTNAME:;
#STEPSTYPE:dance-single;
#DESCRIPTION:;
#CHARTSTYLE:;
#DIFFICULTY:Hard;
#METER:9;
#RADARVALUES:0.618185,0.629345,0.263324,0.087775,0.509093,453.000000,30.000000,10.000000,0.000000,0.000000,0.000000,0.000000,0.000000,0.618185,0.629345,0.263324,0.087775,0.509093,453.000000,30.000000,10.000000,0.000000,0.000000,0.000000,0.000000,0.000000;
#CREDIT:;
#NOTES:
// measure 0
1000
0000
0000
0001
0100
0000
0010
0000
1000
0000
0001
0000
1000
0000
0000
0000
,  // measure 1
0001
0000
0000
1000
0010
0000
0100
0000
0001
0000
0000
0000
0100
0000
0000
0000
,  // measure 2
0010
0000
0000
1000
0010
0000
0100
0000
0001
0000
0010
0000
0100
0000
0000
0000
,  // measure 3
0010
0000
0000
0001
0010
0000
0001
0000
0100
0000
0000
0000
0010
0000
0000
0000
,  // measure 4
1000
0000
0000
0001
1000
0000
0100
0000
1000
0000
0001
0000
0010
0000
0000
0000
,  // measure 5
0001
0000
0000
1000
0001
0000
0010
0000
0001
0000
0000
0000
0100
0000
0000
0000
,  // measure 6
0010
0000
0000
1000
0010
0000
0100
0000
0001
0000
0010
0000
0100
0000
0000
0000
,  // measure 7
1000
0000
0000
0100
1000
0000
0010
0000
0100
0000
0000
0000
0001
0000
0000
0000
,  // measure 8
1000
0010
1000
0010
1000
0010
1000
0010
1000
0010
1000
0010
1000
0000
0000
0000
,  // measure 9
0001
0100
0001
0100
0001
0100
0001
0100
0001
0000
0000
0000
1001
0000
0000
0000
,  // measure 10
0001
0010
0001
0010
0001
0010
0001
0010
0001
0010
0001
0010
0001
0000
0000
0000
,  // measure 11
0100
1000
0100
1000
0100
1000
0100
1000
0100
0000
0000
0000
1001
0000
0000
0000
,  // measure 12
0001
0000
0000
1000
0010
0000
0100
0000
0010
0000
1000
0000
0001
0000
0000
0000
,  // measure 13
0010
0000
0000
0100
1000
0000
0010
0000
0100
0000
0000
0000
0001
0000
0000
0000
,  // measure 14
1000
0000
0000
0100
0001
0000
0100
0000
1000
0000
0010
0000
0100
0000
0000
0000
,  // measure 15
0010
0000
0000
1000
0010
0000
0001
0000
0010
0000
0000
0000
0100
0000
0000
0000
,  // measure 16
0001
0000
0000
0100
0010
0000
1000
0000
0100
0000
0001
0000
0100
0000
0000
0000
,  // measure 17
0010
0000
0000
0001
0010
0000
1000
0000
0010
0000
0000
0000
0100
0000
0000
0000
,  // measure 18
1000
0000
0000
0001
0100
0000
0010
0000
1000
0000
0100
0000
0010
0000
0000
0000
,  // measure 19
0100
0000
0000
0010
0001
0000
0010
0000
0100
0000
1000
0000
0001
0000
0000
0000
,  // measure 20
1000
0100
1000
0100
1000
0100
1000
0100
1000
0100
1000
0100
1000
0000
0000
0000
,  // measure 21
0010
0001
0010
0001
0010
0001
0010
0001
0010
0000
0000
0000
1001
0000
0000
0000
,  // measure 22
0001
0100
0001
0100
0001
0100
0001
0100
0001
0100
0001
0100
0001
0000
0000
0000
,  // measure 23
1000
0010
1000
0010
1000
0010
1000
0010
1000
0000
0000
0000
1001
0000
0000
0000
,  // measure 24
0001
0000
1000
0000
,  // measure 25
0200
0000
0000
0300
,  // measure 26
1000
0000
0001
0000
,  // measure 27
0020
0000
0000
0030
,  // measure 28
0110
0000
0110
0000
0110
0100
0110
0000
,  // measure 29
1001
0000
1001
0000
1001
0001
1001
0000
,  // measure 30
0101
0101
1100
1100
,  // measure 31
1010
0011
1100
0101
,  // measure 32
0001
0100
1000
0100
0010
1000
0001
0000
,  // measure 33
0010
0100
1000
0010
0100
0000
0101
0000
,  // measure 34
0001
0010
0001
1000
0010
0100
0001
0000
,  // measure 35
0100
0010
1000
0100
0010
0000
0011
0000
,  // measure 36
0001
1000
0100
1000
0010
0100
0001
0000
,  // measure 37
1000
0100
0001
0100
1000
0000
1001
0000
,  // measure 38
1000
0001
0100
0010
0100
0010
1000
0000
,  // measure 39
0001
0010
0100
1000
0010
0000
0110
0000
,  // measure 40
0001
1000
0001
1000
0001
1000
0001
1000
0001
1000
0001
1000
0001
0000
0000
0000
,  // measure 41
1000
0001
1000
0001
1000
0001
1000
0001
1000
0000
0000
0000
1001
0000
0000
0000
,  // measure 42
1000
0001
1000
0001
1000
0001
1000
0001
1000
0001
1000
0001
1000
0000
0000
0000
,  // measure 43
0001
1000
0001
1000
0001
1000
0001
1000
0001
0000
0000
0000
1001
0000
0000
0000
,  // measure 44
0002
0100
2003
0100
,  // measure 45
3002
0100
2003
3100
,  // measure 46
0002
0010
2003
0010
,  // measure 47
3002
0010
2003
3010
,  // measure 48
0100
0001
0100
0100
0001
0001
0100
0000
,  // measure 49
0010
0010
1000
1000
0010
0000
1000
0000
,  // measure 50
0001
0001
1000
1000
0100
0100
1000
0000
,  // measure 51
0100
0100
0010
0010
0001
0000
1000
0000
,  // measure 52
0001
0100
0010
1000
0001
0100
0010
1000
0001
0100
0010
1000
0001
0000
0000
0000
,  // measure 53
1000
0010
0100
0001
1000
0010
0100
0001
1000
0000
0000
0000
1001
0000
0000
0000
,  // measure 54
0001
0010
0100
1000
0001
0010
0100
1000
0001
0010
0100
1000
0001
0000
0000
0000
,  // measure 55
1000
0100
0010
0001
1000
0100
0010
0001
1000
0000
0000
0000
1001
0000
0000
0000
,  // measure 56
0001
0100
0010
1000
0100
0010
0100
1000
0010
0100
0001
0010
0100
0000
0000
0000
,  // measure 57
1000
0100
0010
0001
0100
0010
1000
0001
0010
0000
0000
0000
1001
0000
0000
0000
,  // measure 58
0001
0100
0010
1000
0100
0010
0001
0010
0100
1000
0001
0100
0001
0000
0000
0000
,  // measure 59
0100
0010
1000
0001
0010
0100
1000
0001
1000
0000
0000
0000
1001
0000
0000
0000
;

//---------------dance-single - ----------------
#NOTEDATA:;
#CHARTNAME:;
#STEPSTYPE:dance-single;
#DESCRIPTION:;
#CHARTSTYLE:;
#DIFFICULTY:Medium;
#METER:7;
#RADARVALUES:0.416303,0.367118,0.114107,0.263324,0.017555,289.000000,13.000000,30.000000,0.000000,0.000000,0.000000,0.000000,0.000000,0.416303,0.367118,0.114107,0.263324,0.017555,289.000000,13.000000,30.000000,0.000000,0.000000,0.000000,0.000000,0.000000;
#CREDIT:;
#NOTES:
1000
0001
0100
0001
,
0010
0100
1000
1100
,
0100
1000
0010
0100
,
0001
1000
0010
1001
,
0001
0000
0100
0000
0010
1000
0010
0000
,
1000
0000
0001
0000
0010
0100
1000
0000
,
0100
0000
0010
0000
0001
0100
0001
0000
,
0100
0000
0010
0000
0100
0010
1000
0000
,
0001
0100
0010
1000
0001
0100
0010
0000
,
0100
0010
1000
0001
0010
0000
1001
0000
,
1000
0100
0010
0001
1000
0100
0010
0000
,
0010
0001
0010
0100
1000
0000
1001
0000
,
0001
0000
0000
1000
0000
0000
0100
0000
0000
0000
0000
0000
0000
0000
0000
0000
,
1000
0100
0010
0001
0010
0100
1000
0000
,
0001
0000
0000
0100
0000
0000
0010
0000
0000
0000
0000
0000
0000
0000
0000
0000
,
0100
0010
0100
0001
0000
1000
0000
0000
,
0100
0000
0000
1000
0000
0000
0010
0000
0000
0000
0000
0000
0000
0000
0000
0000
,
0100
0000
0001
0000
1000
0001
0100
0000
,
0001
0000
0000
1000
0000
0000
0100
0000
0000
0000
0000
0000
0000
0000
0000
0000
,
1000
0100
0010
0001
1000
0010
0000
0000
,
0100
0100
0001
0001
1000
1000
0100
0000
,
0010
0010
0001
0001
1000
0000
1001
0000
,
0001
0001
1000
1000
0010
0010
0100
0000
,
0100
0100
0010
0010
1000
0000
1001
0000
,
0002
0000
2003
0000
,
0200
0000
3300
0000
,
2000
0000
3002
0000
,
0020
0000
0000
0033
,
0001
0000
0001
0000
0001
0000
0001
0001
,
1000
0000
1000
0000
1000
0000
1000
1000
,
0010
0000
0010
0000
0010
0000
0010
0010
,
0100
0000
0100
0000
0100
0000
0100
0100
,
0010
1000
0010
0100
0001
1000
0000
0200
,
0000
0020
0000
0000
0000
0330
0110
0000
,
0100
0010
0001
1000
0010
0000
0100
0002
,
0000
2003
0000
0200
0000
0000
3300
0000
,
1000
0100
0000
0000
0010
0000
0100
1000
,
0010
0000
0100
0001
1000
0000
1001
0000
,
0001
0100
0010
0000
0100
0010
1000
0000
,
0002
2003
3002
2003
,
3001
1000
0010
1000
0001
0010
0100
0000
,
1000
0001
0100
0001
0100
0000
0110
0000
,
0100
0001
0100
1000
0010
0001
0010
0000
,
0100
0010
1000
0001
0010
0000
0100
0000
,
2000
3000
0020
0030
,
0200
0000
0001
0300
,
2000
3000
0002
0003
,
2000
0000
0100
3000
,
2000
3100
0020
0031
,
0020
0031
2000
3020
,
0230
0310
2000
3001
,
0020
0031
2000
3010
,
0100
0100
0001
0001
1000
1000
0001
0000
,
1000
1000
0010
0010
0100
0000
0110
0000
,
0100
0100
0010
0010
1000
1000
0001
0000
,
1000
1000
0001
0001
0100
0000
0101
0000
,
0001
0001
0001
0001
0001
0001
0001
0000
,
1000
1000
1000
1000
1000
0000
1001
0000
,
0010
0010
0010
0010
0010
0010
0010
0000
,
0100
0100
0100
0100
0100
0000
1001
0000
;

//---------------dance-single - ----------------
#NOTEDATA:;
#CHARTNAME:;
#STEPSTYPE:dance-single;
#DESCRIPTION:;
#CHARTSTYLE:;
#DIFFICULTY:Easy;
#METER:6;
#RADARVALUES:0.331036,0.367118,0.043887,0.087775,0.000000,249.000000,5.000000,10.000000,0.000000,0.000000,0.000000,0.000000,0.000000,0.331036,0.367118,0.043887,0.087775,0.000000,249.000000,5.000000,10.000000,0.000000,0.000000,0.000000,0.000000,0.000000;
#CREDIT:;
#NOTES:
1000
0001
1000
0000
,
0010
0100
0010
0000
,
1000
0010
1000
0000
,
0001
0100
0001
0000
,
1000
0100
0010
0000
,
0100
0010
0001
0000
,
1000
0011
0100
0000
,
0010
0100
0001
1000
,
0001
0100
0001
0100
0001
0100
0001
0000
,
0100
0001
0100
0001
0100
0000
0001
0000
,
1000
0100
1000
0100
1000
0100
1000
0000
,
0100
1000
0100
1000
0100
0000
1000
0000
,
0001
0001
0100
0000
,
0010
1000
0100
0010
,
0001
0001
0010
0000
,
0001
1000
0100
1000
,
0010
0010
0100
0000
,
0010
1000
0001
0010
,
0001
0001
0001
0000
,
1000
0001
0100
0010
,
1000
0010
1000
0010
1000
0010
1000
0000
,
0010
1000
0010
1000
0010
0000
1000
0000
,
0001
0100
0001
0100
0001
0100
0001
0000
,
0100
0001
0100
0001
0100
0000
0001
0000
,
1000
0000
0001
0000
,
0200
0000
0000
0300
,
0001
0000
1000
0000
,
0020
0000
0000
0030
,
1000
1000
1000
1000
,
0001
0001
0001
0001
,
0100
0100
0100
0100
,
0010
0010
0010
0010
,
1000
0001
0010
0001
,
1000
0010
0100
1001
,
0001
1000
0100
1000
,
0010
0100
0001
1001
,
0001
0010
0001
1000
,
0010
0100
0001
1001
,
0001
1000
0100
1000
,
0010
0100
0001
1000
,
0001
1000
0001
1000
0001
1000
0001
0000
,
1000
0001
1000
0001
1000
0000
0001
0000
,
1000
0001
1000
0001
1000
0001
1000
0000
,
0001
1000
0001
1000
0001
0000
1000
0000
,
0002
0000
1000
0000
,
2000
0000
0000
3003
,
2000
0000
0001
0000
,
0002
0000
0000
3003
,
0002
0000
0100
0000
,
0200
0000
0000
0303
,
0100
0000
0020
0000
,
2000
0000
0000
3030
,
1000
0100
0010
0001
1000
0100
0010
0000
,
1000
0100
0010
0001
0010
0000
0100
0000
,
1000
0100
0010
0001
1000
0100
0010
0000
,
0010
0001
0010
0100
1000
0000
0001
0000
,
1000
0001
0100
0010
1000
0001
0100
0000
,
0100
0010
1000
0001
0100
0000
0010
0000
,
0001
0010
0100
1000
0001
0010
0100
0000
,
1000
0100
0010
0001
1000
0000
1001
0000
;

//---------------dance-single - ----------------
#NOTEDATA:;
#CHARTNAME:;
#STEPSTYPE:dance-single;
#DESCRIPTION:;
#CHARTSTYLE:;
#DIFFICULTY:Beginner;
#METER:1;
#RADARVALUES:0.134170,0.236004,0.061442,0.000000,0.000000,100.000000,7.000000,0.000000,0.000000,0.000000,0.000000,0.000000,0.000000,0.134170,0.236004,0.061442,0.000000,0.000000,100.000000,7.000000,0.000000,0.000000,0.000000,0.000000,0.000000,0.000000;
#CREDIT:;
#NOTES:
1000
0000
0000
0000
,
0001
0000
0000
0000
,
1000
0000
0000
0000
,
0001
0000
0000
0000
,
0100
0000
0000
0000
,
0010
0000
0000
0000
,
0100
0000
0000
0000
,
0010
0000
0000
0000
,
1000
0000
1000
0000
,
0001
0000
0001
1001
,
1000
0000
0001
0000
,
0100
0000
0010
0110
,
0100
0000
0000
0000
,
0001
0000
0000
0000
,
0100
0000
0000
0000
,
0010
0000
1000
0000
,
0001
0000
0000
0000
,
1000
0000
0000
0000
,
0100
0000
0000
0000
,
1000
0000
0010
0000
,
0100
0000
0100
0000
,
0001
0001
0001
0000
,
1000
0000
0010
0000
,
1000
1000
1000
0000
,
0001
0000
0000
0000
,
0000
0000
0000
0000
,
1000
0000
0000
0000
,
0000
0000
0000
0000
,
0100
0000
0000
0000
,
0010
0000
0000
0000
,
0001
0000
1000
0000
,
0010
0000
0100
0000
,
0001
0000
1000
1000
,
1000
0000
0000
0000
,
0001
0000
0100
0000
,
0010
0010
0010
0000
,
0100
0000
0001
0000
,
1000
0000
0000
0000
,
0100
0000
1000
0000
,
0010
0000
0000
0000
,
1001
0000
0000
0000
,
0000
0000
0000
0000
,
0000
0000
0000
0000
,
0000
0000
0000
0000
,
0001
0000
1000
0000
,
0100
0000
0000
0000
,
1000
0000
1000
0000
,
0100
0000
0000
0000
,
0010
0000
0001
0000
,
1000
0000
0001
1000
,
0100
0000
0000
0000
,
0000
0000
0000
0000
,
0010
0000
0001
0000
,
1000
0001
1001
0000
,
0001
0000
0100
0000
,
0010
0100
0110
0000
,
0010
0010
0010
0010
,
0100
0100
0100
0110
,
1000
1000
1000
1000
,
0001
0001
0001
1001
;
