#VERSION:0.83;
#TITLE:Rumble In The Jungle;
#SUBTITLE:;
#ARTIST:Zatox;
#TITLETRANSLIT:;
#SUBTITLETRANSLIT:;
#ARTISTTRANSLIT:;
#GENRE:;
#ORIGIN:;
#CREDIT:;
#BANNER:Rumble In The Jungle.png;
#BACKGROUND:Rumble In The Jungle-bg.png;
#PREVIEWVID:;
#JACKET:Rumble In The Jungle-jacket.png;
#CDIMAGE:;
#DISCIMAGE:;
#LYRICSPATH:;
#CDTITLE:;
#MUSIC:Rumble In The Jungle.ogg;
#OFFSET:-4.818996;
#SAMPLESTART:9.611994;
#SAMPLELENGTH:11.200000;
#SELECTABLE:YES;
#BPMS:0.000=150.000;
#STOPS:16.000=1.200,
87.000=0.400,
112.000=4.400,
205.000=1.200;
#DELAYS:;
#WARPS:;
#TIMESIGNATURES:0.000=4=4;
#TICKCOUNTS:0.000=4;
#COMBOS:0.000=1;
#SPEEDS:0.000=1.000=0.000=0;
#SCROLLS:0.000=1.000;
#FAKES:;
#LABELS:0.000=Song Start;
#BGCHANGES:;
#KEYSOUNDS:;
#ATTACKS:
;

//---------------dance-single - ----------------
#NOTEDATA:;
#CHARTNAME:;
#STEPSTYPE:dance-single;
#DESCRIPTION:;
#CHARTSTYLE:;
#DIFFICULTY:Hard;
#METER:8;
#RADARVALUES:0.517121,0.691152,0.437564,0.182981,0.743858,455.000000,400.000000,55.000000,23.000000,0.000000,0.000000,4.000000,0.000000,0.000000,0.517121,0.691152,0.437564,0.182981,0.743858,455.000000,400.000000,55.000000,23.000000,0.000000,0.000000,4.000000,0.000000,0.000000;
#CREDIT:;
#NOTES:
0000
0000
0000
0000
,
1000
0010
0100
0001
,
1000
0001
0100
0010
1000
0001
0010
0100
1000
0100
0010
0100
,
4000
0004
0000
0000
0000
0000
0000
0000
0000
0000
0000
0000
0000
0000
0000
0000
,
3003
1001
0101
0021
,
0100
0000
0000
0031
0010
0001
0100
0010
1000
0001
0010
0100
,
1000
0100
0010
0100
0000
0000
1100
0000
0000
1020
0000
0000
,
0100
0000
0000
1030
0001
0010
0001
1000
0010
1000
0001
1000
,
0100
0110
0011
2100
,
0010
0000
0000
3001
0000
0001
0000
1000
0000
0010
0000
0010
,
0000
0100
0001
0100
0000
0000
1010
0000
0000
0012
0000
0000
,
0100
0000
0000
2003
0000
0000
3100
0001
0100
2000
0000
0000
,
3020
0000
0000
0130
0000
0001
1000
0000
1000
0200
0000
0000
,
0010
0000
0000
1300
0010
0001
0100
0010
1000
0001
0010
0100
,
1000
0100
0010
0100
0000
1000
0010
0000
0010
0200
0000
0000
,
0001
0000
0000
0320
0000
0000
1030
0001
1000
0001
0100
0010
,
2000
3000
0000
1001
0000
0001
1000
0000
1000
0020
0000
0000
,
1000
0000
0000
0130
0000
0100
0001
0000
0001
0010
0000
0010
,
0100
0000
0100
1000
0000
0000
1100
0000
0000
0201
0000
0000
,
0310
0000
1000
2002
0000
0000
0000
0000
0000
0000
0000
0000
,
3003
0000
0000
1000
0000
0001
0100
0000
0001
1000
0000
0000
,
0100
0000
0010
0001
0000
0000
1000
0000
0000
0010
0000
0000
,
0100
0000
0001
0010
0000
0000
0100
0000
1000
0010
0000
0100
,
0001
0000
0000
1010
0000
0100
0002
0000
0000
0013
0000
0000
,
1100
0000
0010
0001
0000
0000
0101
0000
0000
1001
0000
1000
,
0010
0000
0000
0101
0000
0000
2000
0000
0000
3100
0000
0010
,
0001
0000
1010
0000
0010
0000
0110
0000
0100
0010
1000
0001
,
0020
0000
0000
0130
0000
1000
0020
0000
0000
0000
0000
0000
,
0130
1001
0000
0000
,
0000
0101
0000
0000
,
1000
1010
0000
1001
,
0000
0000
0000
0101
0000
0001
0000
0010
0000
0100
0000
0010
,
0001
0100
0010
1010
0000
0000
0000
0000
0000
0000
0000
0000
,
0000
1100
0000
0000
,
0010
0011
0000
1001
,
0000
0000
0000
1010
0000
0010
0000
0100
0000
0001
0000
1000
,
0100
0001
0100
0110
0000
0000
0010
0000
0000
0011
0000
0000
,
0001
0000
0000
1000
0000
0001
1000
0000
1000
0010
0000
0000
,
0100
0101
0100
0110
,
0010
0000
0000
1000
0000
0001
0010
0000
0100
0010
0000
0000
,
0001
1010
1000
1100
,
0100
0110
0010
0011
,
1100
0000
1000
0001
0100
0000
1010
0000
,
0101
0000
0000
0001
1000
0100
0000
0100
1000
0001
1000
0001
,
0010
0100
1000
0002
0000
0000
0103
0000
0000
0200
0000
0000
,
0310
0000
0000
0010
1000
0100
1000
0000
0000
0100
0010
0001
,
0010
1001
0001
0100
,
0010
1000
0010
0100
,
0001
0000
0000
1000
0100
0010
0001
1000
0100
0010
0001
0100
,
0010
1000
0001
0100
0010
1000
0001
0010
0100
1000
0100
0010
,
0001
0000
0000
0000
1000
0000
0000
0000
0100
0000
0000
0000
0040
0000
0000
0004
0000
0000
0000
0000
0000
0000
0000
0000
0000
0000
0000
0000
0000
0000
0000
0000
0000
0000
0000
0000
0000
0000
0000
0000
0000
0000
0000
0000
0000
0000
0000
0000
,
0000
0000
0000
0033
0000
0000
1001
0000
1000
0000
0010
0000
,
0100
0000
0001
0000
0010
0001
0100
0000
0010
0000
1000
0000
,
0001
0000
0100
0000
0001
0010
0100
0000
0010
0000
0001
0000
,
1000
0000
0010
0100
0000
0100
0101
0000
1010
0000
1100
0000
,
1001
0000
0000
0000
0000
0000
1000
0000
0001
0000
0100
0000
,
0010
0000
1000
0000
0010
0100
0001
0000
0010
0000
1000
0000
,
0010
0000
0100
0000
1000
0010
0001
0000
0101
0000
1010
0000
,
1001
0000
1000
0001
0000
0001
0100
0010
0100
0010
0100
0010
,
0100
0000
0010
1000
0100
0010
0001
0000
1000
0000
0100
0000
,
0001
0000
0100
0000
1000
0100
0010
0000
0100
0000
1000
0000
,
0010
0000
0001
0000
0100
0010
1000
0000
0001
0000
0100
0000
,
1000
0000
0001
1000
0000
1000
1001
0000
1010
0000
1001
0000
,
0011
0000
0001
0200
0000
0000
0310
0000
1000
0000
0001
0000
,
0010
0000
1000
0000
0010
0100
1000
0000
0100
0000
0001
0000
,
0100
0000
0010
0000
0001
1000
0010
0000
1000
0000
0100
0000
,
1000
0000
0001
0100
0000
0100
0001
1000
0001
1000
0001
1000
,
0001
0000
0010
0001
0010
0100
0020
0000
0000
0000
0000
0000
,
0000
0000
0000
0000
,
0000
0000
0030
0000
;

//---------------dance-single - ----------------
#NOTEDATA:;
#CHARTNAME:;
#STEPSTYPE:dance-single;
#DESCRIPTION:;
#CHARTSTYLE:;
#DIFFICULTY:Medium;
#METER:6;
#RADARVALUES:0.333003,0.510159,0.381874,0.127291,0.202870,293.000000,245.000000,48.000000,16.000000,0.000000,0.000000,7.000000,0.000000,0.000000,0.333003,0.510159,0.381874,0.127291,0.202870,293.000000,245.000000,48.000000,16.000000,0.000000,0.000000,7.000000,0.000000,0.000000;
#CREDIT:;
#NOTES:
0000
0000
0000
0000
,
1000
0001
0100
0010
,
1000
0010
0100
0001
,
1001
0110
2002
0000
,
3003
1010
0101
0012
,
0000
4000
0000
0000
,
3003
1010
0101
0012
,
0000
0040
0000
0000
,
0033
1100
1010
1200
,
0000
0040
0000
0000
,
0330
0011
1100
1002
,
0000
0000
0000
1003
0000
0000
0001
0100
0010
1000
0000
0000
,
0200
0310
0001
2100
,
0000
0004
0000
0000
,
3003
1010
0110
0201
,
0000
0000
0000
0301
0000
0000
1100
0000
0000
0100
0010
0001
,
1000
1010
0101
0021
,
0000
0400
0000
0000
,
0330
0110
1001
1020
,
0130
0000
0001
2000
0000
0000
0000
0000
0000
0000
0000
0000
,
0000
3100
0001
0100
,
1000
0010
0100
0001
,
1000
0010
0100
0010
,
1000
0000
0000
0001
0000
0010
0100
0000
0000
1000
0000
0000
,
0100
1000
0010
0100
,
0001
0010
0001
0000
,
1000
0000
0001
0000
0100
0000
0010
0000
0100
0010
0100
0001
,
1000
0000
0000
0010
0000
1000
0002
0000
0000
0000
0000
0000
,
0013
1100
0000
0000
,
0000
0011
0000
0000
,
0000
1001
0000
1010
,
0000
0000
0000
0101
0000
0100
0000
0001
0000
0100
0000
0000
,
0000
1001
0000
0000
,
0000
1100
0000
0000
,
0000
0110
0000
0011
,
0000
0000
0000
0010
0000
0100
0000
1000
0000
0001
0000
1000
,
0100
0010
0001
1000
0000
0000
0000
0000
0000
1000
0000
0000
,
0000
0001
0010
0001
,
0100
0010
0000
0010
,
0000
0100
0010
1000
,
0100
0010
0000
0010
,
0000
0010
0000
0100
,
1000
0001
0100
0001
,
1000
0200
0000
0000
,
0300
0110
0000
0011
,
0000
1100
0000
0101
,
0000
0001
1000
0010
,
0100
0001
0100
0010
,
1000
1001
1001
0101
,
0101
0011
0011
1100
,
1100
4004
0000
0000
,
0000
3003
0001
0100
,
0001
0010
0001
1000
,
0100
1000
0010
0100
,
0001
0000
0000
1000
0000
0010
0100
0000
0001
0000
0010
0000
,
0100
0000
0010
0001
,
1000
0000
0000
0100
0010
0001
1000
0000
0000
0010
0000
0000
,
0100
0000
0000
0001
0000
1000
0001
0000
0010
0000
1000
0000
,
0010
0000
0100
1000
0000
1000
0001
0100
0001
0100
0001
0100
,
0002
0203
0310
1000
,
0100
1000
0001
0010
,
0001
0100
0010
0010
,
1000
0000
0000
0001
0000
0010
0100
0000
0100
0000
1000
0000
,
0001
0000
1000
0001
,
0100
0000
0000
1000
0100
0010
1000
0000
0000
0001
0000
0000
,
0010
0000
0000
0100
0010
0001
1000
0000
1000
0000
0001
0000
,
0010
0000
0100
1000
0000
1000
0010
0100
0001
0010
0100
1000
,
0001
0000
1000
0100
0010
0001
1000
0000
0000
0000
0000
0000
;

//---------------dance-single - ----------------
#NOTEDATA:;
#CHARTNAME:;
#STEPSTYPE:dance-single;
#DESCRIPTION:;
#CHARTSTYLE:;
#DIFFICULTY:Easy;
#METER:4;
#RADARVALUES:0.264811,0.429608,0.350051,0.151158,0.000000,233.000000,189.000000,44.000000,19.000000,0.000000,0.000000,0.000000,0.000000,0.000000,0.264811,0.429608,0.350051,0.151158,0.000000,233.000000,189.000000,44.000000,19.000000,0.000000,0.000000,0.000000,0.000000,0.000000;
#CREDIT:;
#NOTES:
0000
0000
0000
0000
,
0001
1000
0001
1000
,
0001
1000
0001
1000
,
0020
0000
0000
0000
,
0030
0100
0001
0020
,
0000
0130
0100
1000
,
1000
0001
1000
0020
,
0000
0130
0100
0001
,
0010
0001
0001
2000
,
0000
3100
0010
0100
,
1000
0001
0100
0020
,
0000
0130
0101
1010
,
1001
0001
1000
0020
,
0000
1030
1000
0010
,
0100
0001
0010
0200
,
0000
0320
0230
1300
,
0101
0001
0010
0002
,
0000
1003
0001
1000
,
0100
1000
0010
0100
,
0010
2002
0000
0000
,
3003
0001
1000
0010
,
1000
0100
0100
0000
,
1000
0001
0010
0001
,
1001
0110
1001
0110
,
1001
0001
1000
0010
,
1000
1000
0000
0000
,
0010
0100
0001
1000
,
0101
1010
2002
0000
,
3003
0010
0000
0000
,
0000
0100
0000
0000
,
0000
0001
0000
1000
,
0000
0010
0000
0000
,
0000
0100
0000
0000
,
0000
0010
0000
0000
,
0000
1000
0000
1000
,
0000
0001
0000
0000
,
0000
1000
0000
1000
,
0000
0001
1000
0001
,
0000
1000
0000
1000
,
0000
0001
0010
0001
,
0000
0100
0000
0100
,
0000
0100
0000
0010
,
0100
0001
0001
1000
,
0100
2000
0000
0000
,
3000
0101
0000
1010
,
0000
1100
0000
0011
,
0000
2000
0000
0000
,
0000
3200
0000
0000
,
0000
0320
0000
0000
,
0000
0032
0000
0000
,
0000
1003
0001
0100
,
0000
0000
1001
0001
,
0010
0001
1001
1000
,
0010
1000
1001
0001
,
0001
0001
1001
0000
,
0000
0000
0110
1000
,
0010
0100
0110
0100
,
0001
0100
0110
0000
,
1001
0000
0101
1010
,
1001
0000
1001
1000
,
0100
1000
1001
0001
,
0100
0001
1001
0010
,
1001
0100
0101
0101
,
1001
0000
1001
1000
,
0100
1000
1001
0001
,
0100
0001
0101
0100
,
0110
0010
1010
0101
,
0011
1100
1001
0000
;

//---------------dance-single - ----------------
#NOTEDATA:;
#CHARTNAME:;
#STEPSTYPE:dance-single;
#DESCRIPTION:;
#CHARTSTYLE:;
#DIFFICULTY:Beginner;
#METER:2;
#RADARVALUES:0.114789,0.214804,0.055690,0.000000,0.000000,101.000000,94.000000,7.000000,0.000000,0.000000,0.000000,0.000000,0.000000,0.000000,0.114789,0.214804,0.055690,0.000000,0.000000,101.000000,94.000000,7.000000,0.000000,0.000000,0.000000,0.000000,0.000000,0.000000;
#CREDIT:;
#NOTES:
// measure 0
0000
0000
0000
0000
,  // measure 1
0010
0000
0000
0000
,  // measure 2
0000
0000
0000
0000
,  // measure 3
0100
0100
0100
0000
,  // measure 4
0000
1000
0000
0001
,  // measure 5
0000
0100
0000
0000
,  // measure 6
0000
0010
0000
0100
,  // measure 7
0000
0010
0000
0000
,  // measure 8
0000
1000
0000
0001
,  // measure 9
0000
0001
0000
0000
,  // measure 10
0000
1000
0000
1000
,  // measure 11
0000
0010
0000
0000
,  // measure 12
0000
0000
0000
1001
,  // measure 13
0000
1000
0000
0000
,  // measure 14
0000
0000
0000
0110
,  // measure 15
0000
0100
0000
0001
,  // measure 16
0001
1000
0000
1001
,  // measure 17
0000
0001
0000
0000
,  // measure 18
0000
0100
0000
0010
,  // measure 19
0000
1001
0000
0000
,  // measure 20
0000
1000
0000
0000
,  // measure 21
0000
0001
0000
0000
,  // measure 22
0100
0000
0000
0000
,  // measure 23
0010
0010
0010
0000
,  // measure 24
1000
0000
0000
0000
,  // measure 25
0001
0000
0000
0000
,  // measure 26
0100
0000
0000
0010
,  // measure 27
0010
0000
0100
0000
,  // measure 28
1001
1000
0000
0000
,  // measure 29
0000
1000
0000
0000
,  // measure 30
0000
0001
0000
0001
,  // measure 31
0000
0001
0000
0000
,  // measure 32
0000
0100
0000
0000
,  // measure 33
0000
0100
0000
0000
,  // measure 34
0000
0010
0000
0010
,  // measure 35
0000
0010
0000
0000
,  // measure 36
0000
1000
0000
1000
,  // measure 37
0000
0000
0000
0000
,  // measure 38
0000
0001
0000
0001
,  // measure 39
0000
0000
0000
0000
,  // measure 40
0000
0100
0000
0100
,  // measure 41
0000
0100
0000
0000
,  // measure 42
0000
0010
0000
1000
,  // measure 43
0000
1001
0000
0000
,  // measure 44
0000
0001
0000
0000
,  // measure 45
0000
1000
0000
0000
,  // measure 46
0000
0010
0010
0000
,  // measure 47
0000
0000
0000
0000
,  // measure 48
0000
0100
0100
0000
,  // measure 49
0000
0000
0000
0000
,  // measure 50
0000
0010
0000
0100
,  // measure 51
0000
0000
1000
0000
,  // measure 52
0000
0000
0001
0000
,  // measure 53
0000
0000
0100
0000
,  // measure 54
0010
0000
1000
0000
,  // measure 55
0000
0000
0001
0000
,  // measure 56
0000
0000
1000
0000
,  // measure 57
0000
0000
0100
0000
,  // measure 58
1000
0000
0010
0100
,  // measure 59
0010
0000
0100
0000
,  // measure 60
0000
0000
0001
0000
,  // measure 61
0000
0000
1000
0000
,  // measure 62
0000
0000
0010
0000
,  // measure 63
0010
0000
0100
0000
,  // measure 64
0000
0000
0001
0000
,  // measure 65
0000
0000
1000
0000
,  // measure 66
0001
0000
1000
0001
,  // measure 67
1000
0000
1001
0000
;
