#TITLE:Rock it for Me;
#SUBTITLE:;
#ARTIST:Caravan Palace;
#TITLETRANSLIT:;
#SUBTITLETRANSLIT:;
#ARTISTTRANSLIT:;
#GENRE:;
#CREDIT:;
#BANNER:Rock it for Me.png;
#BACKGROUND:Rock it for Me-bg.png;
#LYRICSPATH:;
#CDTITLE:;
#MUSIC:Rock it for Me.ogg;
#OFFSET:-5.920001;
#SAMPLESTART:27.424435;
#SAMPLELENGTH:13.584908;
#SELECTABLE:YES;
#BPMS:0.000000=212.000000
;
#STOPS:378.000000=0.283000
;
#BGCHANGES:;
#KEYSOUNDS:;
#ATTACKS:;

//---------------dance-single - ----------------
#NOTES:
     dance-single:
     :
     Hard:
     9:
     0.535737,0.666351,0.175539,0.047874,0.538587,470.000000,448.000000,22.000000,6.000000,0.000000,0.000000,0.535737,0.666351,0.175539,0.047874,0.538587,470.000000,448.000000,22.000000,6.000000,0.000000,0.000000:
0000
0000
0000
0000
,
0000
0000
0000
0000
,
0000
0000
0000
0000
,
1000
0000
0000
0010
0000
0000
0100
0000
0000
0000
0000
0001
,
0010
0000
0000
0100
0000
0000
1000
0000
0001
0000
0000
0000
,
0000
0000
1000
0010
0000
0100
0010
0000
0000
0000
0000
0100
,
0001
0000
0000
0010
0000
0000
0100
0000
1000
0100
0000
0100
,
1000
0001
0010
1000
,
0010
0100
1000
0001
,
1000
0000
0001
1000
0000
0000
1000
0000
1000
0001
0000
0000
,
0001
0000
0001
1000
0000
1000
0001
0000
0001
0100
0000
0100
,
0010
1000
0001
0010
0100
0010
0001
1000
,
0001
0000
0010
0100
0000
0100
1000
0000
0000
0001
0000
0000
,
1000
0010
0001
0010
1000
0100
0010
0001
,
1000
0000
0100
0010
0000
0010
0001
0000
0001
1000
0000
0000
,
0010
0000
0100
0001
0000
0000
1000
0000
0001
0010
0000
0000
,
0100
0000
1000
0010
0000
0010
0100
0000
0100
0001
0000
0010
,
0100
0000
0000
1000
0000
0001
0010
0000
0100
0000
0000
1001
,
0000
0000
0000
0000
,
1000
0000
0001
0100
0000
0000
0010
0000
0000
1000
0000
0000
,
1100
1000
1010
0010
,
0100
0000
0001
0010
0000
0000
0100
0000
0000
1000
0000
0000
,
0101
0001
0011
0010
,
0100
0000
1000
0010
0000
0000
0100
0000
0001
0010
0000
0000
,
0100
0000
1000
0100
0000
0100
0010
0000
0010
0001
0000
1000
,
0010
0100
0001
0010
,
0100
0000
1000
0001
0000
1010
0000
0000
0000
0000
0000
0000
,
0001
0000
1000
0010
0000
0000
0100
0000
0000
0001
0000
0000
,
0011
0001
0101
0100
,
0010
0000
1000
0100
0000
0000
0010
0000
0000
0001
0000
0000
,
1010
1000
1100
0100
,
0010
0000
0001
0100
0000
0000
0010
0000
1000
0100
0000
0000
,
0010
0000
0001
0010
0000
0010
0100
0000
0100
1000
0000
0001
,
0100
0010
1000
0100
,
0010
0000
0001
1000
0000
0101
0000
0000
0000
0000
0000
0000
,
0001
0000
0010
0000
,
0001
0000
0000
0000
0000
1000
0000
0000
0000
0000
0000
0000
,
0100
0000
0010
0000
,
0100
0000
0000
0000
0000
0100
0000
0000
0000
0000
0000
0000
,
0010
0000
0001
0000
,
1000
0000
0000
0000
0000
0001
0000
0000
0000
0000
0000
0000
,
1000
0000
0001
0000
,
0010
0000
0000
0000
0000
0010
0000
0000
0000
0000
0000
0000
,
0001
0001
1000
1000
,
0010
0010
0100
0100
,
0010
0010
1000
1000
,
0001
0001
1000
1000
,
0001
0100
0001
0100
,
0010
1000
0010
1000
,
0001
0010
1000
0010
,
0001
0000
0000
0100
0000
0000
1000
0000
0000
0100
0000
1001
,
0000
0000
0000
0000
0201
0000
0000
0000
0000
0000
0300
0000
0001
0000
0000
0000
0000
0000
1000
0000
0000
0001
0000
0000
,
1000
0000
0000
1000
0000
0000
0010
0000
0000
0100
0000
0001
,
0000
0000
0010
0100
0000
0000
1000
0000
0000
0001
0000
0000
,
0100
0000
0010
1000
0000
0000
0100
0000
0000
0010
0000
0001
,
0000
0000
2000
0010
3000
0000
1000
0000
0000
0404
0000
0000
,
0000
0000
0000
0000
0000
0303
0100
0000
0000
0010
0000
1000
,
0000
0000
0100
0010
0000
0000
0001
0000
0000
1000
0000
0000
,
0010
0000
1000
0010
0000
0100
0001
0000
0001
0010
0000
0100
,
0000
0000
1001
0000
0000
0000
1000
0000
0000
0001
1000
0001
,
1000
0000
0000
0100
0000
0000
1000
0000
0000
0001
0000
0100
,
0000
0000
0010
1000
0000
0000
0100
0000
0000
1000
0000
0000
,
0001
0000
0100
0010
0000
0100
0010
0000
0000
1000
0000
1001
,
0000
0000
0020
0000
0000
0030
0100
0000
0000
1000
0000
0000
,
0100
0000
0000
0001
0000
0000
0100
0000
0000
0010
0000
1000
,
0001
0000
0000
0010
0000
0100
1000
0000
0000
0010
0000
0000
,
0100
0000
0001
0100
0000
0010
2000
0000
0000
3001
0000
0020
,
0030
0001
0001
0000
,
1000
0000
0000
0000
0000
0001
0000
0000
0000
0000
0000
0000
,
0000
0100
0010
0000
,
1000
0000
0000
0000
0000
1000
0000
0000
0000
0000
0000
0000
,
0100
0000
0010
0000
0000
0001
0000
0000
0010
0000
0000
0100
,
0000
0000
1000
0000
0000
0001
0000
0000
1000
0001
0000
0010
,
0000
0000
0000
0000
0000
0100
0000
0000
0000
0000
0000
0000
,
1000
0001
1000
0001
0000
1000
0001
0000
0001
1000
0000
0000
,
0001
0000
1000
0010
0000
0000
0100
0000
0000
0010
0000
0000
,
0101
0001
0011
1000
,
0001
0000
0010
0100
0000
0000
1000
0000
0000
0001
0000
0000
,
1010
0010
0110
0001
,
0100
0000
0001
0100
0000
0000
0010
0000
1000
0010
0000
0000
,
0100
0000
0010
1000
0000
1000
0100
0000
0100
0010
0000
0001
,
1000
0000
0000
0001
0000
0000
0010
0000
0100
1000
0000
0000
,
0010
0000
0100
0010
0000
1001
0000
0000
0000
0000
0000
0000
,
0001
0000
1000
0010
0000
0010
0100
0000
0100
0001
0000
0001
,
0010
0000
0010
0100
0000
0100
1000
0000
1000
0001
0000
0000
,
1000
0000
0100
0010
0000
0010
0001
0000
0001
0100
0000
0100
,
0010
0000
0010
1000
0000
1000
0001
0000
0001
1000
0000
0000
,
0001
0000
0100
0001
0000
0001
0010
0000
0010
0001
0000
0001
,
0100
0000
0100
0010
0000
0010
1000
0000
1000
0100
0000
0100
,
1000
0000
0100
0010
0000
0010
0001
0000
0001
0100
0000
0100
,
0010
0000
0000
0000
0000
1001
0000
0000
0000
0000
0000
0000
,
1000
0000
0000
0000
0000
0010
0000
0000
0000
0100
0000
0000
,
0001
0010
0001
1000
,
0100
0000
0000
0000
0000
1000
0000
0000
0000
0010
0000
0000
,
0100
0001
1000
0001
,
0000
0000
0020
0000
0000
0000
0031
0000
0000
1000
0000
0000
,
0100
1000
0001
1000
,
0000
0000
0010
0000
0000
0000
0100
0000
0000
0001
0000
0000
,
1000
0001
0000
0000
;

//---------------dance-single - ----------------
#NOTES:
     dance-single:
     :
     Easy:
     4:
     0.256470,0.352774,0.023937,0.023937,0.000000,225.000000,222.000000,3.000000,3.000000,0.000000,0.000000,0.256470,0.352774,0.023937,0.023937,0.000000,225.000000,222.000000,3.000000,3.000000,0.000000,0.000000:
0000
0000
0000
0000
,
0000
0000
0000
0000
,
0000
0000
0000
0000
,
1000
0000
0001
0000
,
0100
0001
0100
0000
,
0010
0000
1000
0000
,
0001
1000
0001
0000
,
1000
0000
0010
0000
,
0100
0001
0100
0000
,
0001
0000
1000
0000
,
0100
1000
0100
0000
,
1000
0000
0001
0000
,
0100
0100
0100
0000
,
0001
0000
1000
0000
,
0010
0010
0010
0000
,
1000
0000
0001
0000
,
0100
0100
0100
0000
,
0010
0000
0100
0000
,
1001
0000
0000
0000
,
0001
0000
1000
0000
,
0010
1000
0010
0000
,
1000
0000
0001
0000
,
0010
0001
0010
0000
,
0100
0000
1000
0000
,
0010
0000
0100
0001
,
0100
0000
0001
0000
,
1000
1000
1000
0000
,
0001
0000
1000
0000
,
0010
1000
0100
0000
,
0010
0000
0100
0000
,
0010
0001
0100
0000
,
0001
0000
1000
0000
,
0010
0000
0100
0100
,
0100
0000
0010
0000
,
1000
0001
1000
0000
,
1001
0000
0001
0000
,
1000
0000
0000
0000
,
0010
0000
0100
0000
,
0010
0000
0000
0000
,
1000
0000
0001
0000
,
0010
0000
0000
0000
,
0001
0000
1000
0000
,
0100
0000
0000
0000
,
1000
0000
0000
0000
,
0001
0000
0000
0000
,
0100
0000
0000
0000
,
0010
0000
0000
0000
,
1000
0000
0000
0000
,
0010
0000
0000
0000
,
0100
0000
0000
0000
,
0001
0000
0000
0000
,
1001
0000
0001
0000
,
1000
1000
0001
1000
,
0001
0000
0100
0000
,
0010
0000
1000
0000
,
0010
1000
0100
0020
,
0000
0000
0130
0000
,
0010
0000
0001
0000
,
0001
1000
0001
0000
,
1000
0000
0010
0000
,
0100
0001
1000
0001
,
1000
0000
0100
0000
,
1000
1000
1000
0000
,
0010
0000
0100
0000
,
0001
1000
0001
0010
,
0001
0000
1000
0000
,
0100
1000
0010
0000
,
0000
0000
0100
0000
,
0001
0000
0010
0000
,
0000
0000
0100
0000
,
1000
0000
0001
0000
,
1000
0000
0001
0000
,
0100
0000
0001
0000
,
0010
0000
0100
0000
,
0020
0000
0000
0030
,
0100
1000
0001
0000
,
1000
0010
1000
0000
,
0010
0100
0001
0000
,
1000
0001
1000
0000
,
0001
0010
0001
0100
,
0010
1000
0001
1000
,
0001
0000
1000
0000
,
0010
1000
0010
0000
,
1000
1000
0001
0001
,
0100
0010
0100
0010
,
0100
0100
0010
0010
,
1000
0001
1000
0001
,
1000
0100
1000
0001
,
0100
0001
1000
0010
,
1000
0001
0010
0001
,
1000
0010
0100
0000
,
0001
0000
0000
0000
,
1000
0000
0000
0000
,
0010
0000
0000
0000
,
0100
0000
0010
0100
,
0000
0020
0030
1000
,
0000
0000
0000
0001
,
0000
0010
0000
0001
,
1000
0001
0000
0000
;

//---------------dance-single - ----------------
#NOTES:
     dance-single:
     :
     Medium:
     6:
     0.372736,0.509563,0.079791,0.087770,0.123675,327.000000,317.000000,10.000000,11.000000,0.000000,0.000000,0.372736,0.509563,0.079791,0.087770,0.123675,327.000000,317.000000,10.000000,11.000000,0.000000,0.000000:
0000
0000
0000
0000
,
0000
0000
0000
0000
,
0000
0000
0000
0000
,
1000
0001
1000
0000
,
0010
0000
0000
1000
0000
0000
0010
0000
0100
0000
0000
0000
,
0000
0000
0001
0100
0000
0000
0001
0000
0000
0000
0000
0000
,
0010
0000
0000
0001
0000
0000
1000
0000
0100
0000
0000
0000
,
1000
0010
0100
0001
,
0010
0001
1000
0010
,
0101
0001
1001
1000
,
0100
0010
0001
1000
,
0001
0100
0001
0100
0001
0100
0001
1000
,
0100
0010
0001
0000
,
1000
0010
1000
0010
1000
0010
1000
0001
,
1000
0100
1000
0000
,
0001
0100
0001
0010
,
1000
0010
0100
1000
,
0010
0000
0100
0001
0010
0001
0000
1001
,
0000
0000
0000
0000
,
0000
0000
1000
0100
0000
0000
0010
0000
0000
0000
0000
0000
,
0100
0000
0000
0000
0000
0200
0000
0000
0000
0300
0000
0000
,
0000
0000
1000
0001
0000
0000
0100
0000
0000
0000
0000
0000
,
0010
0000
0000
0000
0000
0020
0000
0000
0000
0030
0000
0000
,
0100
0001
0010
1000
,
0010
0100
0010
0001
,
1000
0010
0100
0001
,
1000
0000
0000
0000
0000
0011
0000
0000
0000
0000
0000
0000
,
0000
0000
0001
0010
0000
0000
0100
0000
0000
0000
0000
0000
,
0010
0000
0000
0000
0000
0020
0000
0000
0000
0030
0000
0000
,
0000
0000
0001
1000
0000
0000
0010
0000
0000
0000
0000
0000
,
0100
0000
0000
0000
0000
0200
0000
0000
0000
0300
0000
0000
,
0010
1000
0100
0001
,
0100
0010
0100
1000
,
0001
0100
0010
1000
,
0001
0000
0000
0000
0000
1100
0000
0000
0000
0000
0000
0000
,
1000
0000
0010
0000
,
1000
0000
0000
0000
0000
1000
0000
0000
0000
0000
0000
0000
,
0001
0000
0010
0000
,
0001
0000
0000
0000
0000
0001
0000
0000
0000
0000
0000
0000
,
0100
0000
0001
0000
,
0010
0000
0000
0000
0000
0010
0000
0000
0000
0000
0000
0000
,
0001
0000
1000
0000
,
0100
0000
0000
0000
0000
0100
0000
0000
0000
0000
0000
0000
,
1000
0100
1000
0000
,
0100
0010
0100
0000
,
0010
0001
0010
0000
,
0001
1000
0001
0000
,
0100
0001
0100
0001
,
0100
0010
0100
0010
,
1000
1000
0001
0001
,
1000
0000
0000
0001
0000
0000
1000
0000
0000
0000
0000
0010
,
0000
0000
0000
0000
0010
0000
0000
0000
0000
0000
0000
0000
0010
0000
0000
0000
0000
0000
0100
0000
0000
0001
0000
0000
,
0100
0000
0000
0001
0000
0000
1000
0000
0000
0010
0000
0100
,
0000
0000
0001
1000
0000
0000
0100
0000
0000
1000
0000
0000
,
0010
0000
0000
0100
0000
0000
0001
0000
0000
0000
0000
1000
,
0000
0000
0020
0000
0030
0000
0100
0000
0000
0022
0000
0000
,
0000
0000
0000
0033
0000
0000
0010
0000
0000
0001
0000
1000
,
0000
0100
0010
0001
,
1000
0010
0001
0010
,
0000
1001
0000
0000
0000
0000
1000
0010
,
1000
0000
0000
0010
0000
0000
0100
0000
0000
0001
0000
0010
,
0000
0000
0100
1000
0000
0000
0010
0000
0000
1000
0000
0000
,
0001
0010
0001
1000
,
0001
0000
0200
0000
0300
0000
0010
0000
0000
1000
0000
0000
,
0001
0000
0000
0010
0000
0000
0001
0000
0000
1000
0000
0001
,
0000
0100
0001
0010
,
0001
1000
0010
0001
,
0000
0010
0100
0000
,
0010
0000
0000
0000
0000
1000
0000
0000
0000
0000
0000
0000
,
0000
0100
0010
0000
,
0100
0000
0000
0000
0000
0100
0000
0000
0000
0000
0000
0000
,
1000
0000
0001
0000
,
0100
0000
0010
0100
,
0010
0000
1000
0000
,
0102
0000
0000
0000
0000
0013
0000
0000
0000
0000
0000
0000
,
0001
1000
0010
1000
,
0100
1000
0010
0100
,
0001
0010
0001
0100
,
0010
1000
0100
1000
,
0010
0100
0010
0100
,
0001
1000
0001
1000
,
0100
1000
0010
0100
,
0001
0000
0000
1010
0000
0000
0000
0000
,
1000
0010
0001
0010
,
1000
0100
0001
0100
,
1000
0010
0001
0010
,
0100
0001
0100
1000
,
0100
0001
0010
1000
,
0010
0001
0100
1000
,
0100
0010
0100
0001
,
1000
0000
0000
0110
0000
0000
0000
0000
,
0001
0000
1000
0000
,
0001
0100
0001
0000
,
1000
0000
0001
0000
,
1000
0100
1000
0100
,
0000
0020
0030
0001
,
1000
0001
0000
0010
,
0000
0000
0200
0300
0000
0000
0010
0000
,
0001
0010
0000
0000
;

//---------------dance-single - ----------------
#NOTES:
     dance-single:
     :
     Beginner:
     2:
     0.139064,0.311981,0.047874,0.000000,0.000000,122.000000,116.000000,6.000000,0.000000,0.000000,0.000000,0.139064,0.311981,0.047874,0.000000,0.000000,122.000000,116.000000,6.000000,0.000000,0.000000,0.000000:
// measure 0
0000
0000
0000
0000
,  // measure 1
0000
0000
0000
0000
,  // measure 2
0000
0000
0000
0000
,  // measure 3
1000
0000
0000
0000
,  // measure 4
0001
0000
0001
0000
,  // measure 5
0000
0100
0100
0000
,  // measure 6
0010
0000
0010
0000
,  // measure 7
1000
0000
0000
0000
,  // measure 8
0001
0000
0000
0000
,  // measure 9
0100
0000
0100
0000
,  // measure 10
0010
0010
0010
0000
,  // measure 11
1000
0000
0000
0000
,  // measure 12
0001
0000
0000
0000
,  // measure 13
0100
0000
0000
0000
,  // measure 14
0010
0000
0000
0000
,  // measure 15
1000
0000
0000
0000
,  // measure 16
1000
0000
0000
0000
,  // measure 17
0001
0000
1000
0000
,  // measure 18
0001
0000
0000
0000
,  // measure 19
0100
0000
0000
0000
,  // measure 20
0010
0000
0010
0000
,  // measure 21
0000
0000
0100
0000
,  // measure 22
0010
0000
0010
0000
,  // measure 23
1000
0000
0000
0000
,  // measure 24
0001
0000
0000
0000
,  // measure 25
0100
0000
0000
0000
,  // measure 26
0010
0000
0010
0000
,  // measure 27
0000
1000
1000
0000
,  // measure 28
0001
0000
0000
0000
,  // measure 29
0000
0100
0100
0000
,  // measure 30
0010
0000
0000
0000
,  // measure 31
0100
0000
0000
0000
,  // measure 32
0001
0000
0000
0000
,  // measure 33
1000
0000
0000
0000
,  // measure 34
0010
0000
0010
0000
,  // measure 35
0100
0000
0000
0000
,  // measure 36
0000
0000
0000
0000
,  // measure 37
0001
0000
0000
0000
,  // measure 38
0000
0000
0000
0000
,  // measure 39
1000
0000
0000
0000
,  // measure 40
0000
0000
0000
0000
,  // measure 41
0001
0000
0000
0000
,  // measure 42
0000
0000
0000
0000
,  // measure 43
0010
0000
0000
0000
,  // measure 44
0100
0000
0000
0000
,  // measure 45
1000
0000
0000
0000
,  // measure 46
0001
0000
0000
0000
,  // measure 47
1000
0000
0000
0000
,  // measure 48
1000
0000
0000
0000
,  // measure 49
0001
0000
0000
0000
,  // measure 50
0001
0000
0000
0000
,  // measure 51
0110
0000
0000
0000
,  // measure 52
0100
0000
0000
0000
,  // measure 53
0010
0000
0000
0000
,  // measure 54
0000
0000
0000
0000
,  // measure 55
1000
0000
0000
0001
,  // measure 56
0000
0000
1000
0000
,  // measure 57
1000
0000
0000
0000
,  // measure 58
0000
0000
0000
0000
,  // measure 59
0010
0000
0000
0100
,  // measure 60
0100
0000
0010
0000
,  // measure 61
1000
0000
0000
0000
,  // measure 62
0000
0000
0000
0000
,  // measure 63
0001
0000
0000
0000
,  // measure 64
1000
0000
0001
0000
,  // measure 65
1000
0000
0000
0000
,  // measure 66
0010
0000
0000
0000
,  // measure 67
0100
0000
0000
0000
,  // measure 68
0000
0000
0000
0000
,  // measure 69
0010
0000
0000
0000
,  // measure 70
0000
0000
0000
0000
,  // measure 71
1000
0000
0000
0000
,  // measure 72
0001
0000
0000
0000
,  // measure 73
0100
0000
0010
0000
,  // measure 74
1000
0000
1000
0000
,  // measure 75
1001
0000
0000
0000
,  // measure 76
0001
0000
0000
0000
,  // measure 77
1001
0000
0000
0000
,  // measure 78
1000
0000
0000
0000
,  // measure 79
0010
0000
0000
0000
,  // measure 80
0100
0000
0000
0000
,  // measure 81
0010
0000
1000
0000
,  // measure 82
0001
0000
1000
0000
,  // measure 83
0000
0001
0001
0000
,  // measure 84
1000
0000
0100
0000
,  // measure 85
0000
1000
1000
0000
,  // measure 86
0001
0000
0010
0000
,  // measure 87
0110
0000
0100
0000
,  // measure 88
1001
0000
0010
0000
,  // measure 89
1001
0000
1000
0000
,  // measure 90
0001
0000
0001
0000
,  // measure 91
1000
0000
0000
0000
,  // measure 92
0010
0000
0000
0000
,  // measure 93
0100
0000
0000
0000
,  // measure 94
0001
0000
0000
1000
,  // measure 95
0000
0000
0000
0100
,  // measure 96
0000
0000
0000
1000
,  // measure 97
0000
0000
0000
0001
;
