#VERSION:0.81;
#TITLE:Rise;
#SUBTITLE:(Leave Me Alone);
#ARTIST:Safri Duo feat. Clark Anderson;
#TITLETRANSLIT:;
#SUBTITLETRANSLIT:;
#ARTISTTRANSLIT:;
#GENRE:;
#ORIGIN:;
#CREDIT:;
#BANNER:Rise (Leave Me Alone).png;
#BACKGROUND:Rise (Leave Me Alone)-background.png;
#PREVIEWVID:;
#JACKET:Rise (Leave Me Alone)-Jacket.png;
#CDIMAGE:;
#DISCIMAGE:wallpaper-52137.jpg;
#LYRICSPATH:;
#CDTITLE:;
#MUSIC:Rise (Leave Me Alone).ogg;
#OFFSET:-6.990000;
#SAMPLESTART:27.860001;
#SAMPLELENGTH:12.000000;
#SELECTABLE:YES;
#BPMS:0.000=138.000;
#STOPS:160.000=0.870;
#DELAYS:;
#WARPS:;
#TIMESIGNATURES:0.000=4=4;
#TICKCOUNTS:0.000=4;
#COMBOS:0.000=1;
#SPEEDS:0.000=1.000=0.000=0;
#SCROLLS:0.000=1.000;
#FAKES:;
#LABELS:0.000=Song Start;
#BGCHANGES:;
#KEYSOUNDS:;
#ATTACKS:
;

//---------------dance-single - ----------------
#NOTEDATA:;
#CHARTNAME:;
#STEPSTYPE:dance-single;
#DESCRIPTION:;
#CHARTSTYLE:;
#DIFFICULTY:Hard;
#METER:9;
#RADARVALUES:0.588551,0.497816,0.377452,0.104402,0.216834,453.000000,47.000000,13.000000,0.000000,0.000000,0.000000,0.000000,0.000000,0.588551,0.497816,0.377452,0.104402,0.216834,453.000000,47.000000,13.000000,0.000000,0.000000,0.000000,0.000000,0.000000;
#CREDIT:;
#NOTES:
0001
0100
1010
0001
0100
0010
1010
0000
,
0010
0000
0000
1000
0000
0000
0010
0000
,
0100
0000
0000
0001
0000
0000
0000
1000
,
0100
0010
0001
1001
,
0110
0000
0110
0010
1000
0001
0010
0000
,
0110
0000
1001
0001
0100
0001
0011
0000
,
1100
0000
1001
0001
0010
0100
0110
0000
,
1001
0000
0000
0000
1100
0000
0100
0000
0010
0000
0100
0000
1100
0000
0000
1000
,
0010
0000
0100
0000
0101
0000
0000
0001
0010
0000
0100
0000
1100
0000
0100
0000
,
0010
0000
0010
0001
0000
0001
0100
0000
,
0010
0000
0100
0010
0000
1000
0010
0100
,
1000
0000
0100
0000
0001
0000
0010
0000
0100
1000
0000
0010
0001
0000
0000
0100
,
0001
0010
0110
0100
0001
0100
1000
0010
,
0200
0000
0300
0010
1000
0001
1000
0100
,
0020
0000
0030
0001
0000
0000
1000
0010
,
0200
0000
0301
2000
0000
3100
0010
0000
,
1001
0000
0000
0100
1000
0100
0001
0010
,
0100
0000
0010
0001
0010
1000
0010
0100
,
1000
0001
0110
0000
0100
0010
1001
0000
,
0002
0000
0103
0020
0000
0130
0010
1000
,
0100
0010
0011
0000
0001
0100
1010
0000
,
0001
0000
1000
0010
0000
0100
0001
0010
,
0100
0000
0010
0001
0000
0100
1000
0010
,
0100
0000
0010
1000
0000
0001
0010
0000
,
0001
0100
0000
0100
0001
0000
1000
0000
0000
0100
0000
1000
0010
0000
0100
0000
,
0001
0100
0000
0100
0010
0000
1000
0000
0000
0001
0000
1000
1001
0000
1000
0000
,
1000
0001
0000
0001
1000
0000
0100
0000
0000
0010
0000
0001
0010
0000
0001
0000
,
0100
0010
0000
0010
0100
0000
0010
0000
0000
1000
0000
0010
0110
0000
0010
0000
,
1000
0000
0001
0000
0011
0000
0000
0010
0100
0000
1000
0000
1010
0000
0000
1000
,
0001
0000
0100
0000
0001
0000
0101
0000
0000
1100
0000
0000
1001
0000
0000
0000
,
0001
0000
1000
0000
1100
0000
0000
0100
0010
0000
0001
0000
0101
0000
0000
0001
,
1000
0000
0010
0000
1000
0000
1010
0000
0000
0011
0000
0000
1001
0000
0000
0000
,
1010
0000
0000
0001
0100
0000
0010
0000
1000
0000
0000
0100
0010
0000
0001
0000
,
0010
0000
0000
0100
1000
0000
0010
0000
0001
0000
0000
0000
1001
0000
0000
0000
,
0110
0000
0000
0010
0100
0000
1000
0000
0001
0000
0000
0010
0100
0000
0010
0000
,
0001
0000
0000
1000
0010
0000
0100
0000
1000
0000
0000
0100
0010
0000
0100
0000
,
0101
0000
0000
0001
0100
0000
0010
0000
1000
0000
0000
0100
0010
0000
0001
0000
,
1000
0000
0000
0010
0100
0000
0001
0000
1000
0100
0000
0010
0001
1000
0001
0000
,
0100
0000
0000
0010
1000
0000
0010
0000
0100
0000
0000
0001
0010
0000
0001
0000
,
1000
0000
0000
0100
0010
0000
0100
0000
1000
0000
0000
0001
0100
0010
0001
1000
,
1001
0000
0000
0000
0001
1000
0001
1000
0010
0000
0000
0000
0000
0000
0100
0000
,
0000
0000
0100
0001
0010
0100
0010
0001
,
0100
0010
1000
0010
0100
0001
1000
0100
,
1000
0010
0100
0001
0010
0100
0010
0001
,
0100
0010
1000
0100
0010
1000
0010
0100
,
0010
0001
0100
0010
1000
0001
0100
0010
,
1000
0010
0100
1000
0100
0010
0100
1000
,
0010
0100
0001
0010
0100
0010
0001
0100
,
0010
1000
0001
0100
0010
1000
0001
0010
,
0100
0000
1000
0000
0100
0000
0010
0000
0011
0000
0000
0000
1000
0000
0001
0100
,
0010
0000
0100
0000
0001
0000
0010
0000
0200
0000
0000
0000
0300
0000
0010
0100
,
1000
0001
0100
0001
2000
0000
3001
0001
,
0000
1000
1000
0010
0200
0000
0310
2000
,
0000
0000
3001
0000
0020
0000
0000
0000
0130
0000
0000
0000
0000
0000
0010
0001
,
1000
0000
0010
0000
0100
0000
0001
0000
1001
0000
0000
0000
0001
0000
0100
0001
,
0010
0000
1000
0000
0010
0000
0100
0000
1000
0000
0001
0000
0110
0000
0000
0010
,
0100
0010
1001
0000
0002
0000
0103
0020
,
0000
0130
0001
1000
0100
0100
1000
0010
,
0010
0100
0001
0000
0100
0100
0001
0010
,
0010
0100
0010
0000
0100
0100
1000
0010
,
0010
0100
0001
0000
1000
1000
0001
0100
,
0100
0001
0010
0100
1000
1000
0010
0100
,
0100
0010
1000
0000
0001
0001
0010
0100
,
0100
0000
0010
0000
0001
0000
0000
1000
0001
0000
0001
0000
0110
0000
0100
0000
,
0100
1000
0001
1000
0101
0000
0000
1010
,
0000
1001
0000
0000
;

//---------------dance-single - ----------------
#NOTEDATA:;
#CHARTNAME:;
#STEPSTYPE:dance-single;
#DESCRIPTION:;
#CHARTSTYLE:;
#DIFFICULTY:Easy;
#METER:2;
#RADARVALUES:0.172091,0.183406,0.120464,0.056216,0.000000,128.000000,15.000000,7.000000,0.000000,0.000000,0.000000,0.000000,0.000000,0.172091,0.183406,0.120464,0.056216,0.000000,128.000000,15.000000,7.000000,0.000000,0.000000,0.000000,0.000000,0.000000;
#CREDIT:;
#NOTES:
0001
1001
0000
0000
,
1000
0000
0000
0000
,
0010
0000
0000
0000
,
0100
0000
0010
0000
,
1001
0000
0001
0000
,
1000
0000
0010
0000
,
1000
0000
0001
0000
,
0100
0000
0010
0000
,
0100
1001
0000
0000
,
0001
0000
1000
0000
,
0010
0000
0010
0000
,
0100
0010
1000
0001
,
1001
0000
0001
0100
,
0001
0000
1000
0100
,
1000
0000
0000
0000
,
0010
0000
0100
0000
,
1001
0000
0010
1000
,
0010
0000
0100
0001
,
0100
0000
0000
0000
,
0100
0000
0001
0000
,
1000
0000
0000
0010
,
0000
0000
0000
0100
,
0000
0000
0000
0000
,
0001
0000
1000
0000
,
0010
0000
0100
0000
,
0010
0000
1000
1001
,
0001
0000
0100
0000
,
0001
0000
0010
0110
,
0100
0000
0010
0000
,
0100
0010
0001
1001
,
0001
0000
1000
0000
,
0001
0100
0001
0011
,
0010
0000
0100
0000
,
1000
0000
0010
1010
,
0010
0000
0100
0000
,
0001
0000
1000
1001
,
0001
0000
0100
0000
,
0010
0000
1000
1100
,
0100
0000
0010
0000
,
0001
0000
1000
1001
,
0000
0000
0000
0000
,
0000
0000
0002
0000
,
0000
0000
0203
0000
,
0000
0000
0020
0000
,
0000
0330
0010
0000
,
0100
0000
0020
0000
,
0000
0000
2030
0000
,
0000
0000
0002
0000
,
0000
0000
3003
0001
,
1000
0010
0100
0000
,
0010
1000
0001
0000
,
1000
0001
0100
0000
,
0000
0000
0010
0000
,
0100
0000
1001
0000
,
1000
0010
0100
0000
,
0010
0100
0001
0000
,
0000
0000
1000
0000
,
0001
0000
1001
0000
,
0000
0000
0001
0000
,
0000
0000
0100
0000
,
0000
0000
0010
0000
,
1000
0000
0100
0000
,
0000
0010
0000
0000
,
0001
0000
1000
0000
,
0000
0000
0020
0000
,
0000
0030
0000
0000
;

//---------------dance-single - ----------------
#NOTEDATA:;
#CHARTNAME:;
#STEPSTYPE:dance-single;
#DESCRIPTION:;
#CHARTSTYLE:;
#DIFFICULTY:Medium;
#METER:5;
#RADARVALUES:0.372863,0.340611,0.152587,0.120464,0.012046,291.000000,19.000000,15.000000,0.000000,0.000000,0.000000,0.000000,0.000000,0.372863,0.340611,0.152587,0.120464,0.012046,291.000000,19.000000,15.000000,0.000000,0.000000,0.000000,0.000000,0.000000;
#CREDIT:;
#NOTES:
0001
1000
1001
0000
0000
0000
0000
0000
,
1000
0000
0000
1000
0000
0000
0010
0000
,
0100
0000
0000
0100
0000
0000
0000
0001
,
0010
0100
1000
0100
,
1000
0000
1010
0000
0010
0100
0010
0000
,
0100
0000
0101
0000
0001
1000
0001
0000
,
0010
0000
0011
0000
0010
0100
0010
0000
,
0100
0000
1100
0000
0100
1000
0100
0000
,
1000
0010
0110
0000
0000
0000
0110
0000
,
0000
0110
0000
0110
,
0100
0000
0000
0010
0000
0000
0000
1000
,
0001
0010
0100
1000
,
1001
0000
0000
0001
0100
0010
1000
0001
,
0100
0000
0000
0010
0100
0001
0010
0100
,
1000
0000
0000
0000
0000
0000
0000
0100
,
2000
0000
0000
3020
0000
0000
0230
0000
,
0301
0000
0000
0100
0010
1000
0010
1000
,
0010
0000
0100
0000
0001
0010
0100
1000
,
0100
0000
0000
0000
0000
0000
0000
1000
,
0020
0000
0000
0230
0000
0000
0301
1000
,
0010
0000
0000
0010
0000
0000
0100
0000
,
0001
0000
0000
1000
0000
0000
0100
0000
,
1000
0000
0000
0010
0000
0000
0000
0100
,
0001
0000
0000
1000
0000
0000
0010
0000
,
0100
0001
0010
0100
,
1000
0000
0100
0000
1000
0001
1001
0000
,
0001
0100
0001
0010
,
0100
0000
0010
0000
0001
1000
1010
0000
,
0001
0100
0001
0000
0001
0100
0001
0000
,
0001
0000
0100
0000
0001
0000
0100
0000
0000
0010
0000
0000
1010
0000
0000
0000
,
1000
0001
1000
0000
0001
1000
0001
0000
,
1000
0000
0001
0000
1000
0000
0001
0000
0000
0100
0000
0000
0110
0000
0000
0000
,
0100
0000
0010
1000
0100
0000
0100
1000
,
0010
0000
0100
1000
0100
0000
0110
0000
,
0010
0000
1000
0010
0100
0000
0100
0010
,
1000
0000
0001
0010
0100
0000
1001
0000
,
0101
0000
0001
0100
1000
0000
1000
0100
,
0010
0000
0010
0001
0010
0000
0110
0000
,
0100
0000
0010
1000
0010
0000
0010
0001
,
0010
0000
0100
0010
1000
0001
0010
0100
,
1000
0000
0002
0000
1003
0000
0000
0100
,
0000
0000
0010
0001
1000
0000
1000
0001
,
0000
0001
0010
0000
0100
0000
0100
1000
,
0000
1000
0010
0000
0010
0000
0010
0100
,
0000
0100
0001
0000
1000
0000
1000
0001
,
0010
0100
1000
0100
0010
0000
0100
0010
,
0000
0100
1000
0000
0100
0000
1000
0010
,
0000
0100
0001
0000
0010
0000
0100
1000
,
0000
0010
0100
0000
0001
1000
0100
0010
,
0001
0010
0100
1000
1001
0000
0000
0001
,
0100
1000
0100
0010
2000
0000
3000
0010
,
0100
0001
0010
0100
0020
0000
0030
0000
,
0000
0000
0000
0100
0020
0000
0000
0032
,
0000
0000
2003
0000
3010
0000
0000
0100
,
1000
0100
0001
0100
1000
0000
1000
0010
,
0001
0010
1000
0010
0200
0000
0300
0000
,
0000
0000
0000
0010
0200
0000
0000
0302
,
0000
0000
2003
0000
3100
0000
0000
0100
,
0000
0000
0100
0000
0010
0000
0000
0010
,
0000
0000
0010
0000
0001
0000
0000
0001
,
0000
0000
0001
0000
1000
0000
0000
0010
,
0000
0000
0100
0000
0001
0000
0000
1000
,
0000
0000
0100
0000
0001
0000
0000
0100
,
0000
0000
0000
0000
0010
0000
0000
0001
0000
0000
0000
0000
0000
0000
1000
0000
,
0000
0000
0000
0010
0100
0000
0000
0001
,
0000
1000
0000
0000
;

//---------------dance-single - ----------------
#NOTEDATA:;
#CHARTNAME:;
#STEPSTYPE:dance-single;
#DESCRIPTION:;
#CHARTSTYLE:;
#DIFFICULTY:Beginner;
#METER:1;
#RADARVALUES:0.138820,0.183406,0.080309,0.064247,0.000000,103.000000,10.000000,8.000000,0.000000,0.000000,0.000000,0.000000,0.000000,0.138820,0.183406,0.080309,0.064247,0.000000,103.000000,10.000000,8.000000,0.000000,0.000000,0.000000,0.000000,0.000000;
#CREDIT:;
#NOTES:
// measure 0
1000
1001
0000
0000
,  // measure 1
0001
0000
0000
0000
,  // measure 2
0100
0000
0000
0000
,  // measure 3
0010
0000
0100
0000
,  // measure 4
1001
0000
0000
0000
,  // measure 5
0001
0000
0000
0000
,  // measure 6
0100
0000
0000
0000
,  // measure 7
0001
0000
0000
0000
,  // measure 8
1000
0110
0000
0000
,  // measure 9
0100
0000
0000
0000
,  // measure 10
0001
0000
0000
0000
,  // measure 11
1000
0000
0000
0000
,  // measure 12
1001
0000
0010
0010
,  // measure 13
0010
0000
0100
0100
,  // measure 14
0100
0000
0000
0000
,  // measure 15
0010
0000
1000
0000
,  // measure 16
0001
0000
1000
1000
,  // measure 17
1000
0000
0001
0001
,  // measure 18
0001
0000
0000
0000
,  // measure 19
0100
0000
0010
0000
,  // measure 20
1001
0000
0000
0000
,  // measure 21
1000
0000
0000
0000
,  // measure 22
0001
0000
0000
0000
,  // measure 23
0100
0000
0000
0000
,  // measure 24
0010
0000
0000
0000
,  // measure 25
1000
0000
0000
0001
,  // measure 26
1000
0000
0000
0000
,  // measure 27
0100
0000
0000
0010
,  // measure 28
0001
0000
0001
0000
,  // measure 29
0001
0000
0000
0000
,  // measure 30
1000
0000
1000
0000
,  // measure 31
1000
0000
0000
0000
,  // measure 32
0010
0000
0100
0000
,  // measure 33
0001
0000
1000
1001
,  // measure 34
0001
0000
1000
0000
,  // measure 35
0010
0000
0100
0110
,  // measure 36
0010
0000
1000
0000
,  // measure 37
0001
0000
1000
1001
,  // measure 38
0001
0000
1000
0000
,  // measure 39
0010
0000
0100
1001
,  // measure 40
0000
0000
0000
0000
,  // measure 41
0000
0000
0020
0000
,  // measure 42
0000
0030
2000
0000
,  // measure 43
0000
3000
0002
0000
,  // measure 44
0000
0000
0000
0000
,  // measure 45
0003
0000
2000
0000
,  // measure 46
0000
3000
0002
0000
,  // measure 47
0000
0003
0200
0000
,  // measure 48
0000
0300
0020
0000
,  // measure 49
0000
0030
1001
0000
,  // measure 50
1000
1000
1000
0000
,  // measure 51
0010
0010
0010
0000
,  // measure 52
0000
0000
0100
0000
,  // measure 53
0001
0000
1000
0000
,  // measure 54
0010
0010
0010
0000
,  // measure 55
1000
1000
0001
0000
,  // measure 56
0000
0000
0100
0000
,  // measure 57
0010
0000
1000
0000
,  // measure 58
0000
0000
0001
0000
,  // measure 59
0000
0000
0100
0000
,  // measure 60
0000
0000
0010
0000
,  // measure 61
0100
0000
0001
0000
,  // measure 62
0000
0000
1000
0000
,  // measure 63
0000
0000
0100
0000
,  // measure 64
0000
0000
2000
0000
,  // measure 65
0000
3000
0000
0000
;
