#VERSION:0.83;
#TITLE:Renaissance;
#SUBTITLE:;
#ARTIST:LhoU;
#TITLETRANSLIT:;
#SUBTITLETRANSLIT:;
#ARTISTTRANSLIT:;
#GENRE:;
#ORIGIN:;
#CREDIT:;
#BANNER:Renaissance.png;
#BACKGROUND:Renaissance-bg.png;
#PREVIEWVID:;
#JACKET:Renaissance-jacket.png;
#CDIMAGE:;
#DISCIMAGE:;
#LYRICSPATH:;
#CDTITLE:cdtitle.png;
#MUSIC:Renaissance.mp3;
#OFFSET:1.586000;
#SAMPLESTART:92.527847;
#SAMPLELENGTH:14.769226;
#SELECTABLE:YES;
#BPMS:0.000=130.000;
#STOPS:69.000=2.769;
#DELAYS:;
#WARPS:;
#TIMESIGNATURES:0.000=4=4;
#TICKCOUNTS:0.000=4;
#COMBOS:0.000=1;
#SPEEDS:0.000=1.000=0.000=0;
#SCROLLS:0.000=1.000;
#FAKES:;
#LABELS:0.000=Song Start;
#BGCHANGES:;
#KEYSOUNDS:;
#ATTACKS:
;

//---------------dance-single - ----------------
#NOTEDATA:;
#CHARTNAME:;
#STEPSTYPE:dance-single;
#DESCRIPTION:;
#CHARTSTYLE:;
#DIFFICULTY:Hard;
#METER:7;
#RADARVALUES:0.383685,0.446823,0.247376,0.106018,0.053009,304.000000,276.000000,28.000000,12.000000,0.000000,0.000000,0.000000,0.000000,0.000000,0.383685,0.446823,0.247376,0.106018,0.053009,304.000000,276.000000,28.000000,12.000000,0.000000,0.000000,0.000000,0.000000,0.000000;
#CREDIT:;
#NOTES:
0000
0000
0000
0000
,
0000
0000
0000
0000
,
0000
0000
0000
0000
,
0000
0000
0000
0000
,
0000
0000
0000
0000
,
0001
1000
0001
1000
,
0001
1000
0100
1000
,
0010
1000
0010
0100
,
0001
0010
0100
0000
,
1000
0000
0100
0000
1000
0000
0000
0000
0001
0000
0100
0000
0001
0000
0000
0010
,
0100
0000
0000
0100
1000
0000
0000
1000
0001
0000
0000
0000
1000
0000
0000
0000
,
0001
0100
0010
0000
0100
0010
1000
0000
,
0001
0000
1000
0100
0010
0000
0100
0000
,
1000
0000
0100
0000
0010
0000
0000
0000
0010
0000
0001
0000
0100
0000
0000
0001
,
0100
0000
0000
0010
1000
0000
0000
1000
0001
0000
0000
0000
1000
0000
0000
0000
,
0001
0100
0001
0000
0100
0010
0100
0000
,
0010
0000
1000
0001
0100
0000
0010
0000
,
0000
1001
0001
0100
,
0001
1000
0100
0010
,
0100
0000
1000
0001
,
0100
0001
1000
0100
,
1000
0000
0001
0000
0200
0000
0000
0310
,
0200
0000
0000
0310
0200
0000
0301
0000
,
2000
3001
1001
1000
,
0001
0100
0001
0000
1001
0000
0010
0000
,
1001
0000
0110
0000
1001
0001
0100
0001
,
0100
0001
0100
0000
0010
1000
0010
1000
,
0010
1000
0010
0000
1000
0100
1000
0100
,
1000
0100
0010
0001
0010
0100
0010
0100
,
1000
0100
0001
0100
1000
0010
1000
0010
,
1000
0010
1000
0000
0001
0100
0001
0100
,
0001
0100
0001
0000
0100
0010
0100
0010
,
0100
0001
0100
0001
1000
0000
0000
1000
,
0100
0000
1001
0000
,
0001
0000
0100
0000
,
0001
1000
1001
0000
,
0110
0000
0110
0100
,
0110
0110
1001
0000
,
1010
0000
0101
1000
,
1100
0110
0011
0010
,
0110
0100
1100
0100
,
2000
0000
0000
0000
3001
0010
0001
0000
,
0010
0100
0010
0000
0001
0010
0100
0010
,
0001
0000
1000
0000
0010
1000
0010
0100
,
0010
1000
0001
0010
0100
0000
0100
0010
,
0001
0000
1000
0000
0001
1000
0010
0000
,
1000
0001
0010
0000
0001
1000
0010
1000
,
0100
0000
1000
0000
0001
0100
0010
0000
,
0010
0100
0001
0000
1001
0000
0100
0000
,
1001
0000
0110
0000
1000
0010
0100
0000
,
0010
0000
0100
0000
0001
0000
0000
1000
0100
0000
0000
0010
0001
0000
0000
0001
,
0100
0000
0001
0000
1000
0001
0100
0000
,
0001
1000
0010
0000
1000
0000
0001
0010
,
0100
0000
0010
0000
0001
0200
0000
0000
,
0310
0000
2000
0000
0000
0000
3000
0010
2000
0000
3000
0001
0200
0000
0300
0001
,
0020
0000
0130
0000
1000
0100
0010
0100
,
1000
0010
0100
0000
0001
0000
1000
0100
,
0001
0000
1000
0000
1001
1000
0000
0000
,
1001
0001
0000
0000
1001
0000
0110
0000
,
2002
0000
3003
0000
;

//---------------dance-single - ----------------
#NOTEDATA:;
#CHARTNAME:;
#STEPSTYPE:dance-single;
#DESCRIPTION:;
#CHARTSTYLE:;
#DIFFICULTY:Medium;
#METER:5;
#RADARVALUES:0.281453,0.315404,0.185532,0.106018,0.000000,223.000000,202.000000,21.000000,12.000000,0.000000,0.000000,0.000000,0.000000,0.000000,0.281453,0.315404,0.185532,0.106018,0.000000,223.000000,202.000000,21.000000,12.000000,0.000000,0.000000,0.000000,0.000000,0.000000;
#CREDIT:;
#NOTES:
0000
0000
0000
0000
,
0000
0000
0000
0000
,
0000
0000
0000
0000
,
0000
0000
0000
0000
,
0000
0000
0000
0000
,
1000
0010
1000
0100
,
1000
0010
0100
0001
,
1000
0100
1000
0001
,
0100
0010
1000
0002
,
0103
0001
0100
0001
,
0100
0010
1000
0001
,
1000
0100
1000
0001
,
0100
0001
1000
0100
,
1000
0010
1000
0001
,
0100
0100
0100
0001
,
1000
0010
1000
0001
,
1000
0100
1000
0000
,
0000
1001
0001
0000
,
1000
0000
0100
0100
,
1000
0000
0010
0000
,
0100
0000
0001
0100
,
0001
0000
0200
0300
,
0200
0300
0010
1000
,
0002
0003
1000
0001
,
0100
0001
0100
0000
0010
0000
1000
0000
,
0001
0000
1000
0010
0100
0000
0100
0000
,
0001
0001
1000
1000
,
0100
0100
0010
0010
,
0001
0001
1000
0100
,
1000
0001
0010
0100
,
1000
0100
1000
0010
,
0100
0001
0100
0010
,
1000
0000
0001
0100
0010
0000
0000
0100
,
0010
0000
1001
0000
,
0001
0000
1000
0000
,
0100
1000
1001
0000
,
1001
0000
1001
0000
,
1001
1001
1001
0000
,
1001
0000
1001
0000
,
1001
1001
1001
0000
,
1001
0000
1001
0000
,
1001
0000
0000
0000
0001
0100
0001
0000
,
0100
0001
0100
0000
0001
0000
0100
0000
,
0010
1000
0100
1000
,
0010
0100
0001
1000
,
0100
0000
0010
0000
0100
1000
0100
0000
,
1000
0100
1000
0000
0100
0000
0010
0000
,
0001
1000
0001
0100
,
0001
1000
0100
0010
,
0001
0000
0200
0000
0310
1000
0000
0000
,
0010
0100
0000
0000
0010
0000
1000
0000
,
0001
0000
1000
0000
0100
1000
0010
0000
,
0100
0001
1000
0000
0100
0000
1000
0010
,
0100
0000
0001
0000
1000
0002
0000
0000
,
1003
0002
0000
0000
2003
0000
3002
0000
,
2003
0000
3010
0000
0100
0001
0100
0000
,
0010
1000
0010
0000
0100
0000
0010
1000
,
0001
0000
1001
0000
,
0110
0000
1001
0110
,
2002
0000
3003
0000
;

//---------------dance-single - ----------------
#NOTEDATA:;
#CHARTNAME:;
#STEPSTYPE:dance-single;
#DESCRIPTION:;
#CHARTSTYLE:;
#DIFFICULTY:Easy;
#METER:3;
#RADARVALUES:0.190581,0.289121,0.061844,0.061844,0.000000,151.000000,144.000000,7.000000,7.000000,0.000000,0.000000,0.000000,0.000000,0.000000,0.190581,0.289121,0.061844,0.061844,0.000000,151.000000,144.000000,7.000000,7.000000,0.000000,0.000000,0.000000,0.000000,0.000000;
#CREDIT:;
#NOTES:
0000
0000
0000
0000
,
0000
0000
0000
0000
,
0000
0000
0000
0000
,
0000
0000
0000
0000
,
0000
0000
0000
0000
,
1000
0000
1000
0000
,
1000
0001
0100
0000
,
0001
0000
0001
0000
,
0001
0010
0001
0000
,
1000
0000
0100
0000
,
1000
0010
1000
0000
,
0010
0000
0100
0000
,
0001
0010
0001
1000
,
0100
0000
1000
0000
,
0010
0100
0010
0000
,
0001
0000
1000
0000
,
0010
0100
0001
0000
,
0000
1001
1000
0000
,
0100
0000
1000
0001
,
1000
0000
0010
0000
,
0100
0000
0001
0100
,
0001
0000
1000
0000
,
1000
0000
1000
0010
,
0100
0000
0001
0100
,
0001
0001
1000
0001
,
0010
0001
1000
0100
,
1000
0100
1000
0001
,
1000
0001
0100
0001
,
0100
0010
1000
0000
,
0001
0010
0200
0000
,
0000
0300
0200
0000
,
0000
0300
0200
0000
,
1300
0001
0100
0000
,
0001
0000
1000
0000
,
0001
0000
0100
0000
,
0001
0000
1000
0000
,
0010
0000
0100
0000
,
0010
1000
0001
0000
,
0001
0000
0001
0001
,
0001
1000
0001
0000
,
0100
0000
0010
0000
,
1000
0000
0001
0000
,
0001
0000
0001
0010
,
0001
0000
0100
0000
,
0010
0000
1000
0100
,
1000
0001
1000
0010
,
1000
0010
1000
0010
,
0100
0000
0010
0000
,
0100
0000
0010
1000
,
0001
0000
1000
0000
,
0010
0000
1000
0001
,
0100
0000
0001
0000
,
1000
0000
0100
0000
,
1000
0010
0200
0300
,
0020
0030
1000
0001
,
1001
0000
0001
0000
,
1000
0000
0010
0100
,
0010
0000
1001
0000
,
0110
0000
1001
0110
,
2002
0000
3003
0000
;

//---------------dance-single - ----------------
#NOTEDATA:;
#CHARTNAME:;
#STEPSTYPE:dance-single;
#DESCRIPTION:;
#CHARTSTYLE:;
#DIFFICULTY:Beginner;
#METER:1;
#RADARVALUES:0.136309,0.286691,0.061844,0.000000,0.000000,108.000000,101.000000,7.000000,0.000000,0.000000,0.000000,0.000000,0.000000,0.000000,0.136309,0.286691,0.061844,0.000000,0.000000,108.000000,101.000000,7.000000,0.000000,0.000000,0.000000,0.000000,0.000000,0.000000;
#CREDIT:;
#NOTES:
0000
0000
0000
0000
,
0000
0000
0000
0000
,
0000
0000
0000
0000
,
0000
0000
0000
0000
,
0000
0000
0000
0000
,
1000
0000
0000
0000
,
0001
0000
0000
0000
,
0100
0000
0000
0000
,
0010
0000
0000
0000
,
1001
0000
0001
0000
,
1000
1000
1000
0000
,
0010
0000
0100
0000
,
0010
0000
0100
0000
,
0001
0000
1000
0000
,
0001
0001
0001
0000
,
1000
0000
0001
0000
,
0100
0000
0010
0000
,
0000
1001
1000
0000
,
0100
0000
1000
1000
,
1000
0000
0001
0000
,
0100
0000
0001
0000
,
1000
0000
0001
0000
,
0001
0000
1000
1000
,
1000
0000
0010
0000
,
0000
0000
0100
0000
,
0010
0000
1000
0000
,
0000
0000
0001
0000
,
0000
0000
0100
0000
,
0000
0010
0010
0000
,
1000
0000
0001
0000
,
0000
0000
1000
0000
,
0000
0000
0010
0000
,
0100
0000
0010
0000
,
0000
0000
1000
0000
,
0000
0000
0000
0000
,
0000
0000
0001
0000
,
0000
0000
1000
0000
,
0001
1000
0001
0000
,
0001
0000
0001
0000
,
0001
0001
1000
0000
,
1000
0000
1000
0000
,
1000
0000
0010
0000
,
0010
0000
0010
0000
,
0000
0000
0100
0000
,
0100
0000
0100
0000
,
0000
0000
0001
0000
,
1000
0000
0001
0000
,
0000
0000
1000
0000
,
1000
0000
0001
0000
,
0001
0000
1000
0000
,
0010
0000
0100
0100
,
0100
0000
0010
0000
,
1000
0000
0001
0000
,
1000
0000
0001
0000
,
0010
0000
0001
0001
,
0001
0000
1000
0000
,
0001
0000
0100
0000
,
0100
0000
1001
0000
,
0110
0000
1001
1001
,
1001
0000
0000
0000
;

//---------------dance-single - ----------------
#NOTEDATA:;
#CHARTNAME:;
#STEPSTYPE:dance-single;
#DESCRIPTION:;
#CHARTSTYLE:;
#DIFFICULTY:Challenge;
#METER:10;
#RADARVALUES:0.723196,1.103916,0.220871,0.194367,0.887903,573.000000,548.000000,25.000000,22.000000,0.000000,0.000000,0.000000,0.000000,0.000000,0.723196,1.103916,0.220871,0.194367,0.887903,573.000000,548.000000,25.000000,22.000000,0.000000,0.000000,0.000000,0.000000,0.000000;
#CREDIT:;
#NOTES:
// measure 0
0000
0000
0000
0000
,  // measure 1
0000
0000
0000
0000
,  // measure 2
0000
0000
0000
0000
,  // measure 3
0000
0000
0000
0000
,  // measure 4
0000
0000
0000
0000
,  // measure 5
1000
0000
0000
0001
0100
0000
0000
0000
0010
0000
0000
1000
0100
0000
0000
0000
,  // measure 6
0010
0000
0000
0001
1000
0000
0001
0100
0020
0000
0000
0000
0130
0000
0010
1000
,  // measure 7
0001
0000
0000
1000
0010
0000
0000
0000
0100
0000
0000
0001
0010
0000
0000
0000
,  // measure 8
0100
0000
0000
1000
0010
0000
0000
0000
0100
0000
0010
1000
0002
0000
0000
0000
,  // measure 9
0013
0000
0000
0001
0000
0000
0010
0000
0000
0000
0000
0000
0001
0000
0000
0000
0000
0000
1000
0000
0000
0000
0000
0000
0100
0000
0000
1000
0000
0000
0100
0000
0000
0000
0000
0000
1000
0000
0000
0000
0000
0000
0001
0000
1000
0000
0010
0000
,  // measure 10
0100
0000
0000
0100
0010
1000
0001
0000
0000
0100
0010
1000
0001
0000
0000
0000
0000
0000
1100
0000
0000
0000
0000
1000
,  // measure 11
0010
0000
1000
0000
0100
0000
1000
0001
0100
0000
0001
0000
0010
0000
0100
1000
,  // measure 12
0001
0000
0000
0000
0100
0010
1000
0010
0200
0000
0000
0000
0301
0000
0010
0000
,  // measure 13
0100
0000
0000
1000
0000
0000
0010
0000
0000
0000
0000
0000
0100
0000
0000
0000
0000
0000
0001
0000
0000
0000
0000
0000
0100
0000
0000
1000
0000
0000
0010
0000
0000
0000
0000
0000
0100
0000
0000
0000
0000
0000
0001
0000
1000
0000
0001
0000
,  // measure 14
0100
0000
0000
0010
1000
0010
0100
0000
0000
0001
0100
0010
1000
0000
0000
0000
0000
0000
0101
0000
0000
0000
0000
0001
,  // measure 15
0010
0000
1000
0000
0010
0000
0001
0010
0100
0000
0010
0000
0001
0000
0000
0000
,  // measure 16
1001
0000
0000
0000
1000
0010
0100
0010
1000
0000
0000
0000
0001
0000
0100
0000
,  // measure 17
0000
0000
0000
0000
0000
0000
0000
0000
0000
0000
0000
0010
0200
0300
0000
0000
0000
0000
0000
0000
0000
0000
0000
0000
0001
0000
0000
0000
0000
0000
0010
0000
0000
0000
0000
0000
0100
0000
0000
0000
0000
0000
0010
0000
0000
0001
0000
0000
,  // measure 18
1000
0000
0100
0000
1000
0000
0010
0100
0001
0000
0010
0000
0001
0000
0000
1000
,  // measure 19
0001
0000
0100
0000
0001
0000
0010
0100
0010
0000
0001
0000
1000
0000
0000
1000
,  // measure 20
0010
0000
0100
0000
0001
0000
0000
0001
0100
0000
0010
0000
1000
0000
0100
1000
,  // measure 21
0001
0000
0000
0000
0100
0000
0000
0000
1020
0000
0000
0000
0000
0000
0031
1000
,  // measure 22
0020
0000
0000
0000
0000
0000
1030
0001
0020
0000
0000
0000
0230
0000
0000
1300
,  // measure 23
0020
0000
0000
0000
1000
0000
0000
0130
0001
0000
0000
0000
0010
0000
0000
0100
,  // measure 24
1000
0000
0001
0000
0100
0000
0000
0000
1001
0000
0000
0000
0101
0000
0000
0001
,  // measure 25
0010
0000
0000
0000
0100
0000
1000
0000
0001
0100
0010
0100
0001
1000
0100
1000
,  // measure 26
0010
0100
0001
0010
0100
1000
0100
1000
0010
0100
0001
1000
0010
1000
0100
1000
,  // measure 27
0010
0100
0001
0010
0100
1000
0100
1000
0010
0100
0001
1000
0001
1000
0100
1000
,  // measure 28
0100
1000
0010
0100
0001
0010
0001
0100
0010
1000
0100
1000
0010
1000
0100
0010
,  // measure 29
0001
0000
0100
0000
1000
0000
0100
0000
0010
0100
0001
0010
0100
1000
0100
1000
,  // measure 30
0010
0100
0001
1000
0010
1000
0100
1000
0010
0100
0001
0010
0100
1000
0100
1000
,  // measure 31
0010
0100
0001
1000
0001
1000
0100
1000
0100
1000
0010
0100
0001
0010
0001
0100
,  // measure 32
0010
1000
0100
1000
0010
0000
1000
0001
0010
0000
0000
0000
0000
0000
0010
0001
,  // measure 33
0200
0000
0000
0300
1001
1000
0010
0000
,  // measure 34
1000
0000
0001
0000
0010
0000
0000
0000
0010
0000
0001
0000
0100
0000
0010
1000
,  // measure 35
0100
0000
0000
0000
0010
0000
0100
1000
1001
0000
1000
0000
0100
0000
1000
0001
,  // measure 36
1001
0000
0001
0000
0100
0000
0001
1000
1001
0000
0000
0000
0001
0010
0001
1000
,  // measure 37
1001
0000
0000
0000
0110
0000
0100
0010
0110
0000
0100
0000
0001
0000
0000
0000
,  // measure 38
0011
0000
0010
0000
0100
0000
0000
0000
0011
0000
0010
0000
0100
0000
1000
0010
,  // measure 39
0110
0000
0000
0000
0101
0000
0001
1000
1100
0000
1000
0000
0010
0000
0100
0001
,  // measure 40
0011
0000
0010
0000
0100
0000
1000
0001
0101
0000
0000
0000
0100
0000
0010
1000
,  // measure 41
0200
0000
0000
0000
0000
0000
0000
0000
0300
0000
0000
0000
0000
0000
0000
0000
1001
0000
0000
0000
1000
0000
0000
0000
0001
1000
0001
1000
0001
1000
0001
1000
,  // measure 42
0001
0000
0000
0000
1000
0000
0000
0000
0001
1000
0001
1000
0001
1000
0001
1000
0001
0000
0000
0000
1000
0001
1000
0001
1000
0000
0000
0000
1000
0001
1000
0001
,  // measure 43
1000
0000
0000
0000
0001
0000
0000
0000
1000
0001
1000
0001
1000
0001
1000
0001
1000
0000
0000
0000
1000
0000
0000
0000
0001
1000
0001
1000
0001
1000
0001
1000
,  // measure 44
0001
0000
0000
0000
1000
0000
0000
0000
0001
1000
0001
1000
0001
1000
0001
1000
0001
0000
0000
0000
1000
0001
1000
0001
1000
0000
0000
0000
1000
0001
1000
0001
,  // measure 45
1000
0000
0000
0000
0001
0000
0000
0000
1000
0001
1000
0001
1000
0001
1000
0001
1000
0000
0000
0000
0000
0000
0100
0000
0010
0000
0000
0000
0000
0000
0010
0000
,  // measure 46
0001
0000
0000
0001
0100
0000
0000
0100
0010
0000
1000
0000
0100
0000
0010
0001
,  // measure 47
0200
0000
0000
0000
0310
0000
0100
0001
1000
0000
0000
0001
1000
0000
0000
1000
,  // measure 48
0010
0000
0000
0010
0100
0000
0000
0100
0001
0000
0000
0000
0010
0100
1000
0100
,  // measure 49
0010
0000
0000
0000
0002
0000
0000
0000
0103
0001
0010
0000
0100
0000
0010
0000
,  // measure 50
0001
0000
0000
0100
0000
0000
0010
0000
0000
0000
0000
0000
1000
0000
0000
0000
0000
0000
0100
0000
1000
0000
0001
0000
0100
0000
0000
0000
0000
0000
0100
0000
0010
0000
1000
0000
0100
0000
0000
0000
0000
0000
0100
0000
0010
0000
0001
0000
,  // measure 51
1000
0000
0000
0000
0000
0000
0000
0000
0000
0000
0000
0000
0101
0000
0000
0000
0000
0000
0000
0000
0000
0000
0100
0000
0010
0000
0000
0000
0000
0000
1000
0000
0000
0000
0000
0000
0001
0000
0000
0000
0000
0000
0100
0000
0000
0010
0000
0000
,  // measure 52
0001
0000
0100
0000
1000
0000
0100
0010
1000
0000
0001
0000
1000
0001
0010
0001
,  // measure 53
2000
0000
0000
0000
3020
0000
0000
0000
0130
0001
0020
0000
0000
0000
0000
0000
,  // measure 54
0130
0000
0000
0000
0000
0000
0000
0000
0000
0000
0000
0000
1000
0000
0000
0000
0000
0000
0000
0000
0000
0000
0000
0000
0020
0000
0000
0000
0000
0000
0000
0000
0000
0000
0000
0000
0000
0000
0000
0000
0000
0000
0000
0000
0000
0000
0000
0000
0000
0000
0000
0000
0000
0000
0000
0000
0000
0000
0000
0000
0000
0000
0000
0000
0000
0000
0000
0000
0000
0000
0000
0000
0130
0000
0000
0000
0000
0000
0000
0000
0001
0000
0000
0000
0000
0000
0000
0000
1000
0000
0000
0000
0000
0000
0000
0000
0200
0000
0000
0000
0000
0000
0000
0000
0000
0000
0000
0000
0000
0000
0000
0000
0000
0000
0300
0000
0000
0000
0000
0000
0100
0000
0000
0000
0000
0000
0000
0000
0010
0000
0000
0000
0000
0000
0000
0000
0001
0000
0000
0000
0000
0000
0000
0000
2000
0000
0000
0000
0000
0000
0000
0000
0000
0000
0000
0000
0000
0000
0000
0000
0000
0000
3000
0000
0000
0000
0000
0000
1000
0000
0000
0000
0000
0000
0000
0000
0001
0000
0000
0000
0000
0000
0000
0000
0100
0000
0000
0000
0000
0000
0000
0000
,  // measure 55
0020
0000
0000
0000
0000
0000
0000
0000
0000
0000
0000
0000
0000
0000
0000
0000
0000
0000
0000
0000
0000
0000
0000
0000
0000
0000
0000
0000
0000
0000
0000
0000
0000
0000
0000
0000
0000
0000
0000
0000
0000
0000
0000
0000
0000
0000
0000
0000
0230
0000
0000
0000
0000
0000
0000
0000
0000
0000
0000
0000
0000
0000
0000
0000
0000
0000
0000
0000
0000
0000
0000
0000
0000
0000
0000
0000
0000
0000
0000
0000
0000
0000
0000
0000
0000
0000
0000
0000
0001
0000
0300
0000
0000
0000
0000
0000
1000
0000
0000
0000
0000
0000
0000
0000
0000
0000
0000
0000
0000
0000
0000
0000
0000
0000
0000
0000
0000
0000
0000
0000
0100
0000
0000
0000
0000
0000
0000
0000
0000
0000
0000
0000
0000
0000
0000
0000
0000
0000
0000
0000
0000
0000
0000
0000
1000
0000
0000
0000
0000
0000
0000
0000
0000
0000
0000
0000
0000
0000
0000
0000
0000
0000
0000
0000
0000
0000
0000
0000
0001
0000
0000
0000
0000
0000
0000
0000
0000
0000
0000
0000
1000
0000
0000
0000
0000
0000
0000
0000
0000
0000
0000
0000
,  // measure 56
0010
0000
0100
0000
0001
0000
0000
0000
1001
0000
0000
0000
1000
0100
0001
0100
,  // measure 57
1000
0000
0000
0000
0000
0000
0000
0000
0000
0000
0000
0000
0011
0000
0000
0000
0000
0000
0000
0000
0000
0000
0001
0000
0100
0000
0000
0000
0000
0000
0010
0000
0000
0000
0000
0000
1000
0000
0000
0000
0000
0000
0001
0000
0000
1000
0000
0000
,  // measure 58
0100
0000
1000
0000
0010
0000
0000
0000
0110
0000
0000
0000
0010
0001
1000
0001
,  // measure 59
0200
0010
0010
0000
0300
0000
0000
0000
;
