#VERSION:0.83;
#TITLE:Reflux;
#SUBTITLE:;
#ARTIST:Eagle;
#TITLETRANSLIT:;
#SUBTITLETRANSLIT:;
#ARTISTTRANSLIT:;
#GENRE:;
#ORIGIN:;
#CREDIT:;
#BANNER:Reflux.png;
#BACKGROUND:Reflux-bg.png;
#PREVIEWVID:;
#JACKET:Reflux-jacket.png;
#CDIMAGE:;
#DISCIMAGE:;
#LYRICSPATH:;
#CDTITLE:;
#MUSIC:12.Reflux.mp3;
#OFFSET:-1.067001;
#SAMPLESTART:25.076000;
#SAMPLELENGTH:14.400002;
#SELECTABLE:YES;
#BPMS:0.000=150.000,
226.000=300.000,
350.000=150.000;
#STOPS:;
#DELAYS:;
#WARPS:;
#TIMESIGNATURES:0.000=4=4;
#TICKCOUNTS:0.000=4;
#COMBOS:0.000=1;
#SPEEDS:0.000=1.000=0.000=0;
#SCROLLS:0.000=1.000;
#FAKES:;
#LABELS:0.000=Song Start;
#BGCHANGES:;
#KEYSOUNDS:;
#ATTACKS:
;

//---------------dance-single - ----------------
#NOTEDATA:;
#CHARTNAME:;
#STEPSTYPE:dance-single;
#DESCRIPTION:;
#CHARTSTYLE:;
#DIFFICULTY:Hard;
#METER:11;
#RADARVALUES:0.698369,1.162866,0.219256,1.136880,0.556259,602.000000,575.000000,27.000000,140.000000,0.000000,0.000000,9.000000,0.000000,0.000000,0.698369,1.162866,0.219256,1.136880,0.556259,602.000000,575.000000,27.000000,140.000000,0.000000,0.000000,9.000000,0.000000,0.000000;
#CREDIT:;
#NOTES:
0000
0000
0000
0000
,
0000
0000
0000
0000
,
0000
0000
0000
0000
,
0000
0000
0000
0000
,
0010
0000
0000
0010
0000
0000
0100
0000
0000
0100
0000
0000
0010
0000
1000
0000
,
0100
0000
0000
0100
0000
0000
0010
0000
0000
0010
0000
0000
0100
0000
0010
0000
,
0001
0000
0000
0001
0000
0000
1000
0000
0000
1000
0000
0000
0001
0000
1000
0000
,
0010
0000
0000
0100
0000
0000
0001
0000
0000
0010
0000
0000
0100
0000
1000
0000
,
1010
1100
1010
1000
,
0101
0000
0011
0000
0101
0000
0001
1000
,
0010
0000
0000
0100
0000
0000
0001
0000
0000
0010
0000
0000
0100
0000
1000
0000
,
0001
0000
0000
0100
0000
0000
0010
0000
0000
0100
0000
0000
0001
0000
1000
0000
,
0010
1000
0001
0100
0001
0010
0001
0100
,
0010
1000
0100
1000
0001
0010
0001
0100
,
0010
1000
0010
0100
0010
1000
0001
1000
0010
0100
0010
1000
0100
1000
0001
0010
,
0002
0000
0200
0003
2000
0300
0020
3000
0002
0030
2000
0003
3002
2000
0000
3003
,
2010
0000
0000
0000
0000
0000
0000
0000
0002
0000
0000
0000
3003
0000
0000
0000
0002
0000
0000
0000
2000
0000
0003
0000
0200
0000
0000
0300
0200
0000
3000
0000
,
2000
0000
0000
0300
0002
0000
3000
0000
0020
0000
0000
0030
0020
0000
0003
0000
0002
0000
0030
0000
0200
0000
0003
0000
0020
0000
0300
0000
2000
0000
0030
3000
,
1200
0000
0000
0000
0020
0000
0330
0000
0010
0001
0100
0010
1000
0001
0010
0001
,
1000
0100
0010
0001
1000
0100
0010
0001
0010
0100
0010
0001
0100
0010
1000
0001
,
0102
0000
0000
0000
0000
0000
0020
0000
0000
0000
0000
0000
0033
0000
0000
0000
0002
0000
0000
0000
0020
0000
0000
0003
0200
0000
0000
0030
2000
0000
0000
3000
,
2000
0000
0000
0300
3200
0000
0000
0000
0020
0000
0000
0300
0002
0000
0000
0003
0002
0000
0000
0030
0020
0000
0000
0003
0200
0000
0000
0030
2000
0000
0000
0300
,
3001
0000
1000
0001
0100
0000
0001
1000
0100
0000
1000
0001
1000
0000
0020
0000
,
0031
0000
0010
1000
0001
0000
1000
0001
0010
0100
0000
0010
0100
1000
0100
0000
,
2001
0000
0000
0000
0020
0000
3030
0000
2000
0000
0200
3000
0002
0300
0020
0003
,
2000
0030
0200
3000
0002
0300
0020
0003
2000
0030
0200
3000
0002
0300
0020
0003
,
2000
0030
3200
0000
0002
0000
0003
0000
1300
0100
0010
0001
0100
0010
1000
0001
,
0010
0100
1000
0010
0100
0001
0010
0001
0100
0010
1000
0100
0010
0001
1000
0100
,
2100
0000
0000
3010
0000
0000
0100
0000
0102
0000
0000
0013
0000
0000
0100
0000
,
2100
0000
0000
3010
0000
0000
0100
0000
0102
0000
0000
0013
0000
0000
0100
0000
,
1000
0000
0010
0100
0001
0000
0001
1000
0200
0000
0040
0000
0000
0000
0330
0000
,
0100
0000
1000
0010
0100
0000
0100
0001
1000
0000
0001
1000
0000
0001
1000
0000
,
0020
0000
2030
3001
,
1000
0000
0001
0100
0000
0001
1000
0000
0001
0100
0000
0001
1000
0100
0010
0001
,
0100
0000
0010
1000
0000
1000
0001
0000
0001
1000
0000
0010
0100
0001
0010
0001
,
1000
0000
0100
1000
0000
0100
0010
0000
0001
0010
0100
1000
0100
0010
0001
1000
,
0001
0100
0010
0100
0001
0100
0010
0100
0001
0100
0010
0100
0001
1000
0000
0000
,
1000
0100
0010
0100
1000
0100
0010
0100
1000
0100
0010
0100
1000
0001
1000
0000
,
0001
1000
0010
1000
0001
1000
0010
1000
0001
1000
0010
1000
0100
0010
0001
0100
,
0004
4000
0000
0000
0000
0000
3003
0000
1000
0100
0010
0001
0010
0100
1000
0001
,
0200
0001
0001
0000
,
0010
0010
1000
1000
,
0302
0000
1000
0000
0000
1000
0000
0000
1000
0000
0000
1000
0000
0000
1000
0000
,
0203
0000
0010
0000
0000
0010
0000
0000
0310
0000
0100
0000
0010
0000
0001
0000
,
0200
0010
0010
0010
,
0302
0000
2003
0000
3200
0000
0310
0200
,
1000
0001
1000
0001
,
0020
0000
0000
0330
,
1001
0000
0000
0001
0000
0000
1000
0000
0000
0001
0000
0000
1000
0000
0100
0000
,
0010
0000
0000
0010
0000
0000
0100
0000
0000
1000
0000
0000
0100
0000
1000
0000
,
0010
0000
0000
0010
0000
0000
0100
0000
0000
0001
0000
0000
0100
0000
0001
0000
,
1000
0000
0000
1000
0000
0000
0100
0000
0000
0010
0000
0000
0100
0000
1000
0000
,
0001
0000
1000
0010
1000
0000
0010
0100
0010
0000
0100
0001
0100
0000
0001
0000
,
0010
0000
0100
1000
0100
0000
1000
0001
1000
0000
0001
0100
0001
0000
0100
0000
,
0010
1000
0010
1000
0010
0100
0010
0100
0001
0100
0001
0100
0010
1000
0001
0010
,
0002
0000
0000
0003
0002
0000
0000
0000
2000
0000
0000
0003
0002
0000
0000
3000
2000
0000
0000
3000
2000
0000
0000
0003
3020
0000
0200
0000
0000
0000
0330
0000
,
1001
0001
0200
0000
0040
0000
0000
0000
,
0000
0000
0000
0000
,
0000
0000
0330
0000
1000
0010
0100
0001
,
1000
0000
0001
0000
1000
0001
0010
0000
,
0200
0000
0000
0000
1300
0010
0100
0001
,
0010
0001
0100
0010
1000
0100
1000
0010
,
0100
0001
1000
0100
0010
0001
1000
0001
,
0010
0100
1000
0001
1000
0000
0001
0020
,
0000
0000
0130
0000
2000
0000
3200
0010
,
0000
0320
0001
0000
0032
0010
0000
0023
,
0100
0000
0130
2000
0000
3001
0010
0100
,
1000
0000
0010
0000
1000
0000
0001
0400
,
0040
0000
0000
0000
0000
0330
0010
1000
,
0200
0000
0000
0000
0310
0000
0004
4000
,
0000
0000
0000
0000
0000
3003
0001
1000
,
0020
0000
0000
0030
0200
0000
0302
0000
,
2000
0000
0000
0000
0000
0000
0000
0000
3003
0000
0000
0000
0000
0000
0000
0000
0002
0000
0000
0000
0000
0000
0000
0000
2000
0000
0000
0000
0000
0000
0000
0003
,
0200
0000
0000
0000
0000
0000
0000
3000
0002
0000
0000
0000
0000
0000
0000
0300
0200
0000
0000
0000
0000
0000
0000
0003
0020
0000
0000
0000
0000
0000
0000
0300
,
0002
0000
0000
0000
0000
0000
0000
0030
0020
0000
0000
0000
0000
0000
0000
0003
0200
0000
0000
0000
0000
0000
0000
0030
2000
0000
0000
0000
0000
0000
0000
0300
,
0200
0000
0000
0000
0000
0000
0000
3000
0020
0000
0000
0000
0000
0000
0030
0300
0021
0000
0000
0000
0000
0000
0000
0000
0230
0000
0000
0000
0000
0000
0000
0000
,
2300
0000
0000
0000
0000
0000
0000
0000
0000
0000
0000
0000
0000
0000
0000
0000
3002
0000
0000
0000
2000
0000
0000
0003
0020
0000
0000
3000
0200
0000
0000
0030
,
0002
0000
0000
0300
2000
0000
0000
0003
0002
0000
0000
3000
0200
0000
0000
0003
0020
0000
0000
0300
2000
0000
0000
0030
0002
0000
0000
3000
0020
0000
0000
0003
,
0002
0000
0000
0030
2000
0000
0000
0003
0020
0000
0000
3000
0200
0000
0000
0030
0020
0000
0000
0300
1000
0000
0000
0030
0100
0000
0000
0000
0010
0000
0000
0000
,
0001
1000
0100
0010
0021
0000
0000
0130
,
0000
0000
1100
0000
1020
0000
0000
0130
,
0000
0000
0101
0000
0021
0000
0000
0130
,
0000
0000
1100
0000
2010
0000
0000
3100
,
0000
1001
0002
0000
,
1003
0000
0000
0001
0100
0001
0200
0000
0000
0040
0000
0000
,
0000
0330
0210
0000
,
0310
0000
0000
0000
0000
0000
0000
0000
0100
0000
0000
0000
0001
0000
0000
0000
2000
0000
0000
0000
0000
0000
0000
0000
0002
0000
0000
0003
0002
0000
0000
0000
,
0000
0000
0000
0000
0000
0000
0000
0000
0000
0000
0000
0000
0000
0000
0000
0000
0000
0000
0000
0000
3000
0000
0000
0000
2000
0000
0000
0000
0000
0000
0000
0000
0000
0000
0000
0000
0000
0000
0000
0000
0000
0000
3000
0000
0000
0000
0000
0000
2000
0000
0000
0000
0000
0000
0000
0000
0000
0000
0000
0000
0000
0000
0000
0000
0000
0000
0000
0000
0000
0000
0000
0000
0000
0000
0000
0000
0000
0000
0000
0000
0000
0000
0000
0000
0000
0000
0000
0000
0000
0000
3003
0000
0000
0000
0000
0000
0220
0000
0000
0000
0000
0000
0000
0000
0000
0000
0000
0000
0000
0000
0000
0000
0000
0000
0000
0000
0000
0000
0000
0000
0000
0000
0000
0000
0000
0000
0000
0000
0000
0000
0000
0000
0000
0000
0000
0000
0000
0000
0000
0000
0000
0000
0000
0000
0000
0000
0000
0000
0000
0000
0000
0000
0000
0000
0000
0000
0000
0000
0000
0000
0000
0000
0000
0000
0000
0000
0000
0000
0000
0000
0000
0000
0000
0000
0000
0000
0000
0000
0000
0000
0000
0000
0000
0000
0000
0000
0000
0000
0000
0000
0000
0000
,
0000
0000
0000
0000
,
0000
0000
0330
0000
;

//---------------dance-single - ----------------
#NOTEDATA:;
#CHARTNAME:;
#STEPSTYPE:dance-single;
#DESCRIPTION:;
#CHARTSTYLE:;
#DIFFICULTY:Easy;
#METER:5;
#RADARVALUES:0.285380,0.545094,0.162411,0.227376,0.000000,246.000000,226.000000,20.000000,28.000000,0.000000,0.000000,12.000000,0.000000,0.000000,0.285380,0.545094,0.162411,0.227376,0.000000,246.000000,226.000000,20.000000,28.000000,0.000000,0.000000,12.000000,0.000000,0.000000;
#CREDIT:;
#NOTES:
0000
0000
0000
0000
,
0000
0000
0000
0000
,
0000
0000
0000
0000
,
0000
0000
0000
0000
,
1000
0000
0000
0000
,
0100
0000
0000
0000
,
1000
0000
0000
0000
,
0001
0000
0000
0000
,
1001
0001
0001
0000
,
0100
0100
0010
0010
,
0100
0001
0100
0001
,
1000
0010
1000
0010
,
1100
1100
1100
0000
,
0101
0101
0011
0011
,
0001
0100
0010
1000
,
0001
0100
0010
1000
0001
0100
0010
0000
,
1000
0001
0400
0000
,
0000
0000
0000
0300
,
0010
1000
0004
0000
,
0000
0000
0000
0003
,
1000
0010
0400
0000
,
0000
0000
0000
0300
,
0021
0130
1020
0130
,
2010
3100
0012
0103
,
0001
1000
0010
0000
0400
0000
0000
0000
,
0000
0000
0000
0300
,
0010
1000
0001
0000
0040
0000
0000
0000
,
0000
0000
0000
0030
,
0001
0000
0000
1000
0001
0000
0000
0001
,
1000
0000
0000
1000
0001
0000
0000
0001
,
1000
0000
0010
0100
0001
0020
0000
0000
,
0031
0010
0001
1000
,
0010
0000
2002
3003
,
1000
0010
0100
0001
,
0100
0100
0100
0100
,
0010
0100
0001
1000
,
0010
1000
0010
1000
,
0001
0010
0001
0010
,
0100
0100
0100
0100
,
4004
3003
1000
0001
,
0010
0010
0010
0000
,
0001
0001
1000
0001
,
0020
0000
0000
0000
,
0230
0000
0000
0000
,
1300
1000
0010
0000
,
0100
0000
0100
0000
0010
0000
0100
0001
,
2000
0000
0000
0000
,
0002
0000
0000
3003
,
1000
0001
1000
0010
,
1000
0001
1000
0100
,
1000
0001
1000
0010
,
1000
0001
1000
0100
,
0110
0010
0010
0001
,
1001
1000
1001
0001
,
0100
0010
1000
0001
,
1000
0010
0100
0001
1000
0010
0100
0000
,
0001
1000
0010
0000
0200
0000
0000
0000
,
0000
0000
0000
0000
,
0000
0000
0300
0000
,
0000
0000
0010
1000
,
0001
0000
2000
0000
,
3200
0000
0320
0000
,
0032
0000
0203
0000
,
0320
0000
1030
0001
,
0100
0000
0002
0000
,
0023
0000
0230
0000
,
2300
0000
3002
0000
,
0023
0000
0000
0000
0130
0000
0000
1000
,
0000
0001
0200
0000
,
0310
0000
0000
0000
0100
0000
0000
0001
,
0000
1000
0020
0000
,
0130
0000
0001
1000
,
0100
0000
4004
0000
,
0000
0000
0000
0000
,
0000
0000
0000
0000
,
0000
3003
0001
1000
,
0010
0000
0440
0000
,
0000
0000
0000
0000
,
0000
0000
0000
0330
0000
0000
0000
0000
,
0000
0000
0000
0000
0001
0000
0000
0001
,
0000
0000
0001
0000
1000
0000
0000
1000
,
0000
0000
1000
0000
0010
0000
0000
0010
,
0000
0000
0010
0000
0100
0000
0000
0100
,
0000
0100
0010
0000
,
0100
0010
1000
0004
,
0000
0000
1003
0000
,
0001
0000
0100
0000
0010
0000
0000
0100
,
0000
0001
2002
0000
,
0000
0000
0000
0000
,
0000
0000
3003
0000
;

//---------------dance-single - ----------------
#NOTEDATA:;
#CHARTNAME:;
#STEPSTYPE:dance-single;
#DESCRIPTION:;
#CHARTSTYLE:;
#DIFFICULTY:Medium;
#METER:8;
#RADARVALUES:0.422270,0.581433,0.259858,0.722731,0.150231,364.000000,332.000000,32.000000,89.000000,0.000000,0.000000,4.000000,0.000000,0.000000,0.422270,0.581433,0.259858,0.722731,0.150231,364.000000,332.000000,32.000000,89.000000,0.000000,0.000000,4.000000,0.000000,0.000000;
#CREDIT:;
#NOTES:
0000
0000
0000
0000
,
0000
0000
0000
0000
,
0000
0000
0000
0000
,
0000
0000
0000
0000
,
1000
0100
1000
0010
,
0001
0100
0001
0010
,
0001
1000
0001
0010
,
0001
0100
0001
0010
,
0001
0000
1000
0000
0010
0000
0100
0001
,
0010
0000
0100
0000
1000
0000
0100
1000
,
0010
0000
0100
0000
0001
0000
1000
0001
,
0010
0000
0100
0000
0010
0000
1000
0001
,
0010
0000
0001
0000
0100
0000
0010
1000
,
0100
0000
0010
0000
0001
0000
0100
0010
,
1000
0000
0001
0000
0100
0000
0010
1000
,
0001
0010
0100
1000
0001
0010
0100
1000
,
2001
0000
0000
0000
3020
0000
0000
0000
0130
0000
0000
0001
0000
0000
0010
0000
,
0000
0000
0100
1000
0010
0000
0100
0001
,
0021
0000
0000
0000
0230
0000
0000
0000
0310
0000
0000
0001
0000
0000
1000
0000
,
0000
0000
0010
1000
0001
0000
1000
0001
,
0201
0000
0000
0320
0000
0000
0000
0000
2030
0000
0000
3200
0000
0000
0320
0000
,
0000
0032
0000
0000
2003
0000
0000
3200
0000
0000
0320
0000
0000
0032
0000
0000
,
1003
0001
0010
0001
0200
0000
0301
0010
,
0200
0000
1300
0010
0100
0010
2000
3001
,
0201
0000
0000
0000
0320
0000
0000
0000
1030
0000
0000
0010
0000
0000
0100
0000
,
0000
0000
0010
1000
0001
0000
0010
0100
,
2100
0000
3020
0000
0230
0000
0000
0000
0301
0000
0000
1000
0000
0000
0010
0000
,
0000
0000
0100
0010
1000
0000
0001
1000
,
0201
0000
0000
0310
0000
0000
0000
0000
2010
0000
0000
3100
0000
0000
0000
0000
,
0021
0000
0000
0130
0000
0000
0000
0000
1002
0000
0000
0013
0000
0000
0000
0000
,
0201
0000
0310
1000
0001
0020
0000
0030
,
1100
0000
0000
0000
0020
0000
0000
0000
0031
0000
0000
0001
0000
0000
1000
0000
,
0010
0000
0000
0000
2002
0000
0000
3003
,
0001
0000
0000
0001
0000
0000
1000
0000
0000
1000
0000
0000
0010
0000
0100
0000
,
0001
0000
0100
0000
0000
0010
0000
0000
1000
0000
0000
0001
0000
0000
0100
0000
,
0010
0000
1000
0000
0000
0010
0000
0000
0100
0000
0010
0000
1000
0000
0001
0000
,
0010
0000
0000
0010
0000
0000
0010
0000
0000
0010
0000
0000
0100
0000
0000
0000
,
1000
0000
0000
1000
0000
0000
1000
0000
0000
1000
0000
0000
0100
0000
1000
0000
,
0010
0000
0100
0000
0000
0100
0000
0000
0100
0000
0000
0100
0000
0000
0100
0000
,
0004
4000
0000
0000
0000
0000
3003
0000
0001
0000
0010
0000
0100
0000
1000
0000
,
0020
1000
1000
0000
,
0230
0000
0301
0000
0200
0000
0310
1000
,
0002
0000
0000
0000
,
2000
0000
0000
3003
,
2000
0100
0100
0000
,
3200
0000
0320
0000
0230
0000
1300
0010
,
0200
0000
0000
0000
,
0002
0000
0000
0303
,
0001
0000
0000
0001
0000
0000
1000
0000
0000
1000
0000
0000
0010
0000
1000
0000
,
0100
0000
0000
0100
0000
0000
0010
0000
0000
0010
0000
0000
0001
0000
0100
0000
,
0010
0000
0000
0010
0000
0000
0100
0000
0000
0100
0000
0000
0010
0000
1000
0000
,
0001
0000
0000
0001
0000
0000
0100
0000
0000
0001
0000
0000
1000
0000
0001
0000
,
0101
1100
0101
0001
,
1010
0000
0011
0000
1001
0000
0001
0100
,
0010
0000
0000
1000
0000
0000
0010
0000
0000
0100
0000
0000
0001
0000
1000
0000
,
0001
0000
0100
0000
1000
0000
0100
0000
0001
0000
1000
0000
0001
1000
0000
0000
,
2001
3002
0020
0003
0200
0000
0000
0000
,
0000
0000
0000
0000
,
0000
0000
0330
0000
,
0000
0000
0010
0001
,
2000
0000
3001
0100
,
0010
1000
0001
0100
,
0010
1000
0001
0010
,
0001
0000
1000
0000
1200
0000
0000
0310
,
0000
0000
0000
0000
0002
0000
0000
0023
,
0000
0000
0230
0000
0000
2300
0000
0000
,
3002
0000
0000
0023
0000
0000
0230
0000
,
0000
2300
0000
3000
0201
0000
0000
0040
,
0000
0000
0000
0000
,
0330
0000
0000
0000
1020
0000
0000
0400
,
0000
0000
0000
0000
,
0330
0000
1010
1000
,
0001
0000
2000
3200
,
0320
0032
2003
3200
,
0320
0230
2300
3002
,
0023
0000
0230
0000
2300
0000
0200
3000
,
0020
0000
0000
0330
0002
0000
0203
0000
,
2300
3200
0320
2030
,
3002
0203
0020
0000
,
0330
0000
0000
0000
0101
0000
0000
1010
,
0000
0000
0000
0000
1100
0000
0000
0011
,
0000
0000
0000
0000
0101
0000
0000
1010
,
0000
0000
0000
0000
0110
0000
0000
1001
,
0000
0000
0002
0000
,
0103
0010
1000
0020
,
0000
0000
1030
0000
,
0201
0000
0000
0000
0320
0000
0000
2030
,
0000
3000
0002
0000
0020
0000
0000
0000
,
0000
0000
0000
0000
,
0000
0000
0033
0000
;

//---------------dance-single - ----------------
#NOTEDATA:;
#CHARTNAME:;
#STEPSTYPE:dance-single;
#DESCRIPTION:;
#CHARTSTYLE:;
#DIFFICULTY:Beginner;
#METER:2;
#RADARVALUES:0.136890,0.284220,0.170532,0.024362,0.000000,118.000000,97.000000,21.000000,3.000000,0.000000,0.000000,0.000000,0.000000,0.000000,0.136890,0.284220,0.170532,0.024362,0.000000,118.000000,97.000000,21.000000,3.000000,0.000000,0.000000,0.000000,0.000000,0.000000;
#CREDIT:;
#NOTES:
0000
0000
0000
0000
,
0000
0000
0000
0000
,
0000
0000
0000
0000
,
0000
0000
0000
0000
,
1000
0000
0000
0000
,
0001
0000
0000
0000
,
0100
0000
0000
0000
,
0010
0000
0000
0000
,
1000
0000
0000
0000
,
0010
0000
0100
0000
,
0001
0000
0000
0000
,
1000
0000
0000
0000
,
0001
0000
0000
0000
,
0010
0000
0001
0000
,
1000
0000
0000
0000
,
0110
0000
0000
0000
,
1001
1001
0000
0000
,
0000
0000
0000
0000
,
0110
0110
0000
0000
,
0000
0000
0000
0000
,
1001
1001
0000
0000
,
0000
0000
0000
0000
,
0010
0000
0100
0000
,
0001
0000
1000
0001
,
1001
0110
0000
0000
,
0000
0000
0000
0000
,
0110
1001
0000
0000
,
0000
0000
0000
0000
,
1000
0000
0010
0000
,
0100
0000
0001
0000
,
1000
0000
0000
0000
,
0010
0000
0000
0000
,
0100
0000
1001
0000
,
0010
0000
0100
0000
,
0001
0000
0000
0000
,
1000
0000
0010
0000
,
1000
0000
0000
0000
,
0001
0000
0000
0000
,
0100
0000
0000
0000
,
1001
0000
0010
0000
,
0100
0100
0100
0000
,
0010
0000
1000
0000
,
0001
0000
0000
0000
,
0010
0000
0000
0000
,
0001
0001
0001
0000
,
1000
0000
0010
0000
,
0100
0000
0000
0000
,
0000
0000
0000
0000
,
0010
0000
0000
0000
,
1000
0000
0000
0000
,
0001
0000
0000
0000
,
0100
0000
0000
0000
,
0010
0000
0000
0000
,
0100
0000
0000
0000
,
0010
0000
1000
0000
,
1001
0000
0000
0000
,
1001
0110
0010
0000
,
0000
0000
0000
0000
,
0000
0000
0000
0000
,
0000
0000
0100
0000
,
0100
0000
0010
0000
,
0000
0000
0000
0000
,
0000
0000
0000
0000
,
0000
0000
1000
0000
,
0000
0000
0001
0000
,
0000
0000
0000
0000
,
0000
0000
0000
0000
,
0000
0000
1000
0000
,
1000
0000
0000
0000
,
0000
0000
0001
0000
,
0001
0000
0000
0000
,
0000
0000
1000
0000
,
1000
0000
0020
0000
,
0000
0000
0000
0000
,
0000
0000
0000
0000
,
0000
0030
0100
0000
,
0100
0000
0002
0000
,
0000
0000
0000
0000
,
0000
0000
0003
0000
,
0000
0000
1001
0000
,
0000
0000
0110
0000
,
0000
0000
0110
0000
,
0000
0000
1001
0000
,
0000
0000
1000
0000
,
0000
0000
0000
0020
,
0000
0030
0100
0000
,
0000
0000
1000
0000
,
0001
0000
0110
0000
;

//---------------dance-single - ----------------
#NOTEDATA:;
#CHARTNAME:;
#STEPSTYPE:dance-single;
#DESCRIPTION:;
#CHARTSTYLE:;
#DIFFICULTY:Challenge;
#METER:12;
#RADARVALUES:0.912985,1.197531,0.373546,1.745924,1.027253,787.000000,741.000000,46.000000,215.000000,0.000000,0.000000,5.000000,0.000000,0.000000,0.912985,1.197531,0.373546,1.745924,1.027253,787.000000,741.000000,46.000000,215.000000,0.000000,0.000000,5.000000,0.000000,0.000000;
#CREDIT:;
#NOTES:
// measure 0
0000
0000
0000
0000
,  // measure 1
0000
0000
0000
0000
,  // measure 2
0000
0000
0000
0000
,  // measure 3
0000
0000
0000
0000
,  // measure 4
1000
0000
0000
0010
0000
0000
0100
0000
0000
0010
0000
0000
0100
0000
0001
0000
,  // measure 5
0010
0000
0000
0100
0000
0000
1000
0000
0000
0100
0000
0000
1000
0000
0001
0000
,  // measure 6
0100
0000
0000
0010
0000
0000
0100
0000
0000
0001
0000
0000
0010
0000
0100
0000
,  // measure 7
1000
0000
0000
0010
0000
0000
0100
0000
0000
0001
0000
0000
0010
0000
0100
0000
,  // measure 8
1000
0001
0010
0001
0100
0010
1000
0200
,  // measure 9
0310
0001
1000
0100
1000
0010
0100
0002
,  // measure 10
0013
1000
0010
0001
0100
0010
1000
0200
,  // measure 11
0301
0000
0010
0000
1000
0000
0010
0000
0001
0000
0100
0000
0010
0100
0001
1000
,  // measure 12
0100
0000
1000
0000
0010
0000
0100
0000
0001
0010
0001
0000
1000
0000
0001
0000
,  // measure 13
0100
0000
0010
0000
1000
0000
0100
0000
0010
0001
0010
0000
0100
0000
1000
0000
,  // measure 14
0001
0100
0010
1000
0001
0010
0100
1000
0010
0100
0001
0010
0100
1000
0010
0100
,  // measure 15
0002
0000
0000
0000
0000
0000
0000
0003
0002
0000
0000
0000
0000
0000
0000
0000
2000
0000
0000
0000
0000
0000
0000
3000
2000
0000
0000
0000
0000
0000
0000
0003
0020
0000
0000
0000
0000
0000
0000
0030
0020
0000
0000
0000
0000
0000
0000
3000
2030
0000
0000
0000
0002
0000
0000
0000
0000
0000
0000
0000
3003
0000
0000
0000
,  // measure 16
0201
0000
0000
0000
0000
0000
0000
0000
0000
0000
0000
0000
0000
0000
0000
0300
1200
0000
0000
0000
0000
0000
0000
0000
0000
0000
0000
0000
0000
0000
0000
0000
2300
0000
0000
0000
0000
0000
0000
0000
0200
0000
0000
0000
3000
0000
0000
0000
0002
0000
0000
0000
0300
0000
0000
0000
0200
0000
0000
0000
0003
0000
0000
0000
,  // measure 17
2000
0000
0300
0000
0020
0000
3000
0000
0002
0000
0030
0000
0020
0000
0003
0000
2000
0000
0030
0000
0020
0000
3000
0000
0200
0000
0030
0000
0002
0000
0300
0003
,  // measure 18
1002
0000
0000
0000
0000
0000
0000
0000
0000
0000
0000
0000
0000
0000
0000
0003
0012
0000
0000
0000
0000
0000
0000
0000
0000
0000
0000
0000
0000
0000
0000
0000
0203
0000
0000
0000
0020
0000
0300
0000
2000
0000
0030
0000
0200
0000
3000
0000
0020
0000
0300
0000
0002
0000
0030
0000
0200
0000
0003
0000
0020
0000
0300
0000
,  // measure 19
2000
0030
0002
3000
0020
0003
0002
0030
0200
0003
0020
0300
2000
0030
0002
3000
0200
0003
0002
0300
0020
0003
0200
0030
2000
0300
0020
3000
0200
0030
0302
0003
,  // measure 20
2002
0000
0000
0000
0000
0000
0000
0000
0000
0000
0000
3003
2002
0000
0000
0000
0000
0000
0000
0000
0000
0000
0000
0000
3003
0000
0000
0000
0000
0000
0000
0000
0002
0000
0000
0000
0200
0000
0003
0000
0020
0000
0300
0000
2000
0000
0030
0000
0002
0000
3000
0000
0020
0000
0003
0000
0200
0000
0030
0000
2000
0000
0300
0000
,  // measure 21
0002
3000
0020
0003
0200
0030
2000
0300
0002
3000
0020
0003
0200
0030
2000
0300
0002
3000
0020
0003
0200
0030
2000
0300
0002
3000
0020
0003
0200
0030
2000
0300
,  // measure 22
0002
0000
0000
0000
0000
0000
3000
0000
0000
0000
0000
0000
0000
0000
0000
0000
0000
0000
0000
0000
0000
0000
0000
0000
1003
0000
0000
0000
0000
0000
0000
0000
0010
0000
0000
0000
0000
0000
0000
0000
1000
0000
0000
0000
0000
0000
0000
0000
0010
0000
0000
0000
0000
0000
0000
0000
0000
0000
0000
0000
0000
0000
0000
0000
0000
0000
0000
0000
0000
0000
0000
0000
0100
0000
0000
0000
0000
0000
0000
0000
0001
0000
0000
0000
0000
0000
0000
0000
0100
0000
0000
0000
0000
0000
0000
0000
0001
0000
0000
0000
0000
0000
0000
0000
0000
0000
0000
0000
0000
0000
0000
0000
0000
0000
0000
0000
0000
0000
0000
0000
0010
0000
0000
0000
0000
0000
0000
0000
0001
0000
0000
0000
0000
0000
0000
0000
0010
0000
0000
0000
0000
0000
0000
0000
0001
0000
0000
0000
0000
0000
0000
0000
0000
0000
0000
0000
0000
0000
0000
0000
0000
0000
0000
0000
0000
0000
0000
0000
0200
0000
0000
0000
0000
0000
0000
0000
0300
0000
0000
0000
0000
0000
0000
0000
0000
0000
0000
0000
0000
0000
0000
0000
,  // measure 23
0010
0000
0000
0000
0000
0000
1000
0000
0001
0000
1000
0000
0100
0000
0000
0000
0000
0000
0020
0000
0030
0000
0000
0000
0010
0000
0000
0010
0000
0000
0000
0000
0000
0001
0000
0000
0100
0000
0000
0100
0000
0000
0010
0000
0000
0000
0000
0000
,  // measure 24
2010
0000
0000
0000
0000
0000
0000
0000
0000
0000
0000
0000
0000
0000
0000
3000
2100
0000
0000
0000
0000
0000
0000
0000
0000
0000
0000
0000
0000
0000
0000
0000
3200
0000
0000
0000
0000
0000
0000
0000
0002
0000
0000
0000
0000
0000
0300
0000
0200
0000
0000
0000
0000
0000
0003
0000
2000
0000
0000
0000
0000
0000
0300
0000
,  // measure 25
0020
0000
0000
3000
0002
0000
0000
0030
0020
0000
0000
0003
2000
0000
0000
0030
0002
0000
0000
3000
0200
0000
0000
0003
2000
0000
0000
0300
0020
0000
3000
0030
,  // measure 26
0022
0000
0000
0000
0000
0000
0000
0003
0002
0000
0000
0000
0000
0000
0000
0033
0022
0000
0000
0000
0000
0000
0000
0000
0000
0000
0000
0000
0033
0000
0000
0000
0002
0000
0000
0000
2000
0000
0003
0000
0020
0000
3000
0000
0200
0000
0030
0000
0002
0000
0300
0000
0200
0000
0003
0000
0020
0000
0300
0000
2000
0000
0030
0000
,  // measure 27
0002
3000
0020
0003
0002
0030
2000
0003
0020
3000
0200
0030
0020
0300
2000
0030
0002
3000
0200
0003
0002
0300
0020
0003
0200
0030
2000
0300
0002
3000
0200
0303
,  // measure 28
2010
0000
0000
3100
0000
0000
0010
0001
1002
0000
0000
0103
0000
0000
0010
1000
,  // measure 29
2100
0000
0000
3010
0000
0000
0001
0100
0201
0000
0000
0310
0000
0000
0100
0001
,  // measure 30
1000
0000
0000
0001
0100
0001
0100
0000
0000
0010
1000
0010
0100
0000
0000
4004
0000
0000
0000
0000
0000
0000
0000
3003
,  // measure 31
1001
0000
0000
0000
0000
0000
0000
0000
0001
0000
0000
0000
1000
0000
0000
0000
0100
0000
0000
0000
0000
0000
0000
0000
1000
0000
0000
0000
0001
0000
0000
0000
2002
0000
0000
0000
0000
0000
0000
0003
0002
0000
0000
3003
2002
0000
0000
0000
0000
0000
0000
3000
2000
0000
0000
3003
2002
0000
0000
0000
0000
0000
3003
0000
,  // measure 32
0010
0000
0000
0000
2002
0000
0000
3003
,  // measure 33
0001
0000
1000
0010
0000
0100
0001
0000
0010
0100
0000
0010
0001
0100
0010
1000
,  // measure 34
0001
0100
0010
0100
0001
0010
0001
0100
0010
0100
0001
0010
0001
0100
0010
0100
,  // measure 35
0010
1000
0100
1000
0010
1000
0100
1000
0010
0100
0001
0010
0100
0010
0001
1000
,  // measure 36
0010
1000
0001
0100
0001
1000
0010
0100
0001
1000
0010
0100
0001
1000
0010
0000
,  // measure 37
1000
0001
0100
0010
1000
0001
0100
0010
1000
0001
0100
0010
1000
0001
0010
0001
,  // measure 38
1000
0100
0010
0001
0100
0010
1000
0001
0010
0100
1000
0010
0100
0001
0010
0001
,  // measure 39
1000
0000
0000
0000
0000
0000
0000
0000
0000
0000
0000
0000
0000
0000
0000
0000
0000
0000
0000
0000
0000
0000
0000
0000
0001
0000
0000
0000
0000
0000
0000
0000
1000
0000
0000
0000
0000
0000
0000
0000
0000
0000
0002
0000
0000
0000
0000
0000
4000
0000
0000
0000
0000
0000
0000
0000
0000
0000
0000
0000
0000
0000
0000
0000
0000
0000
0000
0000
0000
0000
0000
0000
0000
0000
0000
0000
0000
0000
0000
0000
0000
0000
0000
0000
0003
0000
0000
0000
0000
0000
0000
0000
0000
0000
0000
0000
3100
0000
0000
0000
0000
0000
0000
0000
0000
0000
0000
0000
0010
0000
0000
0000
0000
0000
0000
0000
0000
0000
0000
0000
0001
0000
0000
0000
0000
0000
0000
0000
0000
0000
0000
0000
0100
0000
0000
0000
0000
0000
0000
0000
0000
0000
0000
0000
0001
0000
0000
0000
0000
0000
0000
0000
0000
0000
0000
0000
0010
0000
0000
0000
0000
0000
0000
0000
0000
0000
0000
0000
0100
0000
0000
0000
0000
0000
0000
0000
0000
0000
0000
0000
1000
0000
0000
0000
0000
0000
0000
0000
0000
0000
0000
0000
,  // measure 40
0001
0000
1000
0010
0000
0010
0100
0000
0100
0001
0000
0001
0010
0100
1000
0010
,  // measure 41
0100
0000
0001
1000
0000
1000
0100
0000
0010
0001
0000
0001
0100
0010
1000
0001
,  // measure 42
1000
0000
0000
0000
0001
0000
1000
0000
0000
0010
0000
0000
0100
0000
0000
0000
0001
0000
0100
0000
0000
0010
0000
0000
1000
0000
0000
0100
0000
0000
0010
0000
0000
0001
0000
0000
1000
0000
0000
0010
0000
0000
0100
0000
0000
0001
0000
0000
,  // measure 43
0010
0000
0000
0000
0100
0000
1000
0000
0000
0010
0000
0000
0100
0000
0000
0000
0001
0000
0010
0000
0000
0100
0000
0000
1000
0000
0000
0100
0000
0000
0010
0000
0000
0001
0000
0000
0010
0000
0000
0100
0000
0000
1000
0000
0000
0001
0000
0000
,  // measure 44
1000
0000
0001
0100
0000
0100
0010
0000
0010
1000
0000
1000
0100
0010
0001
0100
,  // measure 45
0010
0000
1000
0001
0000
0001
0010
0000
0100
1000
0000
1000
0010
0100
0001
1000
,  // measure 46
0001
0000
0000
0000
1000
0000
0001
0000
0000
0100
0000
0000
0010
0000
0000
0000
1000
0000
0010
0000
0000
0100
0000
0000
0001
0000
0000
0010
0000
0000
0100
0000
0000
1000
0000
0000
0001
0000
0000
0100
0000
0000
0010
0000
0000
1000
0000
0000
,  // measure 47
0200
0000
0000
0000
0000
0000
0000
0300
,  // measure 48
0010
0000
0000
0001
0000
0000
0100
0000
0000
0010
0000
0000
1000
0000
0001
0000
,  // measure 49
0010
0000
0000
0001
0000
0000
0100
0000
0000
1000
0000
0000
0100
0000
0010
0000
,  // measure 50
1000
0000
0000
0001
0000
0000
0010
0000
0000
0001
0000
0000
1000
0000
0010
0000
,  // measure 51
0100
0000
0000
0001
0000
0000
0010
0000
0000
1000
0000
0000
0010
0000
0100
0000
,  // measure 52
1000
0000
0001
1000
0010
0000
1000
0001
0100
0000
0001
1000
0001
0000
1001
0000
,  // measure 53
1100
0000
1000
0001
0010
0000
0001
1000
0010
0000
1000
0001
0100
0000
0101
0000
,  // measure 54
0001
0010
0100
1000
0010
0100
0001
0010
0100
0010
0001
0100
0010
1000
0001
0010
,  // measure 55
0021
0000
0000
0000
0000
0000
0000
0030
0210
0000
0000
0000
0000
0000
0000
0300
2100
0000
0000
0000
0000
0000
0000
3000
1020
0000
0000
0000
0000
0000
0000
0030
0200
0000
0000
0000
0000
0000
0000
0300
0102
0000
0000
0000
0000
0000
0000
0003
1001
0000
0000
0000
2002
0000
0000
0000
0000
0000
0000
0000
0000
0000
3003
0000
,  // measure 56
0201
0000
0000
0320
0000
0000
2000
0000
0000
3030
0000
0000
0010
0000
0100
0000
0010
0000
0100
0000
0010
0000
0100
0000
,  // measure 57
0010
0100
0010
0100
0010
0100
0010
0100
0010
0100
0010
0100
,  // measure 58
0010
0000
0100
0000
0010
0000
0100
0000
0010
0000
0100
0000
0010
0000
0000
1000
0000
0000
0100
0000
0000
0000
0000
0000
,  // measure 59
0010
0000
0000
0000
0000
0000
0000
0000
0011
0000
0000
0000
0000
0000
0000
0000
0100
0000
0000
0000
0001
0000
0000
0000
2000
0000
0000
0000
0000
0000
0000
3000
,  // measure 60
2002
0000
0000
0000
0000
0000
0000
3003
0002
0000
0200
0003
0020
0300
2000
0030
,  // measure 61
0002
3000
0020
0003
0002
0030
0200
0003
0020
0300
2000
0030
0002
3000
0020
0003
,  // measure 62
0200
0030
2000
0300
0020
3000
0200
0030
0002
0300
0020
0003
0200
0030
0020
0300
,  // measure 63
0002
0030
2000
0003
0200
3000
0020
0300
0002
0030
0000
0000
1003
0000
2020
0000
,  // measure 64
0000
0000
0000
3030
1000
0000
0001
0100
,  // measure 65
0000
0100
1000
0000
1000
0010
0000
0010
,  // measure 66
0001
0000
0000
0000
0000
0000
0001
0000
0000
1000
0000
0000
0010
0000
0000
0100
0000
0000
0001
0000
1000
0000
0001
0000
,  // measure 67
1000
0000
0000
0000
0000
0000
0010
0000
0000
0000
0000
0000
0201
0000
0000
0000
0000
0000
0000
0000
0000
0310
0000
1000
,  // measure 68
0000
0010
0000
1000
0000
0010
0000
1000
0000
0010
0000
1000
0000
0010
0000
1000
0000
0010
0000
1000
0000
0010
0000
1000
,  // measure 69
0000
0002
0000
0000
0000
0000
0000
0000
0000
0003
0000
0000
1020
0000
0000
0000
0000
0000
0000
0000
0000
0130
0000
0001
,  // measure 70
0000
0100
0000
0001
0000
0100
0000
0001
0000
0100
0000
0001
0000
0100
0000
0001
0000
0100
0000
0001
0000
0100
0000
0001
,  // measure 71
0000
2000
0000
0000
0000
0000
0000
0000
0000
3000
0000
0000
1001
0000
0000
0000
0000
0000
0001
0000
0000
0000
0000
0000
,  // measure 72
0100
0000
0010
0000
1000
0000
0001
0100
,  // measure 73
0000
0010
1000
0000
0100
0000
1000
0000
,  // measure 74
0010
0000
0100
0000
0001
0010
0100
1000
,  // measure 75
0001
1000
0001
0000
1020
0000
0230
0000
,  // measure 76
0302
0000
0000
0000
0000
0000
0000
0000
0000
0000
0000
0000
2003
0000
3000
2000
0000
0000
0020
0000
3000
0200
0000
0030
,  // measure 77
0002
0000
0003
0002
0000
0300
0020
0000
0003
0200
0000
0030
0020
0000
0030
0020
0000
0300
0200
0000
0030
2000
0000
0300
,  // measure 78
0020
0000
0030
0020
0000
3000
0200
0000
0030
0302
0000
0000
0000
0000
0000
1003
0000
0100
0000
1000
0000
0100
0000
0000
,  // measure 79
1000
0000
0000
0000
0000
0000
0001
0000
0100
0000
0001
0000
0200
0000
0000
0000
0000
0000
0000
0000
0000
0310
0000
0000
,  // measure 80
0000
0000
1000
0001
0102
0000
0000
0013
,  // measure 81
0000
0000
0100
1000
2010
0000
0000
3100
,  // measure 82
0000
0000
0010
0001
2001
0000
0000
3010
,  // measure 83
0000
0000
0000
0000
0000
0000
0100
0000
0000
0001
0000
0000
1001
0000
0000
0000
0000
0000
0001
0000
0100
0000
0001
0000
,  // measure 84
0100
0000
0000
0010
1000
0010
1000
0000
0000
0404
0000
0000
,  // measure 85
0000
0000
0000
0000
0000
0000
0000
0000
0000
0000
0303
0000
1001
0000
0000
0000
0000
0000
1000
0000
0000
0001
0000
0000
,  // measure 86
1002
0000
0000
0000
0000
0000
0000
0000
0000
0000
0000
0000
0000
0000
0000
0000
0000
0000
0000
0000
0000
0000
0000
0000
0000
0000
0000
0000
0000
0000
0000
0000
0000
0000
0000
0000
0000
0000
0000
0000
0000
0000
0003
0000
0000
0000
0000
0000
0001
0000
0000
0000
0000
0000
0000
0000
0000
0000
0000
0000
0000
0000
0000
0000
0000
0000
0000
0000
0000
0000
0000
0000
0100
0000
0000
0000
0000
0000
0000
0000
0000
0000
0000
0000
0000
0000
0000
0000
0000
0000
0000
0000
0000
0000
0000
0000
0020
0000
0000
0000
0000
0000
0000
0000
0000
0000
0000
0000
0000
0000
0000
0000
0000
0000
0000
0000
0000
0000
0000
0000
0000
0000
0000
0000
0000
0000
0000
0000
0000
0000
0000
0000
0000
0000
0000
0000
0000
0000
0000
0000
0000
0000
0000
0000
1000
0000
0000
0000
0000
0000
0000
0000
0000
0000
0000
0000
0000
0000
0000
0000
0030
0000
0000
0000
0000
0000
0000
0000
0020
0000
0000
0000
0000
0000
0000
0000
0000
0000
0000
0000
0000
0000
0000
0000
0000
0000
0000
0000
0000
0000
0000
0000
,  // measure 87
0000
0000
0100
0030
0020
0000
0000
0030
2002
0000
0000
0000
0000
0000
0000
0000
,  // measure 88
0000
0000
0000
0000
,  // measure 89
0000
0000
0000
3003
0000
0000
0000
0000
;
