#TITLE:Rebirth;
#SUBTITLE:;
#ARTIST:Lenno;
#TITLETRANSLIT:;
#SUBTITLETRANSLIT:;
#ARTISTTRANSLIT:;
#GENRE:;
#CREDIT:;
#BANNER:Rebirth.png;
#BACKGROUND:Rebirth-bg.png;
#LYRICSPATH:;
#CDTITLE:;
#MUSIC:Rebirth.ogg;
#OFFSET:2.867998;
#SAMPLESTART:22.858227;
#SAMPLELENGTH:11.427212;
#LASTBEATHINT:2.587505;
#SELECTABLE:YES;
#BPMS:0.000000=84.010002
;
#STOPS:96.000000=2.143000
;
#BGCHANGES:;
#KEYSOUNDS:;
#ATTACKS:;

//---------------dance-single - ----------------
#NOTES:
     dance-single:
     :
     Hard:
     8:
     0.371233,0.540979,0.150073,0.142174,0.430473,329.000000,310.000000,19.000000,18.000000,0.000000,0.000000,0.371233,0.540979,0.150073,0.142174,0.430473,329.000000,310.000000,19.000000,18.000000,0.000000,0.000000:
0000
0000
0000
0000
,
0000
0000
0000
0000
,
0000
0000
0000
0000
,
0000
0000
0000
0000
,
0000
0000
0000
0000
,
0001
0001
1000
1000
,
0010
0010
0100
0100
,
0001
0100
0010
1000
0001
0100
0010
0100
,
0001
1000
0001
1000
0001
1000
0001
1000
0020
0000
0000
0000
0000
0000
0000
0000
,
0130
0000
0001
0000
0010
0000
0000
0000
0100
0000
0000
1000
0000
0001
0000
0000
,
0000
0000
0100
0000
0010
0000
0000
0000
1000
0000
0000
0100
0000
1000
0000
1001
,
0000
0000
0001
0000
0100
0000
0000
0000
0010
0000
0000
0100
0000
0001
0000
0000
,
0000
0000
1000
0000
0010
0000
0000
0000
0100
0000
0000
0010
0000
1000
0000
0001
,
0020
0000
0100
0000
0100
0000
0000
0000
0031
0000
0000
1000
0000
1010
0000
0000
,
1000
0000
0001
0000
0010
0000
0000
0000
0100
0000
0000
0010
0000
0001
0000
1000
,
0001
0000
0010
0000
0011
0000
0000
0000
0101
0000
0000
0001
0000
1000
0000
0010
,
0100
0000
0000
0000
0100
0000
0000
0000
0001
1000
0001
0000
1000
0001
1000
0000
,
0100
0000
1010
0000
1000
0010
0100
0000
,
0001
1000
0010
0000
0001
0000
0010
0000
1000
0100
0001
0000
0100
0000
1000
0000
,
0001
1010
1000
0101
,
0001
1000
0010
0000
0001
0000
0010
0000
0100
0000
0001
0020
0000
0230
0000
0000
,
1300
0010
0110
0000
0100
0001
0011
0000
,
0010
0100
1000
0000
0001
0000
0100
0000
1000
0010
0001
0000
0010
0000
0100
0000
,
0101
1010
0101
1010
,
0000
0000
0000
0000
1000
0000
0100
0000
0010
0000
0010
0100
1000
0000
0001
0100
,
0000
0010
0000
0000
1000
0000
0010
0000
0100
0000
0100
0001
1000
0000
1000
0100
,
0000
1000
0000
0010
0100
0000
0001
0000
1000
0000
0001
1000
0010
0000
1000
0001
,
0000
0100
0000
0000
0001
0000
0010
0000
0001
0000
1000
0010
0100
0000
0010
1000
,
0000
0001
0000
0010
0100
0000
1000
0000
0100
0000
0001
0100
1000
0000
0010
0100
,
0000
0001
0000
0000
0001
0000
0010
0000
1000
0000
0010
0100
1000
0000
1000
0001
,
0000
0100
0000
0010
0100
0000
0010
0000
1000
0000
0001
0010
1000
0000
0010
0100
,
0000
1000
0001
0000
0000
1000
0200
0000
0302
0000
0103
0000
2000
0000
3010
0200
,
0000
0000
0000
0000
0301
0100
0010
1000
0001
0100
0010
1000
0001
0100
0010
1000
,
0001
0100
0010
1000
0002
0000
0000
0023
0000
0000
0032
0000
0000
0000
1003
0100
,
0010
0100
1000
0001
0020
0000
0000
0230
0000
0000
2300
0000
0000
3200
0000
0000
,
0310
0000
0001
0000
1000
0010
0100
0001
1000
0100
1000
0001
0100
0000
0010
0100
,
0000
0100
0000
0100
0001
0010
0100
1000
0001
0010
0100
1000
0001
0010
0100
1000
,
0001
0010
0100
1000
0002
0000
0000
2003
0000
0000
3020
0000
0000
1030
0000
0000
,
0000
0000
0100
0010
0001
0000
1000
0010
0100
0000
0001
1000
0100
0010
0001
1000
,
0100
0010
0001
1000
0100
0000
1100
0000
1010
0000
0010
0100
0101
0000
0001
1001
,
0000
0110
0000
1001
0000
0000
1000
0000
0001
0000
0000
0000
1000
0000
0000
0001
,
0000
0001
0000
0000
0000
0000
1000
0000
0001
0000
0000
0000
1000
0000
0000
0001
,
0000
1000
0000
0001
0000
0000
0100
0000
0010
0000
0000
0000
0100
0000
0000
0010
,
0000
0010
0000
0000
0000
0000
0100
0000
0010
0000
0000
0000
0100
0000
0000
0010
,
0000
1000
0000
0001
0000
0000
0000
0000
0000
0000
0000
0000
0000
0000
0000
0000
;

//---------------dance-single - ----------------
#NOTES:
     dance-single:
     :
     Medium:
     5:
     0.261782,0.314117,0.047391,0.039493,0.256704,232.000000,226.000000,6.000000,5.000000,0.000000,0.000000,0.261782,0.314117,0.047391,0.039493,0.256704,232.000000,226.000000,6.000000,5.000000,0.000000,0.000000:
0000
0000
0000
0000
,
0000
0000
0000
0000
,
0000
0000
0000
0000
,
0000
0000
0000
0000
,
0000
0000
0000
0000
,
1000
1000
0010
0010
,
0100
0100
0001
0001
,
1000
0001
0100
0010
1000
0001
0100
0010
,
1000
0100
0010
0001
0020
0000
0000
0000
,
0030
0000
0100
0000
1000
0000
0000
0000
0010
0000
0000
0100
0000
0001
0000
0000
,
0000
0000
0100
0000
0010
0000
0000
0000
1000
0000
0000
0001
0000
1000
0000
0001
,
0000
0000
0100
0000
0001
0000
0000
0000
0010
0000
0000
0001
0000
1000
0000
0000
,
0000
0000
0100
0000
1000
0000
0000
0000
0010
0000
0000
0100
0000
0010
0000
1000
,
0002
0000
0000
0000
,
0003
0000
1000
0000
0100
0000
0000
0000
1000
0000
0000
0010
0000
0100
0000
0010
,
0000
0000
0100
0000
0001
0000
0000
0000
0010
0000
0000
0001
0000
1000
0000
0000
,
0000
0000
0001
0000
0100
0000
0000
0000
0010
0000
0000
1000
0000
0001
0000
0100
,
0001
0000
0011
0000
0010
0100
1000
0000
,
0000
0100
1000
0000
0010
0000
0000
0000
0000
0100
0001
0000
0010
0000
0000
0000
,
0100
0000
1100
0000
1000
0001
1000
0000
,
0000
0001
0100
0000
0010
0000
1000
0000
0010
0000
0100
0002
0000
0000
0000
0000
,
1003
0000
0101
0000
0001
0010
0100
0000
,
0000
0010
0100
0000
0001
0000
0000
0000
0000
0010
0100
0000
1000
0000
0000
0000
,
1000
0000
0001
0000
0100
0000
0010
0100
,
0000
0000
0000
0000
1000
0000
0001
0000
0100
0000
0000
0000
0001
0000
0000
0010
,
0000
0100
0000
0000
0000
0000
0100
0000
1000
0000
0000
0000
0001
0000
0000
1000
,
0000
0001
0000
0010
0000
0000
0001
0000
0100
0000
0000
0000
1000
0000
0000
0100
,
0000
0010
0000
0000
0000
0000
0001
0000
0010
0000
0000
0000
0100
0000
0000
0100
,
0000
0010
0000
1000
0000
0000
0010
0000
0100
0000
0000
0000
0001
0000
0000
0010
,
0000
0100
0000
0000
0000
0000
0010
0000
0001
0000
0000
0000
1000
0000
0000
0010
,
0000
0100
0000
0001
0000
0000
1000
0000
0001
0000
0000
0000
0100
0000
0000
0010
,
0000
1000
0000
0000
0000
0010
1000
0000
0010
0000
0100
0000
0001
0000
0010
0002
,
0000
2000
0000
3003
0001
0000
0100
0000
0010
0000
1000
0000
0010
0000
0100
0000
,
0001
0000
1000
0000
0100
0000
0000
1000
0000
0000
0010
0000
0000
0000
0100
0000
,
0010
0000
1000
0000
0001
0000
0000
0010
0000
0000
0001
0000
0000
1000
0000
0000
,
0100
0000
1000
0000
0010
0000
0100
0000
0010
0000
1000
0000
0001
0000
1000
0001
,
0000
0001
0000
0001
1000
0000
0100
0000
0010
0000
0001
0000
1000
0000
0100
0000
,
0010
0000
0001
0000
1000
0000
0000
0001
0000
0000
0100
0000
0000
0001
0000
0000
,
0000
0010
0100
1000
0010
0100
0001
1000
,
0001
0000
0100
0000
0010
0000
0110
0000
0110
0000
0000
0000
1001
0000
0000
0001
,
0000
1000
0000
0010
0000
0000
0100
0000
0010
0000
0000
0000
0100
0000
0000
0010
,
0000
0010
0000
0000
0000
0000
1000
0000
0001
0000
0000
0000
1000
0000
0000
0001
,
0000
0001
0000
1000
0000
0000
0100
0000
0010
0000
0000
0000
0100
0000
0000
0010
,
0000
0010
0000
0000
0000
0000
0001
0000
1000
0000
0000
0000
0001
0000
0000
1000
,
0000
0001
0000
0010
0000
0000
0000
0000
0000
0000
0000
0000
0000
0000
0000
0000
;

//---------------dance-single - ----------------
#NOTES:
     dance-single:
     :
     Easy:
     3:
     0.160228,0.209411,0.110580,0.078986,0.000000,142.000000,128.000000,14.000000,10.000000,0.000000,0.000000,0.160228,0.209411,0.110580,0.078986,0.000000,142.000000,128.000000,14.000000,10.000000,0.000000,0.000000:
0000
0000
0000
0000
,
0000
0000
0000
0000
,
0000
0000
0000
0000
,
0000
0000
0000
0000
,
0000
0000
0000
0000
,
1000
1000
0001
0001
,
0100
0100
0010
0010
,
1000
0100
0010
0001
,
2000
0000
0020
3030
,
0100
0101
0001
0001
,
1000
1100
0100
0010
,
0001
1001
1000
1000
,
0010
1010
1000
0010
,
0200
0000
0000
0000
,
0000
0000
0000
0000
,
0310
1010
1000
0001
,
0010
0011
0001
0100
,
0110
0100
0000
0010
,
0000
1000
1000
0000
0000
1000
1000
0000
,
0001
1000
0000
0010
,
0000
0100
0100
0000
0001
0000
0010
0000
,
0001
1000
0000
0001
,
0000
0100
0100
0000
0000
0100
0100
0000
,
0010
0010
0010
0010
,
0000
1000
0101
0001
,
0010
0001
1010
1000
,
0001
0010
1100
1000
,
0001
0010
0011
0001
,
1000
0010
0101
0001
,
1000
0010
1001
0001
,
1000
0100
0011
0001
,
1000
0020
0000
0000
,
0030
0100
0001
0010
,
0001
0000
2000
0000
0000
3000
0000
0002
,
0000
0013
0100
0001
,
1000
0001
1000
0000
0010
0000
0100
0000
,
0000
0010
0010
0010
,
0010
1000
0001
0100
,
0000
0010
1000
0000
0010
0000
0100
0000
,
0001
0010
0100
1000
,
0001
1000
0000
0002
0000
0000
0000
0000
,
0000
0003
0000
2000
0000
0000
0000
0000
,
0000
0000
3000
0020
0000
0000
0000
0000
,
0000
0030
0000
0200
0000
0000
0000
0000
,
0000
0000
0000
0300
0000
0000
0000
0000
0000
0000
0000
0000
0000
0000
0000
0000
;

//---------------dance-single - ----------------
#NOTES:
     dance-single:
     :
     Beginner:
     1:
     0.064317,0.122157,0.000000,0.000000,0.003949,57.000000,57.000000,0.000000,0.000000,0.000000,0.000000,0.064317,0.122157,0.000000,0.000000,0.003949,57.000000,57.000000,0.000000,0.000000,0.000000,0.000000:
0000
0000
0000
0000
,
0000
0000
0000
0000
,
0000
0000
0000
0000
,
0000
0000
0000
0000
,
0000
0000
0000
0000
,
0000
0000
0000
0000
,
0000
0000
0000
0000
,
0000
0000
0000
0000
,
0000
0000
0000
0000
,
1000
0000
1000
0000
,
0001
0000
0001
0000
,
0100
0000
0100
0000
,
0010
0000
0010
0000
,
1000
0000
0000
0000
,
0000
0000
0000
0000
,
1000
0000
0000
0000
,
0001
0001
0001
0000
,
0100
0000
0000
0000
,
0000
0010
0000
0010
,
0100
0000
0000
0000
,
1000
0000
0001
0000
,
1000
0000
0000
0000
,
0000
0010
0000
0010
,
0100
0100
0100
0100
,
0000
0001
0000
1000
,
0000
0001
0000
0100
,
0000
0010
0000
1000
,
0000
0010
0000
1000
,
0000
0001
0000
0100
,
0000
0001
0000
0010
,
0000
0001
0000
1000
,
0000
0010
0000
0000
,
0000
1000
0000
0000
,
0000
0001
0000
0000
,
0100
0010
0000
0000
,
1000
1000
0000
0001
,
0000
0100
0000
0000
,
0000
0010
0000
0000
,
0000
1000
0000
0001
,
0000
0100
0000
0010
,
0000
1000
0000
0000
,
0000
0000
0000
0000
,
0000
0001
0000
0000
,
0000
0000
0000
0000
,
0000
0000
0000
0100
0000
0000
0000
0000
0000
0000
0000
0000
0000
0000
0000
0000
;

//---------------dance-single - ----------------
#NOTES:
     dance-single:
     :
     Challenge:
     9:
     0.572083,0.942350,0.497611,0.394929,0.781960,507.000000,444.000000,63.000000,50.000000,0.000000,0.000000,0.572083,0.942350,0.497611,0.394929,0.781960,507.000000,444.000000,63.000000,50.000000,0.000000,0.000000:
// measure 0
0000
0000
0000
0000
,  // measure 1
0000
0000
0000
0000
,  // measure 2
0000
0000
0000
0000
,  // measure 3
0000
0000
0000
0000
,  // measure 4
0000
0000
0000
0000
,  // measure 5
1100
1000
1010
0010
0110
0100
0101
0001
,  // measure 6
0011
0010
0110
0100
1100
1000
1001
0001
,  // measure 7
0101
0011
1100
1010
0011
1100
0101
1001
,  // measure 8
1000
0000
1000
0000
0010
0000
0100
0000
0001
0000
0001
0000
0010
0000
0100
0000
2000
0000
0200
3000
0002
0300
0200
0000
0000
0003
0020
0000
0000
0300
0200
0030
,  // measure 9
1300
0000
0001
1000
0010
0000
0100
0001
0010
0000
0100
0010
0000
0100
1000
0001
,  // measure 10
1000
0000
0010
1000
0100
0000
0010
0001
0100
0000
0010
1010
0000
0101
0000
1001
,  // measure 11
0001
0000
0010
0100
1000
0000
1000
0010
0001
0000
0010
0100
0001
0000
0010
1000
,  // measure 12
0100
0000
0001
0100
1000
0000
1000
0010
0100
0000
0001
0011
0000
1100
0100
0010
,  // measure 13
0011
0000
0001
1000
0010
0000
1000
0001
0010
0000
0100
0010
0000
0001
0000
1000
,  // measure 14
0010
0000
0100
0001
0010
0000
0100
0010
0001
0000
1000
1010
0000
0101
0000
1001
,  // measure 15
1000
0000
0001
0010
0001
0000
0100
1000
0001
0000
0010
1000
0100
0000
0010
0001
,  // measure 16
1000
0000
0010
0000
1001
0000
0100
0000
1001
1000
0100
0000
1000
0100
1000
0001
,  // measure 17
0010
0000
0001
0100
0010
0000
1000
0001
0010
0000
0100
1000
0010
0000
0100
0001
,  // measure 18
0010
0200
2000
0300
3020
0000
0130
1000
0010
0200
0020
0300
2030
0000
3001
0010
,  // measure 19
0100
0000
1000
0001
0010
0000
0001
0100
0010
0000
0100
0001
0010
0000
0100
1000
,  // measure 20
0010
2000
0002
3000
0023
0000
2000
0030
0020
3000
0230
2000
3000
2000
0300
0000
,  // measure 21
3001
0100
0010
1000
0001
1000
0001
0100
0010
1000
0010
0100
0001
1000
0010
0100
,  // measure 22
0001
0020
2000
0030
3020
0000
0130
0000
1000
0020
0002
0030
0023
0000
0130
0001
,  // measure 23
0011
0000
0010
0100
0110
0000
0100
1000
1100
0000
1000
0001
1001
0000
0001
0100
,  // measure 24
0000
0000
0000
0000
1001
0000
0001
0010
0011
0000
0010
0100
0110
0000
0100
1100
,  // measure 25
0000
1010
0000
0000
1000
0000
0001
0010
0011
0000
0001
0100
0101
0000
0100
0110
,  // measure 26
0000
1010
0000
1001
1000
0000
0010
1000
1100
0000
0100
0010
0011
0000
0001
0101
,  // measure 27
0000
1100
0000
0000
1000
0000
0010
1000
1100
0000
0100
0010
0011
0000
0001
0011
,  // measure 28
0000
1010
0000
1001
0001
0000
0010
0100
1100
0000
1000
0010
0101
0000
0001
0011
,  // measure 29
0000
1100
0000
0000
1000
0000
0001
0010
1100
0000
1000
0010
0110
0000
0100
0101
,  // measure 30
0000
1100
0000
1001
0001
0000
0010
0100
1100
0000
1000
0010
1010
0000
1000
0011
,  // measure 31
0000
0000
0101
0000
0000
0000
0000
0000
0000
0000
0002
0000
0200
0000
0000
0003
2000
0000
0000
0300
0020
0000
0000
3000
0002
0000
0000
0030
2000
0003
0020
0000
,  // measure 32
0030
0020
0000
3000
1030
0010
0100
0001
1000
0010
0100
0001
1000
0001
0100
0001
,  // measure 33
1000
0000
0001
0000
0100
0000
0010
0000
2000
0000
0000
0000
0000
0000
3002
0000
0000
0000
0000
0000
0023
0000
0000
0000
0000
0000
0000
0000
0130
0010
0001
1000
,  // measure 34
0010
0100
0001
0010
0001
0010
0100
0010
0002
0000
0000
0000
0000
0000
0023
0000
0000
0000
0000
0000
0032
0000
0000
0000
0000
0000
2003
0000
0000
0000
0000
0000
,  // measure 35
3020
0000
0000
0000
2030
0000
0000
0000
3100
0010
0001
1000
0010
0100
0001
0100
0001
0010
0100
0010
0001
1000
0001
1000
0100
0000
0000
0000
1000
0000
0010
0000
,  // measure 36
0000
0000
0010
0000
0000
0000
0010
0000
1000
0100
0010
0001
0010
0100
1000
0100
0010
0001
0010
0100
1000
0100
0010
0001
0010
0100
1000
0100
0010
0001
0010
0100
,  // measure 37
1000
0100
0010
0001
0010
0100
0010
0001
2000
0000
0000
0000
0000
0000
3002
0000
0000
0000
0000
0000
0103
0000
0001
0000
0000
0000
0010
0000
0000
0000
0000
0000
,  // measure 38
0000
0000
0000
0000
0100
0010
0001
1000
0100
0000
0000
0000
2000
0000
0000
0000
0000
0000
0000
0000
3001
0000
0100
0000
0001
0010
0100
1000
0100
0010
0001
0010
,  // measure 39
0100
1000
0100
0010
0001
1000
0100
0010
0001
0000
0000
0000
0020
0000
0000
0000
0000
0000
0000
0000
0031
0000
1000
0000
0002
0000
0000
0000
0000
0000
0203
0000
,  // measure 40
0000
0000
0320
0000
1030
0000
0001
0000
1000
0000
0000
0000
0001
0000
0000
1000
,  // measure 41
0000
1000
0000
0000
0000
0000
0001
0000
1000
0000
0000
0000
0001
0000
0000
1000
,  // measure 42
0000
0001
0000
1000
0000
0000
0010
0000
0100
0000
0000
0000
0010
0000
0000
0100
,  // measure 43
0000
0010
0000
0000
0000
0000
0100
0000
0010
0000
0000
0000
0100
0000
0000
0010
,  // measure 44
0000
1000
0000
0001
0000
0000
0000
0000
0000
0000
0000
0000
0000
0000
0000
0000
;
