#TITLE:Ready;
#SUBTITLE:;
#ARTIST:Reece Low;
#TITLETRANSLIT:;
#SUBTITLETRANSLIT:;
#ARTISTTRANSLIT:;
#GENRE:;
#CREDIT:;
#BANNER:Ready.png;
#BACKGROUND:Ready-bg.png;
#LYRICSPATH:;
#CDTITLE:;
#MUSIC:Ready.mp3;
#OFFSET:-0.047000;
#SAMPLESTART:65.671997;
#SAMPLELENGTH:16.875000;
#SELECTABLE:YES;
#BPMS:0.000000=128.000000
,154.000000=64.000000
,156.000000=128.000000
,168.000000=64.000000
,170.000000=128.000000
,182.000000=64.000000
,184.000000=128.000000
,196.000000=64.000000
,198.000000=128.000000
;
#STOPS:140.000000=0.234000,
140.500000=0.234000,
141.000000=0.234000,
141.500000=0.234000
;
#BGCHANGES:;
#KEYSOUNDS:;
#ATTACKS:;

//---------------dance-single - ----------------
#NOTES:
     dance-single:
     :
     Hard:
     7:
     0.375321,0.466484,0.134300,0.201450,0.075544,313.000000,297.000000,16.000000,24.000000,0.000000,0.000000,0.375321,0.466484,0.134300,0.201450,0.075544,313.000000,297.000000,16.000000,24.000000,0.000000,0.000000:
// measure 0
0000
0000
0000
0000
,  // measure 1
0000
0000
0000
0000
,  // measure 2
0000
0000
0000
0000
,  // measure 3
0000
0000
0000
0000
,  // measure 4
1000
0010
0100
0100
,  // measure 5
0001
0010
0001
1000
,  // measure 6
0100
1000
0010
1000
,  // measure 7
0001
0001
1000
0001
,  // measure 8
0100
0001
0010
0001
,  // measure 9
1000
1000
0100
1000
,  // measure 10
0010
0100
0010
1000
,  // measure 11
0001
0010
0001
1000
,  // measure 12
0001
0000
0000
0000
1000
0000
0010
0000
0100
0000
0000
0001
0000
0000
0010
0000
,  // measure 13
0100
0000
0100
0000
0010
0000
0001
0000
1000
0000
0000
0010
0000
0000
0100
0000
,  // measure 14
0001
0000
0001
0000
1000
0000
0100
0000
1000
0000
0000
0010
0000
0000
0100
0000
,  // measure 15
0010
0010
1000
1000
0001
0100
0001
0010
,  // measure 16
0100
0000
0000
0000
1000
0000
0010
0000
0100
0000
0000
0001
0000
0000
1000
0000
,  // measure 17
0010
0000
0010
0000
1000
0000
0001
0000
0010
0000
0000
0100
0000
0000
0010
0000
,  // measure 18
0001
0000
0001
0000
1000
0000
0010
0000
0100
0000
0000
0001
0000
0000
1000
0000
,  // measure 19
0010
0010
1000
1000
0100
0010
1001
0000
,  // measure 20
1000
0010
0000
0010
0000
0010
0000
0010
,  // measure 21
0000
0100
0000
0100
0000
0100
0000
0100
,  // measure 22
0000
0001
0000
0001
0000
0001
0000
0001
,  // measure 23
0000
1000
0000
1000
0000
1000
0000
1000
,  // measure 24
0000
0010
0000
1000
0000
0010
0000
1000
,  // measure 25
0000
0001
0000
0100
0000
0001
0000
0100
,  // measure 26
0000
0001
0000
0010
0000
0001
0000
0010
,  // measure 27
0000
0100
0000
1000
0000
0100
0000
1000
,  // measure 28
0200
0320
0031
1000
,  // measure 29
0020
0230
0301
1000
,  // measure 30
0020
0230
0301
1000
,  // measure 31
0200
0000
0320
0000
0031
0000
0010
0001
,  // measure 32
2000
0000
3100
0010
0002
0000
0013
0100
,  // measure 33
2000
0000
3100
0010
0002
0000
0013
0100
,  // measure 34
4000
0004
0000
0000
0000
0000
0000
3003
,  // measure 35
0002
2003
3200
0300
1001
0000
0001
0000
,  // measure 36
0001
0000
0001
1000
0100
0010
0100
0000
,  // measure 37
0100
1000
0100
0010
0001
1000
0001
0000
,  // measure 38
1000
0000
0000
0000
1000
0000
0010
0000
0100
0001
1000
0000
0020
0000
0000
0000
,  // measure 39
0130
0000
0100
0000
0100
0000
0100
0010
,  // measure 40
1000
0001
1000
0000
1000
0100
1000
0001
,  // measure 41
0100
0001
0010
0000
0010
0000
0010
0100
,  // measure 42
1000
0001
0010
0010
0001
1000
1001
0000
1000
0000
0000
0000
1000
0000
0000
0000
,  // measure 43
1000
0100
1000
0010
0100
0001
0100
0000
,  // measure 44
0100
0001
0100
0010
1000
0001
1000
0000
,  // measure 45
1000
0000
0000
0000
1000
0000
0010
0000
0100
0001
0010
0010
0100
1000
1001
0000
,  // measure 46
1000
0001
0010
0000
0010
0000
0010
0001
,  // measure 47
0100
0010
1000
0100
1000
0001
0010
0100
,  // measure 48
1000
0001
0100
0000
0100
0000
0100
0010
,  // measure 49
1000
0100
0001
0100
0010
0001
1000
0000
1100
0000
0000
0000
0101
0000
0000
0000
,  // measure 50
0100
0001
0011
1010
,  // measure 51
1000
0010
0110
0101
,  // measure 52
0001
1000
1010
1100
,  // measure 53
1010
0000
0110
0100
0002
0000
1003
0100
,  // measure 54
0020
0000
0031
0010
0200
0000
1300
0100
,  // measure 55
0020
0000
0031
0010
0200
0000
1300
0100
,  // measure 56
0020
0000
0000
0000
0130
0000
0010
0000
0001
0000
1000
0000
0000
1000
0000
0001
,  // measure 57
1000
0100
0110
0000
2002
0000
0000
0000
,  // measure 58
0000
0000
3003
0000
;

//---------------dance-single - ----------------
#NOTES:
     dance-single:
     :
     Medium:
     5:
     0.304574,0.434377,0.335751,0.083938,0.004197,254.000000,214.000000,40.000000,10.000000,0.000000,0.000000,0.304574,0.434377,0.335751,0.083938,0.004197,254.000000,214.000000,40.000000,10.000000,0.000000,0.000000:
0000
0000
0000
0000
,
0000
0000
0000
0000
,
0000
0000
0000
0000
,
0000
0000
0000
0000
,
1000
0000
1000
0000
,
0001
1000
0010
1000
,
0001
0000
0001
0000
,
0001
0100
0001
0010
,
0100
0010
0100
0010
,
0100
1000
0010
0100
,
0001
1000
0001
1000
,
0001
0010
0001
0100
,
0001
0000
1000
0000
0100
1000
0100
0000
,
1000
0000
0010
0000
0100
0001
0100
0000
,
0001
1000
0010
0000
1000
0000
0001
0000
,
1000
0001
0100
0000
0010
0100
0001
0000
,
1000
0000
0100
0000
1000
0010
1000
0000
,
0010
0000
0100
0000
0001
0010
0001
0000
,
0010
0000
0100
0000
1000
0100
1000
0000
,
0100
0000
1000
0000
0010
0100
0001
0000
,
1000
0001
0000
0001
0000
0001
0000
0001
,
0000
1000
0000
1000
0000
1000
0000
1000
,
0000
0001
0000
0001
0000
0001
0000
0001
,
0000
1000
0000
1000
0000
1000
0000
1000
,
0000
0010
0000
0010
0000
0010
0000
0010
,
0000
0100
0000
0100
0000
0100
0000
0100
,
0000
0010
0000
0010
0000
1000
0000
1000
,
0000
0001
0000
0001
0000
0100
0000
0000
,
0101
1100
1000
0100
,
0110
0011
0010
0100
,
1100
0011
0010
0100
,
1100
0101
0001
1000
,
1010
0011
0011
1010
,
1100
0101
0101
1100
,
1001
0110
1001
0110
,
2002
0000
0000
3003
0001
0000
0001
0000
,
0001
1000
0001
0100
,
0001
0010
0001
0001
,
1000
0000
0001
0000
1000
0100
0020
0000
,
0130
1000
0000
1000
0000
0010
0000
0100
,
0000
0001
0000
0010
0000
0001
0000
0100
,
0000
0010
0000
1000
0000
0001
0000
1000
,
0020
0000
0130
0001
,
0100
0010
1000
0010
,
0100
0001
1000
1000
,
0001
1000
0020
0000
,
0130
0010
0000
0010
0000
1000
0000
1000
,
0000
0001
0000
0001
0000
0010
0000
0010
,
0000
0100
0000
1000
0000
0100
0000
0010
,
0001
0000
1000
0000
0010
0100
0001
0000
1100
0000
0000
0000
0101
0000
0000
0000
,
0000
0000
0101
1100
,
0000
0000
1010
0101
,
0000
0000
0101
0011
,
0011
0110
1001
0101
,
1001
1100
1001
1010
,
1001
0011
2000
3200
,
0320
0032
2000
0000
,
0000
3003
0110
0000
;

//---------------dance-single - ----------------
#NOTES:
     dance-single:
     :
     Easy:
     3:
     0.189459,0.241321,0.025181,0.109119,0.000000,158.000000,155.000000,3.000000,13.000000,0.000000,0.000000,0.189459,0.241321,0.025181,0.109119,0.000000,158.000000,155.000000,3.000000,13.000000,0.000000,0.000000:
0000
0000
0000
0000
,
0000
0000
0000
0000
,
0000
0000
0000
0000
,
0000
0000
0000
0000
,
0100
0000
0100
0000
,
1000
1000
1000
0000
,
0010
0000
0010
0000
,
0100
0100
0100
0001
,
0100
0000
0010
0000
,
1000
1000
1000
0000
,
0001
0000
0010
0000
,
0001
0001
0001
1001
,
0001
0100
0001
0100
,
0010
1000
0010
1000
,
0100
0100
1000
0010
,
0100
0100
0100
0100
,
0001
0010
0001
1000
,
0100
0100
1000
0010
,
0100
0100
0001
0010
,
0100
0100
0010
0001
,
2000
0000
0000
0000
,
3200
0000
0000
0000
,
0320
0000
0000
0000
,
0032
0000
0000
0000
,
2003
0000
0000
0000
,
3200
0000
0000
0000
,
0320
0000
0000
0000
,
0032
0000
0000
0003
,
1000
0001
0000
0000
,
1000
0001
0000
0000
,
1000
0001
0000
0000
,
1000
0001
0000
0000
,
1000
0001
1000
0001
,
0100
0010
0100
0010
,
2000
0000
0000
0000
,
3000
0000
0001
0001
,
0001
1000
0001
0001
,
0100
0001
0010
0010
,
0100
0010
0002
0000
,
1003
1000
1000
0100
,
0010
0010
0100
1000
,
0001
0001
0010
0001
,
2000
0000
3010
0010
,
0100
0010
1000
1000
,
0001
0010
0001
0001
,
1000
0010
0200
0000
,
0310
1000
0010
0100
,
0001
0010
0001
1000
,
0001
0001
1000
0001
,
0020
0000
0130
0010
,
0000
0000
0100
0010
,
0000
0000
0100
0010
,
0000
0000
0100
0010
,
0100
0010
0001
1000
,
0001
1000
0010
0100
,
0010
0100
0010
1000
,
0001
0100
0000
0000
,
0000
0110
1001
0000
;

//---------------dance-single - ----------------
#NOTES:
     dance-single:
     :
     Challenge:
     9:
     0.544396,0.810208,0.067150,0.142694,0.507823,454.000000,446.000000,8.000000,17.000000,0.000000,0.000000,0.544396,0.810208,0.067150,0.142694,0.507823,454.000000,446.000000,8.000000,17.000000,0.000000,0.000000:
4004
0000
0000
0000
,
0000
0000
0000
0000
,
0000
0000
0000
0000
,
0000
0000
0000
3003
,
0001
0000
0000
0000
0100
0000
0001
0000
0010
0000
0000
0100
0000
0000
1000
0000
,
0001
0000
0100
0000
0010
0000
1000
0000
0001
0000
0000
1000
0000
0000
0100
0000
,
0010
0000
0100
0000
1000
0000
0010
0000
0100
0000
0000
0001
0000
0000
1000
0000
,
0100
1000
0010
0100
0001
1000
0100
0010
,
0100
0000
0000
0000
1000
0000
0010
0000
0100
0000
0000
0001
0000
0000
1000
0000
,
0001
0000
0010
0000
0001
0000
0100
0000
0010
0000
0000
1000
0000
0000
0001
0000
,
0100
0000
0010
0000
0100
0000
0001
0000
0100
0000
0000
0010
0000
0000
1000
0000
,
0100
0000
0010
0000
0001
0000
0001
1000
0001
0010
0100
1000
0001
0000
0000
0000
,
1000
0000
0000
0000
0001
0000
0100
0000
0010
0000
1000
0001
0000
0000
0100
0000
,
0010
1000
0010
0000
0100
0000
0010
0000
1000
0000
0001
0010
0000
0000
0100
0000
,
1000
0010
1000
0000
0001
0000
0010
0000
0001
0000
1000
0010
0000
0000
0010
0000
,
0100
0001
0100
0000
0001
0000
0001
0000
1000
0010
0100
0001
1000
0000
0100
0000
,
0010
0000
0000
0000
0001
0000
0100
0000
0010
0000
1000
0001
0000
0000
0001
0000
,
0100
0010
0100
0000
0001
0000
1000
0000
0100
0000
0010
0100
0000
0000
0100
0000
,
1000
0001
1000
0000
0001
0000
0100
0000
0010
0000
1000
0100
0000
0000
0010
0000
,
0100
1000
0100
0000
0010
0000
0010
0100
1000
0001
0100
0001
1000
0000
0000
0000
,
0200
1000
0000
0010
0000
0001
0000
0010
,
0000
1000
0000
0010
0000
0001
0000
0010
,
0000
1000
0000
0010
0000
0001
0000
0010
,
0000
1000
0000
0010
0000
0001
0000
0010
,
0000
1000
0000
0010
0000
0001
0000
0010
,
0000
1000
0000
0010
0000
0001
0000
0010
,
0000
1000
0000
0010
0000
0001
0000
0010
,
0000
0000
1000
0000
0000
0000
0310
0001
1000
0100
0010
0001
1001
0000
0000
1000
,
0020
0000
0000
0130
0002
0000
0000
1003
0100
0000
0010
0001
0010
0100
1000
0001
,
0200
0000
0000
0310
2000
0000
0000
3001
0010
0000
0100
0010
0001
1000
0010
1000
,
0200
0000
0000
0310
0002
0000
0000
1003
0010
0000
0100
0001
0010
0001
1000
0100
,
0020
0000
0000
0130
2000
0000
0000
3001
0100
0000
0010
1000
0100
0010
0100
1000
,
0001
0100
0001
0100
0001
0100
0001
0100
0010
1000
0010
1000
0010
1000
0010
1000
,
0100
1000
0100
1000
0100
1000
0100
0010
0001
0010
0001
0010
0001
0010
0001
0010
,
0004
4000
0000
0000
0000
0000
0000
0000
0000
0000
0000
0000
0000
0000
3003
0000
,
0002
0000
0203
0000
2300
0000
3020
0030
0001
0000
0000
0000
0001
0000
0000
0000
,
0001
0000
0001
1000
0100
0010
0100
0000
,
0100
1000
0100
0010
0001
1000
0001
0000
,
1000
0000
0000
0000
1000
0000
0010
0000
0100
0001
2000
0000
0040
0000
0000
3030
,
1000
0000
0000
0000
1000
0000
0000
0000
1000
0000
0000
1000
0100
0000
0010
0000
,
0001
1000
0010
0000
0100
0010
1000
0001
,
0100
0000
0001
0000
0010
0000
0000
0000
0010
0000
0000
0010
0100
0000
1000
0000
,
0001
0100
0010
0000
0100
0000
0100
0000
0100
0000
0100
0010
0000
0000
0100
0001
1000
0000
0000
0000
0000
0000
0000
0000
1000
0000
0000
0000
0000
0000
0000
0000
,
1000
0100
1000
0010
0100
0001
0100
0000
,
0100
0001
0100
0010
1000
0001
1000
0000
,
1000
0000
0000
0000
0000
0000
0000
0000
1000
0000
0000
0000
0010
0000
0000
0000
0100
0000
0001
0010
0001
0000
0010
0000
0100
0000
1000
0100
1000
0000
0000
0000
,
0100
0000
1000
0000
0001
0000
0000
0000
0001
0000
0000
0001
0010
0000
0001
0000
,
0100
0010
1000
0100
1000
0001
0010
0100
,
1000
0001
0100
0000
0100
0000
0100
0010
,
1000
0100
0001
0010
1000
0001
0020
0000
0031
0000
0000
0000
1100
0000
0000
0000
,
1000
0010
0000
0010
0100
0000
0001
0000
1000
0000
0000
0000
0011
0000
0000
0000
,
0010
0100
0000
0100
1000
0000
0001
0000
0100
0000
0000
0000
1010
0000
0000
0000
,
1000
0100
0000
0010
0001
0000
1000
0000
0010
0000
0000
0000
0110
0000
0100
0000
,
0001
0000
0000
0000
0011
0000
0010
0000
0100
1000
0100
1000
0100
1000
0100
1000
,
0001
0100
0001
0100
0001
0100
0001
0100
0001
0010
0001
0010
0001
0010
0001
0010
,
0001
1000
0001
1000
0001
1000
0001
1000
0001
0100
0010
1000
0001
0010
0001
0100
,
0010
1000
0100
0010
0100
1000
0010
0100
0001
0000
0001
0000
0000
0001
0000
1000
,
0001
0010
0100
1000
0001
1000
0001
0000
0220
0000
0000
0000
0000
0000
0000
0000
,
0000
0000
0330
0000
;

//---------------dance-single - ----------------
#NOTES:
     dance-single:
     :
     Beginner:
     1:
     0.119911,0.241321,0.033575,0.016788,0.000000,100.000000,96.000000,4.000000,2.000000,0.000000,0.000000,0.119911,0.241321,0.033575,0.016788,0.000000,100.000000,96.000000,4.000000,2.000000,0.000000,0.000000:
0000
0000
0000
0000
,
0000
0000
0000
0000
,
0000
0000
0000
0000
,
0000
0000
0000
0000
,
0001
0000
0000
0000
,
1000
0000
0000
0000
,
0010
0000
0000
0000
,
1000
0000
0000
0000
,
0100
0000
0000
0000
,
1000
0000
0000
0000
,
0001
0000
0000
0000
,
0001
0000
0000
0000
,
0001
0000
0001
0000
,
1000
0000
0001
0000
,
1000
0000
1000
0000
,
0010
0000
0100
0000
,
0010
0000
1000
0000
,
0001
0000
0001
0000
,
1000
0000
1000
0000
,
0010
0000
1000
0000
,
1001
0000
0000
0000
,
0000
0000
0000
0000
,
0000
0000
0000
0000
,
0000
0000
0000
0000
,
0000
0000
0000
0000
,
0000
0000
0000
0000
,
0000
0000
0000
0000
,
0000
0000
0000
0000
,
0001
1000
0000
0000
,
0001
1000
0000
0000
,
0001
1000
0000
0000
,
0001
1000
0000
0000
,
0001
1000
0001
1000
,
0001
1000
0001
1000
,
0220
0000
0000
0000
0000
0000
0000
0330
,
0000
0000
1000
0000
,
1000
0000
0001
0000
,
0001
0000
0100
0000
,
0010
0000
0100
0000
,
0010
0000
0000
0010
,
0010
0000
1000
0000
,
0001
0000
0000
1000
,
1000
0000
0010
0000
,
0010
0000
0100
0000
,
0010
0000
1000
0000
,
0001
1000
0001
0000
,
1000
0000
0000
0010
,
0010
0000
0100
0000
,
0001
0000
0000
1000
,
1000
0000
0001
1000
,
0000
0000
0001
1000
,
0000
0000
0001
1000
,
0000
0000
0001
1000
,
0001
1000
0001
1000
,
0001
1000
0001
1000
,
0001
1000
0010
0100
,
0010
0100
0010
0000
,
0000
0110
1001
0000
;
