#TITLE:Rave*it!! Rave*it!!;
#SUBTITLE:;
#ARTIST:機龍;
#TITLETRANSLIT:;
#SUBTITLETRANSLIT:;
#ARTISTTRANSLIT:Kiryu;
#GENRE:;
#CREDIT:;
#BANNER:Rave it!! Rave it!!.png;
#BACKGROUND:Rave it!! Rave it!!-bg.png;
#LYRICSPATH:;
#CDTITLE:;
#MUSIC:19.Ravexit!! Ravexit!!.mp3;
#OFFSET:-1.765003;
#SAMPLESTART:85.148270;
#SAMPLELENGTH:10.212761;
#SELECTABLE:YES;
#BPMS:0.000000=141.000000
,32.000000=282.000000
;
#STOPS:
;
#BGCHANGES:;
#KEYSOUNDS:;
#ATTACKS:;

//---------------dance-single - ----------------
#NOTES:
     dance-single:
     :
     Hard:
     10:
     0.739036,1.286542,1.200773,0.388220,0.036113,573.000000,440.000000,133.000000,43.000000,0.000000,0.000000,0.739036,1.286542,1.200773,0.388220,0.036113,573.000000,440.000000,133.000000,43.000000,0.000000,0.000000:
0000
0000
0000
0000
,
0000
0000
0000
0000
,
0000
0000
0000
0000
,
0000
0000
0000
0000
,
0001
0100
1000
0100
0001
0010
1000
0010
,
0001
0100
0001
0100
0010
1000
0010
1000
,
0001
1000
0001
1000
0001
1000
0001
1000
0010
0100
0010
0100
0010
0100
0010
0100
,
0001
1000
0010
0100
0010
1000
0001
0010
,
0100
1100
1000
1001
,
0001
0101
0100
0110
,
0010
1010
1000
1001
,
0001
0011
0001
1001
,
0001
0101
0100
0110
,
0010
1010
1000
1001
,
0001
0000
0011
0000
0010
0100
0010
0100
,
0010
0001
1000
0010
,
0100
0000
0101
0000
0001
0100
0010
1000
,
0001
1001
1000
1001
,
0001
0100
0001
0100
0001
0000
1000
0000
,
0001
0011
0100
1100
,
0001
0000
1010
0000
1000
0010
0100
0001
,
0010
0000
1100
0000
0100
0010
0001
1000
,
0001
0010
0100
1000
,
0100
0010
0100
1000
,
0001
0000
1000
0010
1000
0000
0001
0000
,
0100
0010
1000
0001
,
1000
0000
0001
0100
0001
0000
0010
0000
,
0100
0000
1000
0001
0020
0000
0030
0000
,
0100
0000
0010
0001
0010
0000
0100
0000
,
1000
0010
0100
0001
,
0010
0000
0100
1000
0100
0000
1000
0000
,
0010
0000
0100
0001
2000
0000
3000
0000
,
1001
1001
1000
0010
,
0100
0001
0010
0100
,
0110
0110
0010
0001
,
0100
0000
0010
0100
0002
0000
0003
0000
,
1000
0100
0010
0001
1000
0100
0010
0001
,
1000
0100
0010
0001
1000
0100
0010
0001
,
1000
0001
0010
0010
,
0001
1000
0100
0100
,
1001
1001
1100
1100
,
0101
0101
1010
1010
,
1001
1010
1001
0011
,
1001
0110
2002
3003
,
1001
1001
0011
0011
,
0110
0110
1100
1100
,
1010
0011
0101
1010
,
1100
0110
0011
0110
,
1002
0103
2010
3100
,
0021
0130
2100
3001
,
0201
0310
2010
3001
,
0021
0130
2100
3010
,
0202
0303
2020
3030
2200
3300
0022
0033
,
2002
3003
0202
0303
2020
3030
2002
3003
,
1000
1000
0010
0010
,
0100
0100
0001
0001
,
1000
0100
0010
0001
,
1000
0100
0010
0100
,
2000
0000
0000
3002
,
0000
0000
0000
0203
,
0000
0302
0000
0203
,
0000
0000
0320
0000
,
2030
0000
0000
3002
,
0000
0000
0000
0023
,
0000
0032
0000
2003
,
0000
0000
3002
0000
,
1003
1000
0001
0001
,
0100
0100
0010
0010
,
1000
1000
0100
0100
,
0010
0010
0001
0001
,
1000
1000
0001
0001
,
0100
0100
0010
0010
,
1000
1000
0001
0001
,
0100
0100
0010
0010
,
0101
1001
0000
0000
,
0001
1000
0000
0000
,
1100
0110
0000
0000
,
0100
1000
0000
0000
,
1001
0101
0000
0000
,
0001
0100
0000
0000
,
1010
0101
0000
0000
,
0001
1000
0000
0000
,
1010
0000
0011
0000
,
1100
0000
0101
0000
,
0011
0000
0110
0000
,
1100
0000
1001
0000
,
1100
1100
0110
0110
,
0011
0011
0101
0101
,
1000
0010
0100
0001
,
1000
0010
0100
0001
,
1000
0100
0001
0010
,
1000
0100
0001
0010
,
1000
0001
0010
0010
,
0001
1000
0010
0010
,
1001
0101
0011
0110
,
1100
0110
0011
0101
,
1010
0101
0011
0110
,
1100
1001
0101
1010
,
1100
0011
0101
1010
,
0101
0011
0110
1100
,
1010
0000
0101
0000
0001
0010
0001
0010
,
0001
0010
0100
1000
,
1001
0000
1010
0000
1000
0010
0001
0010
,
0100
0110
0101
1001
,
0001
0100
1000
0100
0001
0000
1000
0000
,
1100
0100
0110
0010
,
1001
0000
1010
0000
1000
0010
0100
0001
,
1001
0000
1010
0000
1000
0010
0100
0001
,
1000
1000
0001
0001
,
0100
0100
0010
0010
,
1000
0001
0000
0000
,
1000
0001
0000
0000
,
0220
0000
0000
0000
,
0000
0000
0000
0000
,
0330
0000
0000
0000
;

//---------------dance-single - ----------------
#NOTES:
     dance-single:
     :
     Easy:
     5:
     0.330180,0.566079,0.171539,0.063199,0.000000,256.000000,237.000000,19.000000,7.000000,0.000000,0.000000,0.330180,0.566079,0.171539,0.063199,0.000000,256.000000,237.000000,19.000000,7.000000,0.000000,0.000000:
0000
0000
0000
0000
,
0000
0000
0000
0000
,
0000
0000
0000
0000
,
0000
0000
0000
0000
,
1000
0001
1000
0010
,
1000
0001
1000
0100
,
1000
0100
0010
0001
,
1001
0010
1001
0100
,
0001
0000
0100
0000
,
0010
0000
1000
0000
,
0010
0000
0100
0000
,
0001
0000
0010
0000
,
0001
0000
1000
0000
,
0100
0000
1000
0000
,
0010
0000
0000
0000
0100
0001
0000
0000
,
0100
0000
0000
0000
,
0001
0000
1000
0001
,
1000
0000
0001
0000
,
0100
0010
0100
0000
,
0010
0000
1000
0000
,
0001
0000
1000
0100
,
1000
0000
0100
0010
,
0100
0000
0010
0000
,
0001
0000
1000
0000
,
0010
0100
0000
0000
,
0100
0010
0000
0000
,
0010
1000
0000
0000
,
1000
0010
0000
0000
,
0010
0100
0000
0000
,
0100
0010
0000
0000
,
0010
1000
0000
0000
,
1000
0010
0000
0000
,
0100
0001
0000
0000
,
0100
0001
0000
0000
,
1000
0010
0000
0000
,
1000
0010
0000
0000
,
1000
0001
0000
0000
,
1000
0001
0000
0000
,
1000
0100
0010
0001
,
1000
0100
0010
0001
,
0010
0000
0010
0000
,
0001
0000
0001
0000
,
1000
0000
1000
0000
,
0010
1000
0010
0000
,
1000
0000
1000
0000
,
0100
0000
0100
0000
,
1000
0000
1000
0000
,
0001
0100
0001
0000
,
0100
0000
0010
0000
,
1000
0000
0010
0000
,
0100
0000
0001
0000
,
0010
0000
0100
0000
,
1000
0100
0010
0001
,
1000
0100
0010
0001
,
0010
0000
0010
0000
,
0001
0000
0001
0000
,
1000
0000
0001
0000
,
0100
0000
0010
0000
,
1000
0000
0000
0010
,
0000
0000
0000
0100
,
0000
0100
0000
0200
,
0000
0000
0310
0000
,
1000
0000
0000
0001
,
0000
0000
0000
0010
,
0000
0010
0000
0020
,
0000
0000
0031
0000
,
1000
0000
1000
0000
,
0001
0000
0001
0000
,
0100
0000
0100
0000
,
0010
0000
0010
0000
,
1000
0000
1000
0000
,
0010
0000
0010
0000
,
0100
0000
0100
0000
,
0001
0000
0001
0000
,
1001
0000
0000
0000
,
1010
0000
0000
0000
,
1001
0000
0000
0000
,
0011
0000
0000
0000
,
1001
0000
0000
0000
,
1100
0000
0000
0000
,
1001
0000
0000
0000
,
0101
0000
0000
0000
,
1001
0000
1001
0000
,
1001
0000
1001
0000
,
0110
0000
0110
0000
,
0110
0000
0110
0000
,
0010
0100
0001
1000
,
0010
0100
0001
1000
,
0001
0000
1000
0000
,
0001
0000
1000
0000
,
0001
0010
0100
1000
,
0001
0010
0100
1000
,
0001
0010
0100
0010
,
0001
1000
0100
0010
,
0001
0000
0010
0000
,
0001
0000
0000
1000
,
0000
0100
0000
1000
,
0000
2000
0000
0000
,
3001
0000
0000
1000
,
0000
0010
0000
1000
,
0000
0010
0000
0100
,
0000
0010
0000
0000
,
1000
0000
0001
1000
,
0000
0001
0000
0100
,
0000
0001
0000
0010
,
0000
0200
0000
0000
,
0310
0000
0010
0100
,
0000
0100
0000
1000
,
0000
0100
0000
1000
,
0000
0020
0000
0000
,
0130
0010
0000
0000
,
0100
0010
0000
0000
,
2002
0000
0000
0000
,
0000
0000
0000
0000
,
3003
0000
0000
0000
;

//---------------dance-single - ----------------
#NOTES:
     dance-single:
     :
     Medium:
     8:
     0.496560,0.720464,0.153482,0.288908,0.009028,385.000000,368.000000,17.000000,32.000000,0.000000,0.000000,0.496560,0.720464,0.153482,0.288908,0.009028,385.000000,368.000000,17.000000,32.000000,0.000000,0.000000:
0000
0000
0000
0000
,
0000
0000
0000
0000
,
0000
0000
0000
0000
,
0000
0000
0000
0000
,
0001
0000
0000
1000
0000
0000
0001
0000
0000
0000
0000
0000
1000
0000
0100
0000
,
1000
0001
0010
0100
1000
0100
0010
0100
,
1000
0000
0000
0010
0000
0000
0100
0000
0000
0000
0000
0000
0010
0000
0100
0000
,
0001
0010
0100
1000
0100
0010
0100
1000
,
0001
0100
0010
0100
,
0001
0100
0010
0100
,
0001
1000
0100
1000
,
0010
1000
0100
1000
,
0001
0010
0100
0010
,
0001
0010
0100
0010
,
0100
1000
0001
0001
,
1000
0000
0000
1000
0000
0000
1000
0000
,
0010
0000
0100
0000
0010
0100
0010
0100
,
0010
0000
0000
0010
0000
0000
0010
0000
,
1000
0001
1000
0001
1000
0000
0001
0000
,
0010
0000
0000
0100
0000
0000
1000
0000
,
0001
0000
1000
0000
0010
0100
0010
0100
,
0010
0000
0100
0000
0001
1000
0001
1000
,
0001
0010
1000
0010
,
0100
1000
0001
0100
,
0010
1000
0000
0000
,
0001
0010
0000
0000
,
0100
1000
0000
0000
,
0100
0010
0000
0000
,
0001
0010
0000
0000
,
0001
0000
0000
1000
0000
0000
0001
0000
,
1000
0010
0000
0000
,
0100
0001
0000
0000
,
1001
1001
0000
0000
,
1000
0010
0000
0000
,
0101
0101
0000
0000
,
0100
0010
0000
0000
,
0100
0010
1000
0001
,
0100
0010
1000
0001
,
1001
0000
0110
0000
,
1001
0000
0110
0000
,
1000
1000
0010
0010
,
0100
0100
0001
0001
,
0010
0010
0100
0100
,
0010
0010
0002
0000
,
0013
0010
0001
0001
,
0100
0100
0010
0010
,
1000
1000
0100
0100
,
1000
1000
0002
0000
,
1003
1000
0010
0010
,
0100
0100
0001
0001
,
0010
0010
0001
0001
,
0100
0100
0010
0010
,
2000
3200
0320
0032
,
2003
3200
0320
0032
,
1003
0010
0100
0001
,
1000
0010
0100
0001
,
1000
0001
0010
0010
,
0001
1000
0010
0010
,
0100
0000
0000
0002
,
0000
0000
0000
1000
,
0000
1000
0000
2003
,
0000
0000
3100
0000
,
1000
0000
0000
0020
,
0000
0000
0000
0100
,
0000
0100
0000
0230
,
0000
0000
0301
0000
,
1000
0000
1000
0000
,
0001
0000
0001
0000
,
0100
0000
0100
0000
,
0010
0000
0010
0000
,
1000
0000
1000
0000
,
0010
0000
0010
0000
,
0100
0000
0001
0000
,
0100
0000
0010
0000
,
1000
0001
0100
0000
,
0010
0000
1000
0000
,
0100
0010
0001
0000
,
0010
0000
0001
0000
,
0100
0010
1000
0000
,
0001
0000
0000
0001
0000
0000
0001
0000
,
0010
0100
0010
0000
,
0001
0100
0010
0000
,
2010
3000
0201
0300
,
1020
0030
0102
0003
,
2001
3000
1200
0300
,
0021
0030
0102
0003
,
2000
3200
0320
0032
,
2003
3200
0320
0032
,
1003
0001
0010
0010
,
0001
1000
0010
0010
,
1000
0100
0010
0001
,
1000
0100
0010
0001
,
1000
0001
0100
0100
,
0001
1000
0100
0100
,
1000
0100
0010
0001
,
1000
0100
0010
0010
,
0100
1000
0010
0100
,
0001
1000
0010
0010
,
0100
0001
0100
0010
,
1000
0001
0100
0100
,
0001
0000
1000
0000
0100
1000
0100
1000
,
0100
0000
0000
1000
0000
0000
0010
0000
,
0100
0000
0001
0000
1000
0001
1000
0001
,
1000
0000
0000
0010
0000
0000
0100
0000
,
0001
0100
0001
0100
0001
0000
0100
0000
,
0010
0000
0000
1000
0000
0000
0100
0000
,
0010
0000
0001
0000
1000
0001
1000
0001
,
1000
0000
0010
0000
0100
0001
0100
0001
,
0100
0001
1000
0100
,
1000
0001
0100
0001
,
1000
0010
0000
0000
,
0100
0001
0000
0000
,
2002
0000
0000
0000
,
0000
0000
0000
0000
,
3003
0000
0000
0000
;

//---------------dance-single - ----------------
#NOTES:
     dance-single:
     :
     Beginner:
     3:
     0.149613,0.353912,0.045142,0.000000,0.000000,116.000000,111.000000,5.000000,0.000000,0.000000,0.000000,0.149613,0.353912,0.045142,0.000000,0.000000,116.000000,111.000000,5.000000,0.000000,0.000000,0.000000:
// measure 0
0000
0000
0000
0000
,  // measure 1
0000
0000
0000
0000
,  // measure 2
0000
0000
0000
0000
,  // measure 3
0000
0000
0000
0000
,  // measure 4
1000
0000
0000
0000
,  // measure 5
0001
0000
0000
0000
,  // measure 6
0100
0000
0010
0000
,  // measure 7
1001
0000
0000
0000
,  // measure 8
1000
0000
0000
0000
,  // measure 9
0000
0000
0001
0000
,  // measure 10
0001
0000
0000
0000
,  // measure 11
1000
0000
0000
0000
,  // measure 12
0010
0000
0000
0000
,  // measure 13
0000
0000
0100
0000
,  // measure 14
0100
0000
0100
0000
,  // measure 15
0100
0000
0000
0000
,  // measure 16
0010
0000
1000
0000
,  // measure 17
1000
0000
0000
0000
,  // measure 18
0001
0000
0001
0000
,  // measure 19
1000
0000
0000
0000
,  // measure 20
0001
0000
1000
0000
,  // measure 21
0001
0000
0100
0000
,  // measure 22
0001
0000
0000
0000
,  // measure 23
0000
0000
0000
0000
,  // measure 24
1000
0000
0000
0000
,  // measure 25
0000
0000
0000
0000
,  // measure 26
0001
0000
0000
0000
,  // measure 27
0000
0000
0000
0000
,  // measure 28
0100
0000
0000
0000
,  // measure 29
0000
0000
0000
0000
,  // measure 30
0010
0000
0000
0000
,  // measure 31
0000
0000
0000
0000
,  // measure 32
1000
1000
0000
0000
,  // measure 33
0000
0000
0000
0000
,  // measure 34
0001
0001
0000
0000
,  // measure 35
0000
0000
0000
0000
,  // measure 36
0100
0100
0000
0000
,  // measure 37
0000
0000
0000
0000
,  // measure 38
0010
0000
0010
0000
,  // measure 39
0010
0000
0010
0000
,  // measure 40
1001
0000
0000
0000
,  // measure 41
1000
0000
0000
0000
,  // measure 42
0001
0000
0000
0000
,  // measure 43
0100
0000
0000
0000
,  // measure 44
0001
0000
0000
0000
,  // measure 45
1000
0000
0000
0000
,  // measure 46
0010
0000
0000
0000
,  // measure 47
1000
0000
0000
0000
,  // measure 48
0001
0000
0000
0000
,  // measure 49
1000
0000
0000
0000
,  // measure 50
0010
0000
0000
0000
,  // measure 51
1000
0000
0000
0000
,  // measure 52
0100
0000
0100
0000
,  // measure 53
0100
0000
0100
0000
,  // measure 54
0100
0000
0000
0000
,  // measure 55
0010
0000
0000
0000
,  // measure 56
0001
0000
1000
0000
,  // measure 57
0001
0000
1000
0000
,  // measure 58
0010
0000
0000
0000
,  // measure 59
0000
0000
0000
0000
,  // measure 60
0000
0000
0000
0000
,  // measure 61
0000
0000
0000
0000
,  // measure 62
0100
0000
0000
0000
,  // measure 63
0000
0000
0000
0000
,  // measure 64
0000
0000
0000
0000
,  // measure 65
0000
0000
0000
0000
,  // measure 66
0001
0000
0000
0000
,  // measure 67
0000
0000
0000
0000
,  // measure 68
1000
0000
0000
0000
,  // measure 69
0000
0000
0000
0000
,  // measure 70
0010
0000
0000
0000
,  // measure 71
0000
0000
0000
0000
,  // measure 72
0100
0000
0000
0000
,  // measure 73
0000
0000
0000
0000
,  // measure 74
0001
0000
0000
0000
,  // measure 75
0000
0000
0000
0000
,  // measure 76
0001
0000
0000
0000
,  // measure 77
0000
0000
0000
0000
,  // measure 78
1000
0000
0000
0000
,  // measure 79
0000
0000
0000
0000
,  // measure 80
1000
0000
0000
0000
,  // measure 81
0000
0000
0000
0000
,  // measure 82
0010
0000
0000
0000
,  // measure 83
0000
0000
0000
0000
,  // measure 84
0100
0000
0000
0000
,  // measure 85
0000
0000
0000
0000
,  // measure 86
0001
0000
0000
0000
,  // measure 87
1000
0000
0000
0000
,  // measure 88
0010
0000
0000
0000
,  // measure 89
0000
0000
0000
0000
,  // measure 90
0100
0000
0000
0000
,  // measure 91
0100
0000
0000
0000
,  // measure 92
0010
0000
0010
0000
,  // measure 93
1000
0000
1000
0000
,  // measure 94
1001
0000
0000
0000
,  // measure 95
0001
0000
0000
0000
,  // measure 96
1000
0000
0000
0000
,  // measure 97
0010
0000
0000
0000
,  // measure 98
0100
0000
0000
0000
,  // measure 99
0001
0000
0000
0000
,  // measure 100
1000
0000
0001
0000
,  // measure 101
1001
0000
0000
0000
,  // measure 102
1000
0000
0001
0001
,  // measure 103
0001
0000
0000
0000
,  // measure 104
1000
1000
1000
0000
,  // measure 105
0000
0000
0000
0000
,  // measure 106
0001
0000
1000
1000
,  // measure 107
1000
0000
0001
0001
,  // measure 108
0001
0000
1000
0000
,  // measure 109
0001
0000
0100
0000
,  // measure 110
0010
0000
0000
0000
,  // measure 111
0010
0000
0000
0000
,  // measure 112
1001
0000
0000
0000
;
