#TITLE:Rave Saves You feat. Cardz;
#SUBTITLE:(Exclusive IIDX Mix);
#ARTIST:REMO-CON;
#TITLETRANSLIT:;
#SUBTITLETRANSLIT:;
#ARTISTTRANSLIT:;
#GENRE:;
#CREDIT:;
#BANNER:Rave Saves You feat. Cardz (Exclusive IIDX Mix).png;
#BACKGROUND:Rave Saves You feat. Cardz (Exclusive IIDX Mix)-bg.png;
#LYRICSPATH:;
#CDTITLE:;
#MUSIC:Rave Saves You feat. Cardz (Exclusive IIDX Mix).mp3;
#OFFSET:-0.555000;
#SAMPLESTART:79.417122;
#SAMPLELENGTH:13.426567;
#SELECTABLE:YES;
#BPMS:0.000000=143.000000
;
#STOPS:
;
#BGCHANGES:0.000=Rave Saves You featCardz (Exclusive IIDX Mix) .avi=1.000=0=0=1=====,
99999=-nosongbg-=1.000=0=0=0 // don't automatically add -songbackground-
;
#KEYSOUNDS:;
#ATTACKS:;

//---------------dance-single - ----------------
#NOTES:
     dance-single:
     :
     Hard:
     9:
     0.518645,0.595679,0.198305,0.205932,0.251695,423.000000,26.000000,27.000000,0.000000,0.000000,0.000000,0.518645,0.595679,0.198305,0.205932,0.251695,423.000000,26.000000,27.000000,0.000000,0.000000,0.000000:
// measure 0
0000
0000
0000
0000
,  // measure 1
0000
0000
0000
0000
,  // measure 2
0000
0000
0000
0000
,  // measure 3
1000
0010
1000
0010
0001
0010
0001
0010
,  // measure 4
1000
0100
0010
0001
2002
0000
0000
3003
,  // measure 5
1000
0010
0100
0100
,  // measure 6
0001
0000
0010
0001
1000
0010
0100
0001
,  // measure 7
1000
1000
0010
0100
,  // measure 8
0001
0000
1000
0001
1000
0000
0001
1000
0001
0000
1000
0000
0010
0000
0100
0000
,  // measure 9
0010
0000
1000
0000
0000
0010
0000
0000
0100
0000
0000
0001
0000
0000
0010
0000
,  // measure 10
0100
0000
1000
0000
0000
0100
0000
0000
1000
0000
0000
0010
0000
0000
0100
0000
,  // measure 11
0001
0100
0010
1000
0001
0100
0010
1000
,  // measure 12
1010
0011
1100
0101
,  // measure 13
1001
1000
1000
0000
,  // measure 14
0001
1000
0010
0100
,  // measure 15
0010
0010
1000
0000
,  // measure 16
0010
0100
0001
0010
,  // measure 17
0100
0100
0010
0000
,  // measure 18
0100
1000
0001
0100
,  // measure 19
0010
0010
1000
0000
,  // measure 20
0010
1000
0001
1000
,  // measure 21
0001
0010
0001
0010
0100
0000
0000
0100
,  // measure 22
1000
0010
1000
0010
1000
0000
0001
0000
,  // measure 23
1000
0100
1000
0100
0010
0000
0000
0010
,  // measure 24
0001
0100
0001
0100
0010
0000
1000
0100
,  // measure 25
0001
0000
0001
0100
1000
0000
1000
0010
,  // measure 26
0001
0000
0010
0100
0001
0000
1000
0000
,  // measure 27
0001
0100
0010
1000
0001
0000
0000
1000
,  // measure 28
0010
0100
0001
0010
0100
0000
0010
0000
,  // measure 29
0001
1000
0001
0100
0002
0000
0000
0013
,  // measure 30
0100
1000
0100
0001
0200
0000
2300
0000
,  // measure 31
3001
0010
0100
0010
0002
0000
0000
1003
,  // measure 32
0010
0100
0001
1000
0200
0000
0320
0000
,  // measure 33
0031
1000
0010
1000
0010
0100
0010
0100
,  // measure 34
0001
0100
0001
0100
0001
0010
0001
0010
,  // measure 35
0100
0010
0100
0010
0100
1000
0100
1000
,  // measure 36
0100
0010
0001
0010
0200
0000
2300
0000
,  // measure 37
3000
0000
0000
0000
,  // measure 38
0001
0000
0020
0000
0130
0000
2000
0000
3100
0010
0000
0100
0000
0010
0001
0000
,  // measure 39
1000
0010
1000
0002
0000
0000
0103
0000
,  // measure 40
0000
0010
1000
0200
0000
0000
0310
0000
,  // measure 41
0000
0010
0001
0200
0000
0000
0310
0000
,  // measure 42
0000
0100
0001
2000
0000
0000
3001
0000
,  // measure 43
1000
0010
0100
0001
1000
0010
0100
0010
,  // measure 44
1000
0000
0010
0000
0100
0000
0001
0000
1000
0000
0000
0001
0000
0000
0000
0000
,  // measure 45
1000
0100
0010
0001
0010
0100
1000
0100
,  // measure 46
1000
0000
0100
0000
0010
0000
0001
0000
1000
0000
0000
0001
0000
0000
0000
0000
,  // measure 47
1000
0000
0010
0000
0001
0000
0010
0000
0200
0000
0000
0000
0000
0000
0310
1000
,  // measure 48
0001
0000
0010
0000
0001
0000
1000
0000
0020
0000
0000
0000
1030
0000
0100
1000
,  // measure 49
0100
0000
0010
0000
0001
0000
1000
0000
0002
0000
0000
0000
0000
0000
1003
0010
,  // measure 50
1000
0100
1000
0001
0020
0000
0032
0000
,  // measure 51
1003
0000
0001
0000
0100
0000
0010
0000
2000
0000
0000
0000
0000
0000
3001
1000
,  // measure 52
0001
0000
1000
0000
0100
0000
0010
0000
0002
0000
0000
0000
0013
0000
0100
1000
,  // measure 53
0001
0000
0100
0000
0010
0000
1000
0000
0200
0000
0000
0000
0000
0000
0310
0001
,  // measure 54
1000
0000
0000
0000
0000
0000
0000
0000
0000
0001
0000
0000
0000
0000
0000
0000
0000
0000
1000
0000
0000
0000
0000
0000
0001
0000
0000
0000
0100
0000
0000
0000
0010
0000
0000
0000
1000
0000
0000
0000
0000
0000
0000
0000
0000
0000
0000
0000
,  // measure 55
0001
0000
1000
0000
0000
1000
0000
0000
1000
0000
0000
1000
0000
0000
1000
1000
,  // measure 56
0000
0000
0010
0000
0000
0010
0000
0000
0100
0000
0000
0100
0000
0000
0100
0100
,  // measure 57
0000
0010
1000
0000
0000
0001
0000
0100
0000
0000
0001
0000
0000
0000
0010
0000
,  // measure 58
0001
0000
0100
0000
1000
0000
0100
0000
0010
1000
0000
0001
0000
0000
1000
0000
,  // measure 59
1100
0011
1100
0011
,  // measure 60
0101
1010
0101
1001
,  // measure 61
0001
1000
0000
0001
1000
0001
1000
0001
0000
1000
0001
1000
0001
1000
0001
1000
,  // measure 62
0010
0000
0000
0100
0010
0000
0100
0000
2002
0000
0000
0000
0000
0000
3003
0000
,  // measure 63
0000
1000
0000
0000
0010
0000
0000
0100
0000
0000
0001
0000
0000
0010
0000
0000
,  // measure 64
0100
0000
0000
1000
0000
0000
0001
0000
1000
0010
0000
1000
0010
0000
0100
0000
,  // measure 65
0001
0000
1000
0000
0000
0100
0000
0000
0010
0000
0000
0001
0000
0000
0100
0000
,  // measure 66
0010
0100
0000
0100
0001
0000
1000
0000
0020
0000
1030
0000
0100
0000
0010
0000
,  // measure 67
0100
0000
1100
0000
0000
1100
0000
0000
1100
0000
0000
1100
0000
0000
1001
0000
,  // measure 68
0000
0000
0101
0000
0000
0101
0000
0000
0101
0000
0000
0101
0000
0000
0011
0000
,  // measure 69
0010
0000
0100
0000
1000
0001
1000
0001
1000
0000
0010
0000
0100
0001
0100
0001
,  // measure 70
1000
0000
0000
0100
0000
0000
0010
0000
0000
0001
0000
0000
0100
0000
0000
0010
0000
0000
1000
0000
0000
0001
0000
0000
0010
0000
0000
0000
0100
0000
0000
0000
1000
0000
0000
0000
0010
0000
0000
0000
0100
0000
0000
0000
0001
0000
0000
0000
,  // measure 71
1001
0000
0000
0000
;

//---------------dance-single - ----------------
#NOTES:
     dance-single:
     :
     Medium:
     6:
     0.375908,0.433221,0.160170,0.152543,0.015254,304.000000,21.000000,20.000000,0.000000,0.000000,0.000000,0.375908,0.433221,0.160170,0.152543,0.015254,304.000000,21.000000,20.000000,0.000000,0.000000,0.000000:
// measure 0
0000
0000
0000
0000
,  // measure 1
0000
0000
0000
0000
,  // measure 2
0000
0000
0000
0000
,  // measure 3
1000
0000
0001
0000
,  // measure 4
0100
0000
0000
0010
0200
0000
0000
0000
,  // measure 5
0301
0001
1000
1000
,  // measure 6
0100
1000
0010
0001
,  // measure 7
0010
0000
0100
0000
0001
0100
0001
0000
,  // measure 8
0100
0000
0010
0000
1000
0010
1000
0010
,  // measure 9
0100
0001
1000
0100
,  // measure 10
0010
0100
1000
0001
,  // measure 11
0100
0001
1000
0010
,  // measure 12
0101
0000
1100
0000
1000
0100
0001
0000
,  // measure 13
0100
0010
0001
0000
,  // measure 14
0010
0001
1000
0001
,  // measure 15
0100
0001
0010
0000
,  // measure 16
0100
1000
0010
0100
,  // measure 17
0001
0001
1000
0000
,  // measure 18
1000
0100
1000
0010
,  // measure 19
0100
0100
0001
0000
,  // measure 20
0100
0010
1000
0001
,  // measure 21
1000
0000
0010
0100
0002
0000
0000
0000
,  // measure 22
1003
0000
0001
0100
0001
0000
0100
0000
,  // measure 23
0010
0000
1000
0001
0020
0000
0000
0000
,  // measure 24
0130
0000
0010
0001
0010
0000
0100
1000
,  // measure 25
0100
0000
0100
0010
0100
0000
0010
0001
,  // measure 26
0010
0000
0001
1000
0020
0000
0030
0000
,  // measure 27
0100
0000
0001
0000
2000
0000
0000
3001
,  // measure 28
1000
0100
1000
0010
,  // measure 29
0100
0000
0001
0100
0020
0000
0000
1030
,  // measure 30
0010
0000
0100
0001
0010
0000
0100
0000
,  // measure 31
1000
0000
0100
0010
0002
0000
0000
1003
,  // measure 32
0001
0000
0100
0010
1000
0000
0010
0000
,  // measure 33
0100
0001
0010
0100
,  // measure 34
1000
0100
1000
0010
,  // measure 35
0100
0010
1000
0001
,  // measure 36
1000
0100
0010
0001
0010
0000
0100
0000
,  // measure 37
2002
0000
0000
3003
,  // measure 38
0011
0011
1010
1010
,  // measure 39
0000
0001
1000
0020
0000
0000
0130
0000
,  // measure 40
0000
0100
0010
2000
0000
0000
3001
0000
,  // measure 41
0000
0010
0100
0002
0000
0000
0013
0000
,  // measure 42
0000
0010
0100
2000
0000
0000
3100
0000
,  // measure 43
1000
0100
0001
0100
,  // measure 44
1000
0010
0001
0110
,  // measure 45
0100
1000
0100
0001
,  // measure 46
0010
0010
0010
0010
,  // measure 47
0100
0010
0001
1000
0002
0000
0000
1003
,  // measure 48
0001
0100
0010
1000
,  // measure 49
0010
0100
0001
0010
0200
0000
0000
0310
,  // measure 50
0100
0000
1000
0100
0010
0000
0100
0000
,  // measure 51
1000
0000
0001
0100
0020
0000
0000
1030
,  // measure 52
0001
0000
0010
0001
0100
0000
0010
0000
,  // measure 53
1000
0000
0001
0100
0010
0000
1000
0000
,  // measure 54
0001
0000
0010
0100
1000
0000
0100
0000
,  // measure 55
1100
0100
0010
0001
,  // measure 56
0010
0001
0100
0010
,  // measure 57
1000
1000
0001
0001
,  // measure 58
0100
0001
0010
0100
,  // measure 59
1100
1100
1100
1100
,  // measure 60
0011
0011
0011
0011
,  // measure 61
0102
0103
2100
3100
,  // measure 62
1020
1030
0021
0100
,  // measure 63
0130
0010
0001
0010
,  // measure 64
0100
0000
1000
0000
0100
1000
0010
0100
,  // measure 65
0001
0001
1000
1000
,  // measure 66
0010
1000
0010
0001
0010
1000
0100
0001
,  // measure 67
0100
0000
0010
0000
0001
0000
0010
1000
,  // measure 68
0100
0000
0010
0000
0001
0010
0100
1000
,  // measure 69
0001
1000
0010
0000
0100
0001
0010
0000
,  // measure 70
0100
0000
0000
1000
0000
0000
0010
0000
0000
0100
0000
0000
0001
0000
0100
0000
0010
0000
1000
0000
0001
0000
1000
0000
,  // measure 71
0100
0000
0000
0000
;

//---------------dance-single - ----------------
#NOTES:
     dance-single:
     :
     Easy:
     3:
     0.242978,0.324916,0.167797,0.114407,0.000000,186.000000,22.000000,15.000000,0.000000,0.000000,0.000000,0.242978,0.324916,0.167797,0.114407,0.000000,186.000000,22.000000,15.000000,0.000000,0.000000,0.000000:
// measure 0
0000
0000
0000
0000
,  // measure 1
0000
0000
0000
0000
,  // measure 2
0000
0000
0000
0000
,  // measure 3
0001
0000
1000
0000
,  // measure 4
0001
0000
2002
3003
,  // measure 5
0001
0001
1000
1000
,  // measure 6
0001
0100
0001
0100
,  // measure 7
0010
1000
0010
0100
,  // measure 8
0001
0001
0001
0001
,  // measure 9
1001
0000
0000
0000
,  // measure 10
0110
0000
0000
0000
,  // measure 11
0110
0000
1001
0000
,  // measure 12
0001
1000
0010
0100
,  // measure 13
0002
0000
0003
0000
,  // measure 14
1000
0000
0100
0000
,  // measure 15
2000
0000
3000
0000
,  // measure 16
0100
0000
1000
0000
,  // measure 17
0020
0000
0030
0000
,  // measure 18
0100
0000
0001
0000
,  // measure 19
2000
0000
3000
0000
,  // measure 20
0001
0000
0100
0000
,  // measure 21
0010
0100
0020
0030
,  // measure 22
0100
0001
1000
0100
,  // measure 23
1000
0100
0020
0030
,  // measure 24
0100
0010
0001
0000
,  // measure 25
0100
0000
0001
0000
,  // measure 26
1000
0000
0100
0000
,  // measure 27
0010
0010
0010
0000
,  // measure 28
0100
1000
0001
0000
,  // measure 29
1000
1000
1000
0000
,  // measure 30
0001
1000
0001
0100
,  // measure 31
0010
0010
0010
0000
,  // measure 32
0100
0001
1000
1000
,  // measure 33
0100
0000
1000
0000
,  // measure 34
0010
0000
0100
0000
,  // measure 35
0001
0000
0100
0000
,  // measure 36
0010
1000
0001
0100
,  // measure 37
0020
0000
0000
0000
,  // measure 38
0030
0000
0000
0000
,  // measure 39
0000
0100
0000
0001
,  // measure 40
0000
0100
0000
0010
,  // measure 41
0000
1000
0000
0010
,  // measure 42
0000
0100
0000
0010
,  // measure 43
1000
0001
1000
0001
,  // measure 44
0001
1000
1001
0000
,  // measure 45
0100
0010
0100
0010
,  // measure 46
0010
0100
0110
0000
,  // measure 47
0100
0001
0020
0000
,  // measure 48
0130
1000
0100
1000
,  // measure 49
0001
0100
0002
0000
,  // measure 50
1003
0100
1000
0010
,  // measure 51
0100
0100
0002
0000
,  // measure 52
0103
0001
1000
0100
,  // measure 53
0010
0010
0200
0000
,  // measure 54
1300
0100
0010
0001
,  // measure 55
1001
0000
0001
0000
,  // measure 56
1000
0000
0010
0000
,  // measure 57
1000
0000
0100
0000
,  // measure 58
1000
0000
0001
0000
,  // measure 59
0100
0100
0100
0100
,  // measure 60
0010
0010
0010
0010
,  // measure 61
1001
1001
0110
0110
,  // measure 62
2002
0000
3000
0003
,  // measure 63
1000
0100
1000
0100
,  // measure 64
1000
0100
0010
0010
,  // measure 65
0001
1000
0001
1000
,  // measure 66
0100
0001
0100
1000
,  // measure 67
1010
0000
0010
0000
,  // measure 68
0110
0000
0100
0000
,  // measure 69
0101
0000
1010
0000
,  // measure 70
1001
0110
0101
1010
,  // measure 71
1100
0000
0000
0000
;

//---------------dance-single - ----------------
#NOTES:
     dance-single:
     :
     Beginner:
     1:
     0.149274,0.162458,0.106780,0.007627,0.000000,122.000000,14.000000,1.000000,0.000000,0.000000,0.000000,0.149274,0.162458,0.106780,0.007627,0.000000,122.000000,14.000000,1.000000,0.000000,0.000000,0.000000:
// measure 0
0000
0000
0000
0000
,  // measure 1
0000
0000
0000
0000
,  // measure 2
0000
0000
0000
0000
,  // measure 3
0000
0000
0000
0000
,  // measure 4
0000
0000
0000
0000
,  // measure 5
0001
0000
0001
0000
,  // measure 6
0001
0001
0001
0000
,  // measure 7
1000
0000
1000
0000
,  // measure 8
0010
0010
0010
0000
,  // measure 9
0110
0000
0000
0000
,  // measure 10
1001
0000
0000
0000
,  // measure 11
1000
0000
0001
0000
,  // measure 12
0100
0100
0010
0010
,  // measure 13
1001
0000
0000
0000
,  // measure 14
1000
0000
0000
0000
,  // measure 15
0001
0000
0000
0000
,  // measure 16
0100
0000
0000
0000
,  // measure 17
0001
0000
0000
0000
,  // measure 18
1000
0000
0000
0000
,  // measure 19
0010
0000
0000
0000
,  // measure 20
0100
0000
0000
0000
,  // measure 21
1001
0000
0000
0000
,  // measure 22
0001
0000
0001
0000
,  // measure 23
1000
0000
0000
0000
,  // measure 24
0010
0000
0010
0000
,  // measure 25
0100
0000
0100
0000
,  // measure 26
0010
0000
1001
0000
,  // measure 27
1000
0000
0000
0000
,  // measure 28
0001
0000
0000
0000
,  // measure 29
0100
0100
0100
0000
,  // measure 30
0010
0000
0010
0000
,  // measure 31
1000
1000
1000
0000
,  // measure 32
0001
0000
1000
0000
,  // measure 33
0010
0010
0010
0000
,  // measure 34
0100
0000
0010
0000
,  // measure 35
1000
1000
1000
0000
,  // measure 36
0001
0000
1000
0000
,  // measure 37
0020
0000
0000
0000
,  // measure 38
0030
0000
0000
0000
,  // measure 39
0100
0000
0000
0000
,  // measure 40
0001
0000
0000
0000
,  // measure 41
1000
0000
0000
0000
,  // measure 42
0010
0000
0000
0000
,  // measure 43
1000
0000
0000
0001
,  // measure 44
0001
0000
1001
0000
,  // measure 45
0010
0000
0000
0100
,  // measure 46
0100
0000
1001
0000
,  // measure 47
1000
1000
1000
0000
,  // measure 48
0010
0000
0100
0000
,  // measure 49
0001
0001
0001
0000
,  // measure 50
1000
0000
0001
0000
,  // measure 51
0100
0100
0100
0000
,  // measure 52
0001
0000
1000
0000
,  // measure 53
0010
0010
0010
0000
,  // measure 54
1000
0000
0001
0000
,  // measure 55
0100
0000
0100
0000
,  // measure 56
0010
0000
0010
0000
,  // measure 57
1000
0000
1000
0000
,  // measure 58
0001
0001
0001
0000
,  // measure 59
1001
0000
0000
0000
,  // measure 60
1001
0000
0000
0000
,  // measure 61
0110
0000
0100
0000
,  // measure 62
0010
0000
1001
0000
,  // measure 63
1001
0000
0000
0000
,  // measure 64
0000
0000
0001
0001
,  // measure 65
1000
0000
0000
0000
,  // measure 66
0010
0100
0010
0100
,  // measure 67
1001
0000
0000
0000
,  // measure 68
0010
0000
0000
0000
,  // measure 69
1000
0000
0001
0000
,  // measure 70
0100
0000
0010
0010
,  // measure 71
1001
0000
0000
0000
;
