#VERSION:0.83;
#TITLE:Proof of the existence;
#SUBTITLE:;
#ARTIST:猫叉Master+;
#TITLETRANSLIT:;
#SUBTITLETRANSLIT:;
#ARTISTTRANSLIT:Nekomata Master+;
#GENRE:;
#ORIGIN:;
#CREDIT:;
#BANNER:Proof of the existence.png;
#BACKGROUND:Proof of the existence-bg.png;
#PREVIEWVID:;
#JACKET:Proof of the existence-jacket.png;
#CDIMAGE:;
#DISCIMAGE:;
#LYRICSPATH:;
#CDTITLE:;
#MUSIC:Proof of the existence.mp3;
#OFFSET:-0.021000;
#SAMPLESTART:101.620064;
#SAMPLELENGTH:11.294113;
#SELECTABLE:YES;
#BPMS:0.000=85.000,
32.000=170.000,
192.000=85.000,
208.000=170.000,
272.000=85.000;
#STOPS:;
#DELAYS:;
#WARPS:;
#TIMESIGNATURES:0.000=4=4;
#TICKCOUNTS:0.000=4;
#COMBOS:0.000=1;
#SPEEDS:0.000=1.000=0.000=0;
#SCROLLS:0.000=1.000;
#FAKES:;
#LABELS:0.000=Song Start;
#BGCHANGES:;
#KEYSOUNDS:;
#ATTACKS:
;

//---------------dance-single - ----------------
#NOTEDATA:;
#CHARTNAME:;
#STEPSTYPE:dance-single;
#DESCRIPTION:;
#CHARTSTYLE:;
#DIFFICULTY:Hard;
#METER:10;
#RADARVALUES:0.617595,0.898723,0.178195,0.356390,0.542333,558.000000,535.000000,23.000000,46.000000,0.000000,0.000000,0.000000,0.000000,0.000000,0.617595,0.898723,0.178195,0.356390,0.542333,558.000000,535.000000,23.000000,46.000000,0.000000,0.000000,0.000000,0.000000,0.000000;
#CREDIT:;
#NOTES:
// measure 0
0000
0000
0000
0000
,  // measure 1
0000
0000
0000
0000
0000
0000
0000
0000
0000
0000
0001
0010
,  // measure 2
2100
0000
3001
0000
,  // measure 3
0100
0000
0000
0000
0000
0000
0000
0000
0010
0000
0000
0000
0000
0000
0000
0000
1000
0000
0000
0000
0000
0000
0000
0000
0001
0000
0000
0000
0000
0000
1000
0000
0000
0000
0000
0000
0001
0000
0000
0000
0000
0000
1000
0000
0000
0000
0000
0000
0001
0000
0000
0000
0000
0000
0000
0000
1000
0000
0000
0000
0000
0000
0000
0000
0001
0000
0000
0000
0000
0000
0000
0000
0000
0000
0000
0000
0000
0000
0000
0000
0100
0000
0000
0000
0000
0000
0000
0000
0000
0000
0000
0000
0000
0000
0000
0000
0020
0000
0000
0000
0000
0000
0000
0000
0000
0000
0000
0000
0000
0000
0000
0000
0000
0000
0000
0000
0000
0000
0000
0000
0000
0000
0000
0000
0000
0000
0000
0000
0000
0000
0000
0000
0000
0000
0000
0000
0000
0000
0000
0000
0000
0000
0000
0000
0000
0000
0000
0000
0000
0000
0000
0000
0000
0000
0000
0000
0000
0000
0000
0000
0000
0000
0000
0000
0000
0000
0000
0000
0000
0000
0000
0000
0000
0000
0000
0000
0000
0000
0000
0000
0000
0000
0000
0000
0000
0000
0000
0000
0000
0000
0000
0000
,  // measure 4
1030
0000
0010
1000
0001
0000
0000
0000
0010
0000
0010
0000
0100
0000
0000
0000
,  // measure 5
0010
0000
0001
0010
0100
0000
0000
0000
0010
0000
0100
0000
1000
0000
0000
0000
,  // measure 6
0001
1000
0000
0010
0100
0000
0010
1000
0000
0001
0100
0000
,  // measure 7
0001
0000
0000
0000
0100
0000
0000
0000
1000
0000
0000
0000
0100
0000
0000
0000
0010
0000
0000
0000
1000
0000
0000
0000
0001
0000
0000
0000
0000
0000
0000
0000
0000
0100
0000
0000
0000
0000
0000
0000
0000
0000
0020
0000
0000
0000
0000
0000
,  // measure 8
1030
0100
0010
0100
0010
0001
1000
0010
,  // measure 9
0100
0001
0010
0010
0100
1000
0010
0010
,  // measure 10
1000
0001
0100
0100
0010
1000
0100
0100
,  // measure 11
0010
0001
1000
1000
0010
0100
0001
0001
,  // measure 12
1000
0100
0001
0100
1000
0010
0001
0010
,  // measure 13
0100
0001
0010
1000
0010
0001
1000
0100
,  // measure 14
0010
0001
0100
0010
1000
0010
1000
0001
,  // measure 15
0010
0100
0010
0100
1000
0100
1000
0001
1000
0010
0200
0000
0000
0000
0300
0000
,  // measure 16
1001
0000
0000
0001
0100
0000
0010
0000
1000
0000
0100
0000
0001
0000
0100
0000
,  // measure 17
1000
0000
0000
0010
0100
0000
0001
0000
0010
0000
0001
0000
0010
0100
1000
0000
,  // measure 18
0010
0000
0000
0100
0010
0000
0100
0000
0001
0000
1000
0000
0010
0000
1000
0000
,  // measure 19
0001
0000
0000
0000
0001
0000
1000
0000
0000
0000
0100
0000
0010
1000
0001
0000
,  // measure 20
1000
0000
0000
0001
0010
0000
0100
0000
0010
0000
0001
0000
0010
0000
1000
0000
,  // measure 21
0010
0000
0000
0000
0001
0000
0010
0001
0010
0000
0010
0000
0001
0000
1000
0000
,  // measure 22
0100
0000
0010
0000
0001
0100
1000
0200
,  // measure 23
0000
0000
0310
0000
1000
0000
0002
0000
0000
0000
0013
0000
0010
0100
1000
0001
,  // measure 24
2000
0000
0000
0000
0010
0000
0000
0000
3001
0000
0010
0100
1000
0000
0010
0000
,  // measure 25
0200
0000
0000
0000
1000
0000
0000
0000
0310
0000
0100
0000
0010
0001
1000
0000
,  // measure 26
0002
0000
0000
0000
0100
0000
0000
0000
0010
0000
1003
0001
0100
0000
0010
0000
,  // measure 27
0000
0000
0100
0000
0001
0000
1001
0000
0000
0000
0001
0000
1000
0010
0100
0000
,  // measure 28
0002
0000
0000
0000
0010
0000
0000
0000
1003
0000
0001
0010
0100
0000
1000
0000
,  // measure 29
0020
0000
0000
0000
0100
0000
0130
0010
1000
0000
1000
0000
0010
0000
0100
0000
,  // measure 30
0020
0000
0000
0000
1000
0000
0000
0000
0130
0000
0010
1000
0001
0000
0200
0000
,  // measure 31
0000
0000
0310
1000
0001
0000
2000
0000
0000
0000
3100
0000
0100
0010
0001
1000
,  // measure 32
0001
0000
1000
0000
0010
1000
0001
0000
0010
0000
0100
0000
,  // measure 33
0010
0000
0000
0000
0000
0000
0100
0000
0010
0000
0001
0000
,  // measure 34
1000
0000
0010
0000
0100
0001
0010
0000
0100
0000
0010
0000
,  // measure 35
0001
0000
0000
2000
,  // measure 36
3010
0000
1000
0000
0010
0100
0001
0000
0010
0000
1000
0000
,  // measure 37
0010
0000
0000
0000
0000
0000
0100
0000
0010
0000
0001
0000
,  // measure 38
1000
0000
0100
0000
0001
0100
0010
0000
0001
0000
1000
0100
,  // measure 39
0010
0000
0000
0000
0000
0000
0110
0000
0011
0000
1100
0000
,  // measure 40
1001
0000
0000
1000
0010
0000
0100
0000
0001
0000
0000
0010
0100
0000
1000
0000
,  // measure 41
0001
0000
0000
0000
0000
0000
0000
0000
0000
1000
0000
0000
0010
0000
0000
0000
0000
0000
0100
0000
0000
0000
0000
0000
0001
0000
0000
0000
0000
0000
0000
0000
0010
0000
0000
0000
0000
0000
0000
0000
0100
0000
0000
0000
0000
0000
0000
0000
,  // measure 42
0010
0000
0000
0100
1000
0000
0010
0000
0100
0000
0000
0001
1000
0000
0010
0000
,  // measure 43
0100
0000
0001
0000
0010
0000
0100
0010
,  // measure 44
0001
0000
0000
1000
0001
0000
0010
0000
0100
0000
0000
1000
0100
0000
0010
0000
,  // measure 45
0001
0000
0000
0000
0000
0000
0000
0000
0000
1000
0000
0000
0010
0000
0000
0000
0000
0000
0100
0000
0000
0000
0000
0000
0001
0000
0000
0000
0000
0000
0000
0000
1000
0000
0000
0000
0000
0000
0000
0000
0010
0000
0000
0000
0000
0000
0000
0000
,  // measure 46
0100
0000
0000
0001
0010
0000
0001
0000
1000
0000
0000
0010
1000
0000
0001
0000
,  // measure 47
0100
0000
0000
0010
1000
0000
0100
0000
0010
0000
0001
0000
1000
0001
0100
0001
,  // measure 48
0010
0000
0100
1000
0010
0000
0000
0000
0100
0000
0100
0000
0001
0000
0000
0000
,  // measure 49
1000
0000
0001
0010
1000
0000
0000
0000
0010
0000
0100
0000
1000
0000
0000
0000
,  // measure 50
0001
0000
1000
0100
0001
0000
0000
0000
0100
0000
1000
0000
0010
0000
0000
0000
,  // measure 51
0100
0000
0000
0000
0000
0000
0010
0000
0000
1000
0000
0000
0001
0000
0000
0000
0000
0000
1000
0000
0000
0000
0000
0000
1001
0000
0000
0000
0101
0000
0000
0000
1010
0000
0000
0000
0011
0000
0000
0000
1100
0000
0100
0000
0000
0010
0000
0000
,  // measure 52
0002
0000
0000
1003
0001
0000
0100
0000
0020
0000
0000
0130
0001
0000
0010
0000
,  // measure 53
0100
0001
0100
1000
0020
0000
0230
0000
,  // measure 54
0302
0000
0000
0013
0100
0000
1000
0000
0002
0000
0000
0103
0010
0000
1000
0000
,  // measure 55
0010
1000
0100
1000
0002
0000
2003
0000
,  // measure 56
3200
0000
0000
0310
0001
0000
0010
0000
0002
0000
0000
1003
0010
0000
0100
0000
,  // measure 57
0020
0000
0000
1030
0002
0000
0000
0013
0200
0000
0000
1300
0002
0000
0000
1003
,  // measure 58
0020
0000
0000
0130
0001
0000
0010
0000
0200
0000
0000
0310
0001
0000
1000
0000
,  // measure 59
0200
0000
0000
0310
1000
0000
0001
0000
2000
0000
0000
0000
3020
0000
0000
0000
,  // measure 60
0230
0000
0301
0010
0100
0000
1000
0000
0200
0000
1300
0010
0100
0000
0001
0000
,  // measure 61
1000
0100
0001
0100
0020
0000
0032
0000
,  // measure 62
0203
0000
0310
1000
0001
0000
0010
0000
0200
0000
0310
0001
1000
0000
0010
0000
,  // measure 63
0100
0001
0100
0010
1000
0001
0010
0100
2000
0000
0000
0000
3002
0000
0000
0000
,  // measure 64
0203
0000
0310
1000
0001
0000
0010
0000
0200
0000
1300
0100
0010
0000
0100
0000
,  // measure 65
0010
0000
0001
0010
0001
0000
0010
0100
0010
0000
0100
1000
0100
0000
1000
0010
,  // measure 66
0110
0000
0000
0000
0110
0000
0000
0000
0101
0000
0000
0000
1010
0000
0000
1010
0000
0000
0011
0000
0000
0011
0000
0000
,  // measure 67
0001
1000
0001
1000
0001
1000
0001
0000
0000
0100
0000
0000
0010
1000
0010
1000
0010
1000
0001
0000
0010
0000
0100
0000
,  // measure 68
1000
0000
0000
0100
0010
0000
0000
0000
0001
0000
0010
0000
0100
0000
0000
0000
,  // measure 69
1100
0000
0000
0100
0010
0000
0000
0000
0010
0000
0001
0000
1000
0000
0001
0000
,  // measure 70
0101
0000
0000
0001
1000
0000
0000
0000
0010
0000
0100
0000
0001
0000
0000
0000
,  // measure 71
1100
0000
0000
0100
0010
0000
0000
0000
2002
0000
0000
0000
0000
0000
0000
0000
,  // measure 72
0000
0000
3003
0000
;

//---------------dance-single - ----------------
#NOTEDATA:;
#CHARTNAME:;
#STEPSTYPE:dance-single;
#DESCRIPTION:;
#CHARTSTYLE:;
#DIFFICULTY:Easy;
#METER:5;
#RADARVALUES:0.260098,0.337021,0.030990,0.395128,0.000000,235.000000,231.000000,4.000000,51.000000,0.000000,0.000000,0.000000,0.000000,0.000000,0.260098,0.337021,0.030990,0.395128,0.000000,235.000000,231.000000,4.000000,51.000000,0.000000,0.000000,0.000000,0.000000,0.000000;
#CREDIT:;
#NOTES:
0000
0000
0000
0000
,
0000
0000
0000
0000
,
2002
0000
0000
0000
,
0000
0000
0000
3003
,
1000
0000
0010
0000
0100
0001
0100
0000
,
0001
0000
1000
0000
0010
0100
0010
0000
,
1000
0000
0001
0000
0100
0010
0100
0000
,
0010
0000
1000
0000
0001
0000
0000
0200
,
0301
0001
1000
1000
,
0010
0010
1000
1000
,
0010
0010
0100
0100
,
0001
0001
1000
1000
,
0100
1000
0010
0100
,
0001
0010
0001
1000
,
0100
1000
0010
0100
,
0001
0000
0010
0000
0100
2000
0000
0000
,
3001
0000
0000
0000
0000
0100
0001
0100
,
0000
0000
0000
0000
0000
0010
0100
0010
,
0000
0000
0000
0000
0000
1000
0010
1000
,
0000
0000
0000
0010
0000
0000
0100
0000
,
0001
0000
0000
0000
0000
1000
0100
1000
,
0000
0000
0000
1000
0100
0010
0001
0010
,
0001
0000
0000
0000
0000
1000
0001
1000
,
0000
0100
0010
0100
0000
0010
0100
0010
,
1000
0000
0000
0000
0000
0001
1000
0010
,
0000
0000
0000
0000
0000
0100
0001
0010
,
0000
0000
0000
0000
0000
0100
0010
0001
,
0000
0000
0000
1000
0000
0001
0100
0001
,
1000
0000
0000
0000
0000
0100
0010
0001
,
0000
0000
0000
0010
0001
0010
0100
1000
,
0001
0000
0000
0000
0000
1000
0010
0100
,
0000
0010
1000
0001
0000
0010
0100
1000
,
0001
0000
1000
0000
,
0010
0000
0100
0001
,
0100
0000
0001
0000
,
0010
0000
0000
0000
,
0100
0000
1000
0000
,
0001
0000
1000
0000
,
0010
0000
0100
0000
,
0001
0000
0110
1001
,
1000
0001
0100
0010
,
1000
0000
0001
0100
,
0010
0010
1000
0100
,
1000
0000
0000
1000
,
0100
1000
0001
0100
,
0010
0000
0100
0010
,
1000
1000
0001
0100
,
0010
0000
0100
0001
,
1000
0000
0001
0000
,
0010
0000
0001
0000
,
0100
0000
0010
0000
,
1000
0000
0000
0000
0001
1000
0010
0100
,
0002
0000
0203
0000
,
0320
2030
3200
0320
,
0032
0000
0023
0000
,
0032
0203
0320
2030
,
3002
0000
0023
0000
,
0032
0203
0320
2030
,
3002
0000
2003
0000
,
3002
0000
0203
0320
,
2030
0000
3200
0000
,
2300
3200
0320
0230
,
0320
0000
0032
0000
,
0023
0230
2300
3002
,
0203
0000
0320
0000
,
2030
3200
0320
0230
,
2300
3020
0230
0302
,
1003
0100
1000
0000
0001
0100
0001
0010
,
0100
0000
1000
0000
,
0001
0000
1000
0000
,
0100
0000
0010
0000
,
0001
0000
2002
0000
,
0000
0000
3003
0000
;

//---------------dance-single - ----------------
#NOTEDATA:;
#CHARTNAME:;
#STEPSTYPE:dance-single;
#DESCRIPTION:;
#CHARTSTYLE:;
#DIFFICULTY:Medium;
#METER:7;
#RADARVALUES:0.401769,0.477447,0.046486,0.356390,0.224681,363.000000,357.000000,6.000000,46.000000,0.000000,0.000000,0.000000,0.000000,0.000000,0.401769,0.477447,0.046486,0.356390,0.224681,363.000000,357.000000,6.000000,46.000000,0.000000,0.000000,0.000000,0.000000,0.000000;
#CREDIT:;
#NOTES:
0000
0000
0000
0000
,
0000
0000
0000
0000
,
1002
0000
0100
0000
,
0020
0000
0000
0030
0000
0000
0000
0003
,
1000
0100
0010
0000
0100
1000
1000
0000
,
0100
0010
0001
0000
0010
0010
0001
0000
,
1000
0001
0100
0000
0010
0010
1000
0000
,
0001
0010
0100
1000
0001
0000
0000
2000
,
3010
0000
1000
0010
0100
0000
0010
1000
,
0001
0000
0010
0100
1000
0000
0100
0010
,
0001
0000
1000
0001
0100
0000
0010
0100
,
0001
0000
1000
0010
0100
0000
0001
0010
,
0100
0000
0100
0010
0001
0000
0010
0100
,
1000
0000
0100
0010
0001
0000
0001
1000
,
0010
0000
0100
0010
1000
0000
0001
0100
,
0010
0000
1000
0001
0010
0200
0000
0000
,
0310
0000
0001
0000
0010
0100
0010
0001
,
1000
0000
0010
0000
0100
0001
0100
1000
,
0100
0000
0010
0000
1000
0001
0010
0001
,
1000
0000
0100
0010
0000
0010
0100
1000
,
0001
0000
1000
0000
0010
0100
0010
1000
,
0001
0000
1000
0000
0001
1000
0010
1000
,
0100
0000
0010
0000
0100
1000
0010
0100
,
0000
0010
1000
0001
0000
0010
0100
1000
,
0002
0000
1000
0000
1003
0100
0010
0100
,
2000
0000
0100
0000
3100
0010
0001
0100
,
0020
0000
1000
0000
1030
0001
0010
0002
,
0000
0013
0001
0100
0000
0010
1000
0001
,
0020
0000
0100
0000
0031
0010
0001
1000
,
0200
0000
0010
0000
0310
0001
1000
0001
,
0010
0000
0100
0000
1000
0010
0100
0002
,
0000
1003
0010
0200
0000
0310
1000
0100
,
0010
0000
0010
0000
0001
0000
0010
0000
0010
0000
0001
0000
,
0010
0000
0000
0000
0000
0000
0100
0000
1000
0000
0010
0000
,
0100
0000
0001
0000
1000
0000
0010
0000
0100
0000
0001
0000
,
1000
0000
0000
0000
,
0001
0000
0010
0000
0100
0000
0010
0000
0001
0000
1000
0000
,
0010
0000
0000
0000
0000
0000
0100
0000
0010
0000
1000
0000
,
0001
0000
0001
0000
1000
0000
0010
0000
0100
0000
0001
0000
,
1000
0000
0000
0000
0000
0000
1001
0000
1001
0000
1001
0000
,
0001
0000
0100
0000
0010
0000
1000
0000
0001
0000
0010
0000
,
0100
0000
0000
0000
0000
0000
0010
0000
0001
0000
0010
0000
,
0100
0000
0100
0000
1000
0000
0010
0000
0010
0000
0100
0000
,
0001
0000
0000
1000
,
0001
0000
1000
0000
0010
0000
1000
0000
0001
0000
0100
0000
,
0010
0000
0000
0000
0000
0000
0100
0000
0010
0000
1000
0000
,
0001
0000
0010
0000
0100
0000
0010
0000
0001
0000
1000
0000
,
0001
0000
1000
0010
,
1001
0000
0000
0001
1000
0000
0000
0000
0010
0000
0100
0000
0010
0000
0000
0000
,
0100
0000
0000
0001
0010
0000
0000
0000
0100
0000
1000
0000
0100
0000
0000
0000
,
1000
0000
0000
0010
0100
0000
0000
0000
0001
0000
1000
0000
0010
0000
0000
0000
,
0100
0000
0000
0000
0000
0000
0000
0000
0000
0001
0000
0000
1000
0000
0000
0000
0000
0000
0000
0000
0000
0000
0000
0000
0010
0000
0000
0000
1000
0000
0000
0000
0001
0000
0000
0000
0010
0000
0000
0000
0100
0000
0000
0000
1000
0000
0000
0000
,
0002
0000
0023
0000
,
0031
0010
0001
1000
0020
0000
0230
0000
,
0302
0000
2003
0000
,
3010
1000
0001
0100
0002
0000
2003
0000
,
3200
0000
2300
0000
,
3200
2300
3020
0230
,
0302
0000
2003
0000
,
3020
0000
2030
3020
,
0230
0000
0320
0000
,
0130
0001
0010
0100
0020
0000
0032
0000
,
2003
0000
3020
0000
,
0130
0010
1000
0010
0200
0000
0302
0000
,
0023
0000
0032
0000
,
2003
3200
0320
0230
,
1300
0000
0000
0000
0100
0000
0000
0000
0010
0000
0000
0000
0001
0000
0000
0010
0000
0000
0100
0000
0000
1000
0000
0000
,
0001
0000
0000
1000
0000
0000
1001
0000
0000
0000
0000
0000
0001
0000
0000
1000
0000
0000
0001
0000
1000
0000
0001
0000
,
1000
0000
0000
0001
0100
0000
0000
0000
0010
0000
0010
0000
1000
0000
0000
0000
,
0001
0000
0000
1000
0100
0000
0000
0000
0010
0000
0010
0000
0001
0000
0000
0000
,
0010
0000
0000
0100
1000
0000
0000
0000
0100
0000
0100
0000
1000
0000
0000
0000
,
0001
0000
0000
1000
0010
0000
0000
0000
0200
0000
0000
0000
0000
0000
0000
0000
,
0000
0000
0300
0000
;

//---------------dance-single - ----------------
#NOTEDATA:;
#CHARTNAME:;
#STEPSTYPE:dance-single;
#DESCRIPTION:;
#CHARTSTYLE:;
#DIFFICULTY:Beginner;
#METER:2;
#RADARVALUES:0.115107,0.166186,0.061981,0.054233,0.000000,104.000000,96.000000,8.000000,7.000000,0.000000,0.000000,0.000000,0.000000,0.000000,0.115107,0.166186,0.061981,0.054233,0.000000,104.000000,96.000000,8.000000,7.000000,0.000000,0.000000,0.000000,0.000000,0.000000;
#CREDIT:;
#NOTES:
0000
0000
0000
0000
,
0000
0000
0000
0000
,
0000
0000
0000
0000
,
0000
0000
0000
0000
,
0010
0000
0000
0000
,
1000
0000
0000
0000
,
0001
0000
1000
0000
,
0100
0000
0000
0000
,
0001
0000
0000
0000
,
1000
0000
0000
0000
,
0010
0000
0000
0000
,
1000
0000
0000
0000
,
0100
0000
0100
0000
,
0010
0000
0010
0000
,
0001
0000
0001
0000
,
1000
0000
1000
0000
,
1001
0000
0000
0000
,
0010
0000
0000
1000
,
0000
0000
0000
0001
,
0000
0100
0000
0000
,
0010
0000
0000
0000
,
1000
0000
0001
0001
,
0001
0000
0000
1000
,
0000
0001
0000
0100
,
1001
0000
0000
0000
,
1000
0000
0000
0000
,
0010
0000
0000
0000
,
1000
0000
0100
0000
,
1000
0000
0000
0000
,
0001
0000
0000
0000
,
0010
0000
0000
0000
,
0001
0000
1000
0000
,
0110
0000
0000
0000
,
0000
0000
0010
0000
,
0010
0000
0000
0000
,
0000
0000
0000
0000
,
1000
0000
1000
0000
,
1000
0000
0000
0000
,
0001
0000
0001
0000
,
0001
0000
0000
0000
,
1001
0000
1000
0000
,
0001
0000
0000
0000
,
0100
0000
0010
0000
,
0100
0000
0000
0000
,
0001
0000
1000
0000
,
0010
0000
0000
0000
,
1000
0000
0001
0000
,
0100
0000
0000
0000
,
1001
0000
0000
0000
,
1000
0000
0000
0000
,
0010
0000
0000
0000
,
0100
0000
0001
0000
,
1001
0000
1000
0000
,
0002
0000
0000
0003
,
0100
0000
0010
0000
,
0200
0000
0000
0300
,
0010
0000
1000
0000
,
0020
0000
0000
0030
,
1000
0000
0001
0000
,
2000
0000
0000
3000
,
0001
0000
0100
0000
,
0002
0000
0000
0003
,
0010
0000
0001
0000
,
0020
0000
0000
0030
,
0100
0000
1000
0000
,
0200
0000
0000
0300
,
1000
0000
0001
0000
,
0010
0000
0100
0000
,
1001
0000
0000
0000
,
1000
0000
0000
0000
,
0010
0000
0000
0000
,
0100
0000
1001
0000
;
