#VERSION:0.83;
#TITLE:Proluvies;
#SUBTITLE:;
#ARTIST:Camellia;
#TITLETRANSLIT:;
#SUBTITLETRANSLIT:;
#ARTISTTRANSLIT:Camellia;
#GENRE:;
#ORIGIN:;
#CREDIT:;
#BANNER:Proluvies.png;
#BACKGROUND:Proluvies-bg.png;
#PREVIEWVID:;
#JACKET:Proluvies-jacket.png;
#CDIMAGE:;
#DISCIMAGE:;
#LYRICSPATH:;
#CDTITLE:;
#MUSIC:Proluvies.mp3;
#OFFSET:-5.022989;
#SAMPLESTART:82.042656;
#SAMPLELENGTH:11.851852;
#SELECTABLE:YES;
#BPMS:0.000=81.000,
32.000=40.500,
35.500=81.000,
100.000=162.000,
164.000=81.000;
#STOPS:35.500=0.370;
#DELAYS:;
#WARPS:;
#TIMESIGNATURES:0.000=4=4;
#TICKCOUNTS:0.000=4;
#COMBOS:0.000=1;
#SPEEDS:0.000=1.000=0.000=0;
#SCROLLS:0.000=1.000;
#FAKES:;
#LABELS:0.000=Song Start;
#BGCHANGES:;
#KEYSOUNDS:;
#ATTACKS:
;

//---------------dance-single - ----------------
#NOTEDATA:;
#CHARTNAME:;
#STEPSTYPE:dance-single;
#DESCRIPTION:;
#CHARTSTYLE:;
#DIFFICULTY:Hard;
#METER:10;
#RADARVALUES:0.711287,0.885790,0.359400,0.298039,1.398154,568.000000,527.000000,41.000000,34.000000,0.000000,0.000000,0.000000,0.000000,0.000000,0.711287,0.885790,0.359400,0.298039,1.398154,568.000000,527.000000,41.000000,34.000000,0.000000,0.000000,0.000000,0.000000,0.000000;
#CREDIT:;
#NOTES:
// measure 0
0001
0100
0001
0010
0000
0000
0000
0100
1000
0001
0000
0001
0010
0001
1000
0000
,  // measure 1
0001
0000
1000
0000
0001
0000
0100
0000
0000
0000
0000
0000
0000
0000
0001
0000
1000
0000
0100
0000
0000
0000
1000
0000
0100
0000
0010
0000
0100
0010
0001
1000
,  // measure 2
0001
0100
0001
0100
0000
0000
0001
0100
0001
1000
0000
1000
0100
0010
0100
0000
,  // measure 3
1000
0000
0001
0000
0010
0000
0100
0000
0000
0000
1000
0000
0100
0000
0010
0100
1000
0000
1000
0100
0000
0010
0001
0000
1000
0001
1000
0000
0001
0100
0010
0000
,  // measure 4
1000
0000
0100
0000
0010
0000
0100
0000
0000
0000
0000
0000
0010
0000
0001
0000
1000
0000
0001
0000
0000
0000
1000
0000
0001
0000
1001
0000
0000
0101
0000
0000
,  // measure 5
1001
0000
1000
0000
0010
0000
1000
0000
0000
0000
0000
0000
0001
0000
0100
0000
0001
0000
0010
0000
0000
0000
0100
0000
1000
0000
1100
0000
0000
0011
0000
0000
,  // measure 6
1001
0001
0010
0100
0000
0000
0100
1000
0010
0100
0000
0010
1000
0001
0010
0100
,  // measure 7
0010
0001
1000
0010
0000
0000
1000
0001
0010
0100
0000
1000
0100
0010
0001
1000
,  // measure 8
2002
0000
0000
0000
0000
0000
0000
3003
,  // measure 9
0021
0000
0000
0000
0000
0000
0130
1000
0010
0000
0100
0000
0000
0000
0000
0000
0000
0000
0001
0000
0010
0000
0001
0000
2000
0000
0000
0000
3001
0010
0100
1000
,  // measure 10
0002
0000
0000
0000
0000
0000
0000
0000
0000
0000
0000
0000
0000
0000
0000
0000
0000
0000
0000
0000
0000
0000
0000
0000
0003
0000
0000
0000
0000
0000
0000
0000
0000
0000
0000
0000
1000
0000
0000
0000
0000
0000
0000
0000
0000
0000
0000
0000
0001
0000
0000
0000
0000
0000
0000
0000
0000
0000
0000
0000
0000
0000
0000
0000
0000
0000
0000
0000
0000
0000
0000
0000
0001
0000
0000
0000
0000
0000
0100
0000
0000
0000
0000
0000
0001
0000
0000
0000
0000
0000
0200
0000
0000
0000
0000
0000
0000
0000
0000
0000
0000
0000
0000
0000
0000
0000
0000
0000
0000
0000
0000
0000
0010
0000
0300
0000
0000
0000
0000
0000
1000
0000
0000
0000
0000
0000
0100
0000
0000
0000
0000
0000
0010
0000
0000
0000
0000
0000
0001
0000
0000
0000
0000
0000
1000
0000
0000
0000
0000
0000
0001
0000
0000
0000
0000
0000
1000
0000
0000
0000
0000
0000
0000
0000
0000
0000
0000
0000
0100
0000
0000
0000
0000
0000
0000
0000
0000
0000
0000
0000
0010
0000
0000
0000
0000
0000
0000
0000
0000
0000
0000
0000
,  // measure 11
0001
0000
0000
0000
0000
0000
0000
0000
0000
0000
0000
0000
0010
0000
0000
0000
0000
0000
0000
0000
0000
0000
0000
0000
1000
0000
0000
0000
0000
0000
0000
0000
0000
0000
0000
0000
0010
0000
0000
0000
0000
0000
0100
0000
0000
0000
0000
0000
1000
0000
0000
0000
0000
0000
0000
0000
0000
0000
0000
0000
1000
0000
0000
0000
0000
0000
0000
0000
0000
0000
0000
0000
0020
0000
0000
0000
0000
0000
0000
0000
0000
0000
0000
0000
1030
0000
0000
0000
0000
0000
0000
0000
0000
0000
0000
0000
0001
0000
0000
0000
0000
0000
1000
0000
0000
0000
0000
0000
0010
0000
0000
0000
0000
0000
0000
0000
0000
0000
0000
0000
0100
0000
0000
0000
0000
0000
0000
0000
0000
0000
0000
0000
0010
0000
0000
0000
0000
0000
0000
0000
0000
0000
0000
0000
2000
0000
0000
0000
0000
0000
0000
0000
0000
0000
0000
0000
0000
0000
0000
0000
0000
0000
0000
0000
0000
0000
0000
0000
3001
0000
0000
0000
0000
0000
0000
0000
0100
0000
0000
0000
0000
0000
0000
0000
0001
0000
0000
0000
0000
0000
0000
0000
,  // measure 12
0200
0000
0000
0000
0000
0000
0310
0000
0100
0000
0000
0000
0100
0010
1000
0001
1000
0000
1000
0100
0000
0010
0001
0000
0001
0100
0000
0010
1000
0000
0001
0000
,  // measure 13
2002
0000
0000
0000
3003
0000
0001
1000
0020
0000
0000
2030
0000
0000
3002
0000
0000
0023
0130
0000
0010
0000
0001
0000
1000
0000
1000
0000
0010
0000
0200
0000
,  // measure 14
0302
0000
0000
0000
0000
0000
0000
0000
0000
0000
0000
0000
0000
0000
0000
0000
0000
0000
0000
0000
0000
0000
0000
0000
0000
0000
0000
0000
0000
0000
0000
0000
0000
0000
0000
0000
1003
0000
0000
0000
0000
0000
0000
0000
0000
0000
0000
0000
0100
0000
0000
0000
0000
0000
0000
0000
0000
0000
0000
0000
0000
0000
0000
0000
0000
0000
0000
0000
0000
0000
0000
0000
0010
0000
0000
0000
0000
0000
0001
0000
0000
0000
0000
0000
0010
0000
0000
0000
0000
0000
0001
0000
0000
0000
0000
0000
0200
0000
0000
0000
0000
0000
0000
0000
0000
0000
0000
0000
0000
0000
0000
0000
0000
0000
0310
0000
0000
0000
0000
0000
0000
0000
0000
0000
1000
0000
0000
0000
0000
0000
0000
0000
0010
0000
0000
0000
0000
0000
0000
0000
0000
0000
0000
0000
1000
0000
0000
0000
0000
0000
0001
0000
0000
0000
0000
0000
1000
0000
0000
0000
0000
0000
0000
0000
0000
0000
0000
0000
0000
0000
0000
0000
0000
0000
0101
0000
0000
0000
0000
0000
0000
0000
0000
0000
0000
0000
0000
0000
0000
0000
0000
0000
,  // measure 15
0001
0000
0000
0000
0000
0000
0100
0000
0000
0000
0000
0000
0001
0000
0000
0000
0000
0000
1000
0000
0000
0000
0000
0000
0200
0000
0000
0000
0000
0000
0000
0000
0000
0000
0000
0000
0000
0000
0000
0000
0000
0000
0000
0000
0000
0000
0000
0000
0310
0000
0000
0000
0000
0000
0000
0000
0000
0000
0000
0000
0100
0000
0000
0000
0000
0000
1000
0000
0000
0000
0000
0000
0000
0000
0000
0000
0000
0000
1000
0000
0000
0000
0000
0000
0020
0000
0000
0000
0000
0000
0000
0000
0000
0000
0000
0000
0130
0000
0000
0000
0000
0000
0001
0000
0000
0000
0000
0000
0000
0000
0000
0000
0000
0000
0001
0000
0000
0000
0000
0000
0010
0000
0000
0000
0000
0000
0000
0000
0000
0000
0000
0000
0100
0000
0000
0000
0000
0000
0000
0000
0000
0000
0000
0000
1000
0000
0000
0000
0000
0000
0000
0000
0000
0000
0000
0000
1000
0000
0000
0000
0000
0000
0000
0000
0000
0000
0000
0000
0001
0000
0000
0000
0000
0000
0000
0000
0100
0000
0000
0000
0000
0000
0000
0000
0001
0000
0000
0000
0000
0000
0000
0000
,  // measure 16
2000
0000
0000
0000
0000
0000
0000
0000
0000
0000
0000
0000
0000
0000
0000
0000
0000
0000
0000
0000
0000
0000
0000
0000
3000
0000
0000
0000
0000
0000
0000
0000
0000
0000
0000
0000
0100
0000
0000
0000
0000
0000
0000
0000
0000
0000
0000
0000
0010
0000
0000
0000
0000
0000
0000
0000
0000
0000
0000
0000
0000
0000
0000
0000
0001
0000
0000
0000
0000
0000
0000
0000
0000
0000
0000
0000
0000
0000
0000
0000
0100
0000
0000
0000
0000
0000
0000
0000
0000
0000
0000
0000
0000
0000
0000
0000
0020
0000
0000
0000
0000
0000
0000
0000
0000
0000
0000
0000
0000
0000
0000
0000
0000
0000
0000
0000
0000
0000
0000
0000
0130
0000
0000
0000
0000
0000
0010
0000
0000
0000
0000
0000
1000
0000
0000
0000
0000
0000
0100
0000
0000
0000
0000
0000
2000
0000
0000
0000
0000
0000
0000
0000
0000
0000
0000
0000
0000
0000
0000
0000
0000
0000
0000
0000
0000
0000
0000
0000
3001
0000
0000
0000
0000
0000
0000
0000
0000
0000
0000
0000
1000
0000
0000
0000
0000
0000
0000
0000
0000
0000
0000
0000
,  // measure 17
0001
0010
0100
1000
0100
0010
0100
1000
0000
0001
0010
0100
1000
0100
0010
0100
,  // measure 18
0000
1000
0100
0010
0001
0010
0100
0010
0000
0001
0010
0100
1000
0100
0010
0100
,  // measure 19
0000
1000
0100
0010
0001
0010
0100
0010
0000
0001
0010
0100
1000
0100
0010
0100
,  // measure 20
0000
0000
1000
0000
0100
0000
0010
0000
0001
0000
0010
0000
0100
0000
0010
0000
0000
0000
0001
0000
0010
0000
0100
0000
2000
0000
0000
0000
3010
0000
1000
0001
,  // measure 21
1001
0000
0000
0000
1010
0000
0000
0000
1010
0000
0000
0101
0000
0000
0011
0000
1001
0000
0000
0000
1001
0000
0000
0000
1001
0000
0000
0011
0000
0000
1100
0000
,  // measure 22
1010
0000
0000
0000
1010
0000
0000
0000
1010
0000
0000
0101
0000
0000
0011
0000
0110
0000
0000
0000
0110
0000
0000
0000
0110
0000
0000
1100
0000
0000
1001
0000
,  // measure 23
0000
1001
0000
1010
0000
0000
1001
0000
0000
1100
0000
0000
1001
0000
0101
0000
0000
1001
0000
0101
0000
1010
0000
0000
1010
0000
0000
0101
0000
0001
1000
0000
,  // measure 24
0000
1000
0000
0010
0000
0001
0000
0010
0000
0100
0010
1000
0001
0010
0100
1000
0001
0000
1000
0001
0000
1000
0001
0000
0200
0000
0320
0000
2030
0000
3002
0000
,  // measure 25
0013
0000
0100
1000
0000
0001
0000
0100
0000
0001
0000
0010
0100
1000
0001
1000
,  // measure 26
0000
0010
0000
0100
0000
0010
0000
1000
0000
0001
0000
1000
0001
1000
0010
0100
,  // measure 27
0001
0000
0000
0010
0000
0100
0000
1000
0000
0010
0000
0100
0001
1000
0001
1000
,  // measure 28
0000
1000
0000
0100
0000
1000
0000
0010
0000
0100
0000
0010
1000
0010
0100
0001
,  // measure 29
0010
0000
0000
0100
0000
0010
0000
0001
0000
0010
0000
0100
1000
0010
1000
0001
,  // measure 30
0000
0100
0000
0001
0000
0010
0000
0100
0000
0010
0000
0001
1000
0001
0010
0100
,  // measure 31
1000
0000
0000
0001
0000
1000
0000
0001
0000
0010
0000
0100
0010
0000
0001
0000
,  // measure 32
1000
0000
0000
0001
0100
0000
0000
0100
0010
0000
0000
0010
1000
0000
0001
0000
,  // measure 33
2000
0000
0000
0000
3100
0010
0000
0001
0000
0010
0000
0100
1000
0100
0010
0001
,  // measure 34
0000
0100
0000
0010
0000
1000
0000
0001
0000
0010
0000
0100
1000
0001
1000
0001
,  // measure 35
0100
0000
0000
0010
0000
1000
0000
0001
0000
0010
0000
0100
0010
0001
1000
0001
,  // measure 36
0000
1000
0000
0001
0000
0100
0000
0010
1000
0000
0000
0001
0100
0001
0010
0100
,  // measure 37
1000
0000
0000
0000
0000
0000
0001
1000
0001
0100
0001
0000
1000
0000
0100
0000
,  // measure 38
0010
0000
0000
0100
0000
0000
0000
0000
0000
0000
0000
0000
1000
0000
0000
0000
0000
0000
0001
0000
0000
0000
0000
0000
0020
0000
0000
0000
0000
0000
0000
0000
0000
0000
0000
0000
0130
0000
0000
0000
1000
0000
0000
0000
0001
0000
0000
0000
,  // measure 39
1000
0000
0001
0010
0001
0100
0010
1000
,  // measure 40
0001
1000
0000
0010
0000
1000
0000
0010
0100
0010
1000
0001
0010
0100
1000
0010
,  // measure 41
0100
0010
1000
0001
0000
0000
1000
0001
0100
0000
0000
0001
1000
0100
0000
0000
,  // measure 42
1000
0000
0001
0000
0100
0000
0000
0000
0001
0000
1000
0000
0001
0000
0100
0001
0010
0000
2000
0000
3010
0100
2000
0000
3001
0010
0002
0000
0013
0001
1000
0020
,  // measure 43
0030
0000
0000
0000
;

//---------------dance-single - ----------------
#NOTEDATA:;
#CHARTNAME:;
#STEPSTYPE:dance-single;
#DESCRIPTION:;
#CHARTSTYLE:;
#DIFFICULTY:Medium;
#METER:9;
#RADARVALUES:0.553501,0.564576,0.113956,0.122722,0.854671,442.000000,429.000000,13.000000,14.000000,0.000000,0.000000,0.000000,0.000000,0.000000,0.553501,0.564576,0.113956,0.122722,0.854671,442.000000,429.000000,13.000000,14.000000,0.000000,0.000000,0.000000,0.000000,0.000000;
#CREDIT:;
#NOTES:
1000
0001
0100
0001
0000
0000
0000
0001
0100
0001
0000
0100
0001
0100
0010
0000
,
1000
0001
0010
0001
0000
0000
0000
0010
0001
0010
0000
0001
0010
0100
1000
0001
,
1000
0010
1000
0010
0000
0000
0100
0001
0100
0001
0000
1000
0010
1000
0010
0000
,
0100
0010
1000
0001
0000
0000
1000
0100
1000
0000
0010
0000
0100
0000
0001
1000
,
0010
1000
0010
0100
0000
0000
0010
0100
0001
0100
0000
0100
0010
1000
0001
0000
,
1000
0100
1000
0010
0000
0000
0100
0001
1000
0010
0000
1000
0010
0100
0001
0010
,
0100
1000
0100
0010
0000
0000
0100
0010
0001
0010
0000
0001
0010
0100
1000
0000
,
0001
0010
0100
1000
0000
0000
0001
0010
0100
1000
0000
0001
0010
0100
1000
0000
,
2002
0000
0000
0000
0000
0000
0000
3003
,
2010
0000
0000
0000
3010
1000
0000
0000
0000
0001
0010
0100
0020
0000
0130
1000
,
0002
0000
0000
1003
0001
0000
0100
0010
1000
0000
0100
0000
0010
0000
0001
0000
,
1000
0001
0010
0100
0010
0001
0100
0000
0010
1000
0001
1000
0100
0000
0010
0001
,
2000
0000
0000
0000
0000
0000
3001
0000
0100
0000
0000
0000
0010
0000
1000
0000
0001
0000
0000
0010
0000
0000
0100
0000
0000
1000
0000
0000
0010
0000
0100
0000
,
0002
0000
0000
0000
0000
0000
1003
0000
0100
0000
0000
0110
0000
0000
0010
0000
0000
0011
0000
0000
0001
0000
0000
0000
1000
0000
0001
0000
0010
0000
0100
0000
,
2000
0000
0000
0000
0000
0000
0000
0000
0000
3001
0000
0000
0010
0000
0000
0000
0000
0000
0001
0000
0000
0100
0000
0000
1000
0000
0000
0000
0000
0000
0100
0000
0010
0000
1000
0000
0001
0000
0000
0100
0000
0000
0010
0000
0000
1000
0000
0000
,
0200
0000
0300
0000
1100
0000
0000
0000
0100
0000
0000
0010
0000
0000
0001
0000
1000
0000
0010
0000
0100
0000
0001
0000
0020
0000
0000
0000
0230
0000
0000
0000
,
0310
0000
0000
0000
0001
0000
0100
0000
0010
0000
0000
1000
0000
0000
0001
0000
1001
0000
0000
0000
0001
0000
1000
0000
0020
0000
0000
0000
0130
0000
0001
0000
,
1000
0100
1000
0100
1000
0100
1000
0100
0000
0010
0100
0010
0100
0010
0100
0010
,
0000
0001
0010
0001
0010
0001
0010
0001
0000
1000
0001
1000
0001
1000
0001
1000
,
0000
0001
0100
0010
1000
0001
0100
0010
0000
0100
0010
1000
0001
0010
0100
1000
,
0000
0001
0010
0100
1000
0100
0010
0100
0000
0100
0010
0001
1001
0000
0101
0001
,
0100
0000
0000
0000
0001
0000
0000
0000
1000
0000
0000
0100
0000
0000
0010
0000
0100
0000
0000
0000
1000
0000
0000
0000
0001
0000
0000
1000
0000
0000
0010
0000
,
0100
0000
0000
0000
0001
0000
0000
0000
0001
0000
0000
0100
0000
0000
0010
0000
1000
0000
0000
0000
0010
0000
0000
0000
1000
0000
0000
0001
0000
0000
1000
0000
,
0000
0001
0000
0010
0000
0000
0100
0000
0000
1000
0000
0000
1000
0000
0100
0000
0000
0010
0000
0001
0000
0100
0000
0000
0010
0000
0000
1000
0000
0001
0100
0000
,
0000
0010
0000
0100
0000
0010
0000
1000
0000
0001
1000
0000
0100
0000
0010
0000
0001
0000
1000
0000
0100
0000
0010
0000
0002
0000
0000
0000
0000
0000
0000
0000
,
1003
0000
0000
0001
0100
0000
0000
0100
0010
0000
0000
0010
1000
0000
0001
0000
,
1000
0000
0000
0100
0010
0000
0000
0010
0001
0000
0000
0001
1000
0000
0100
0000
,
0010
0000
0000
0001
0010
0000
0000
0010
0100
0000
0000
0100
1000
0000
0010
0000
,
0100
0000
0000
0010
1000
0000
0000
0001
0100
0000
0000
0001
0010
0000
0100
0000
,
1000
0000
0000
0100
1000
0000
0000
1000
0010
0000
0000
0010
0100
0000
0001
0000
,
1000
0000
0000
0001
1000
0000
0000
1000
0010
0000
0000
0010
0100
0000
0001
0000
,
0010
0000
0000
0100
0010
0000
0000
0010
0001
0000
0000
0001
1000
0000
0010
0000
,
0100
0000
0000
0010
1000
0000
0000
0010
0100
0000
0000
0100
0001
0000
1000
0000
,
0020
0000
0000
0000
0130
0000
0000
0001
0000
0100
0000
0000
0010
0000
1000
0000
,
0001
0000
0000
0010
0000
0100
0000
0010
0000
0001
0000
0000
1000
0000
0010
0000
,
0001
0000
0000
0010
0000
0100
0000
1000
0000
0010
0000
0000
0100
0000
0001
0000
,
1000
0000
0000
0001
0100
0000
0000
0100
0010
0000
0000
0010
1000
0000
0000
0000
,
1001
0000
0001
1000
1010
0000
0010
0000
,
0100
0000
0001
0100
0110
0010
1000
1000
,
1001
0000
0001
1000
1010
0000
0010
0100
,
0001
0010
1000
0010
0100
1000
0010
0100
,
0001
0100
0010
1000
0000
0000
1000
0100
0010
0000
0000
0001
1000
0001
0000
0000
,
0001
0010
0100
0000
0000
0100
0010
0001
1000
0001
0100
0010
1000
0001
0010
1000
;

//---------------dance-single - ----------------
#NOTEDATA:;
#CHARTNAME:;
#STEPSTYPE:dance-single;
#DESCRIPTION:;
#CHARTSTYLE:;
#DIFFICULTY:Easy;
#METER:4;
#RADARVALUES:0.280507,0.338746,0.157785,0.175317,0.004383,224.000000,206.000000,18.000000,20.000000,0.000000,0.000000,0.000000,0.000000,0.000000,0.280507,0.338746,0.157785,0.175317,0.004383,224.000000,206.000000,18.000000,20.000000,0.000000,0.000000,0.000000,0.000000,0.000000;
#CREDIT:;
#NOTES:
0001
0000
0000
0001
0000
0000
0001
1000
,
0001
0000
0000
0100
0000
0000
0100
0010
,
1000
0000
0000
0001
0000
0000
0100
0000
,
0001
0000
0000
1000
1001
0001
1000
0100
,
1000
0010
0000
0100
0010
0000
0100
0001
,
1000
0001
0000
0001
0100
0000
0100
0010
,
1000
0010
0000
0100
0001
0000
1000
0001
,
0100
0001
0000
0010
0100
0000
0010
0001
,
2002
0000
0000
0000
0000
0000
0000
3003
,
0220
0000
0330
0000
0000
0100
0010
1000
,
0002
0000
0013
0001
0100
0001
1000
0100
,
2000
3200
0310
0001
0010
0001
0200
0302
,
2003
0000
3100
1000
0010
0100
0010
1000
,
2002
3003
1000
0001
0100
0001
2000
3200
,
2300
0000
3010
0100
0010
1000
0001
0010
,
0200
0000
0310
0001
1000
0001
0100
0001
,
0200
0000
0301
1000
1010
0000
0101
0000
,
1001
0001
0100
0001
,
1000
0100
1000
0001
,
0010
0001
1000
0010
,
0100
0000
0010
0000
1000
0000
0001
1000
,
1001
0110
1001
0110
,
0101
1100
0101
1100
,
1010
0010
0100
0001
,
1000
0001
0100
0010
1000
0100
0020
0000
,
0130
0010
0001
1000
,
0010
0100
0001
1000
,
0010
0100
0010
1000
,
0001
0000
0010
0000
0100
0000
0010
0001
,
0010
0001
0100
0001
,
1000
0100
1000
0010
,
0100
0010
1000
0010
,
0100
0010
1000
0001
,
1002
0000
0103
0000
0001
0000
0100
0001
,
0100
0000
0010
0000
1000
0000
0100
1000
,
0100
0000
1000
0000
0010
0000
0100
0010
,
0100
0000
0010
0000
1000
0000
0001
0100
,
0020
0000
0130
0000
,
0010
0000
0000
0000
1000
0000
0010
0100
,
0001
0000
0000
1000
1001
0000
0000
0000
,
0001
1000
0010
0100
,
0010
0000
0000
1000
0000
0000
0001
0000
,
0000
0000
0010
0000
0000
0000
0100
0000
0010
0000
0001
0000
1000
0000
0010
0100
;

//---------------dance-single - ----------------
#NOTEDATA:;
#CHARTNAME:;
#STEPSTYPE:dance-single;
#DESCRIPTION:;
#CHARTSTYLE:;
#DIFFICULTY:Beginner;
#METER:1;
#RADARVALUES:0.103938,0.150554,0.061361,0.017532,0.000000,83.000000,76.000000,7.000000,2.000000,0.000000,0.000000,0.000000,0.000000,0.000000,0.103938,0.150554,0.061361,0.017532,0.000000,83.000000,76.000000,7.000000,2.000000,0.000000,0.000000,0.000000,0.000000,0.000000;
#CREDIT:;
#NOTES:
0001
0000
0000
0000
,
1000
0000
0000
0000
,
0010
0000
0000
0000
,
0100
0000
1001
0000
,
0010
0000
0000
0000
,
0100
0000
0000
0000
,
0001
0000
1000
0000
,
0010
0000
0100
0000
,
1001
0000
0000
0000
,
0001
0100
0000
0010
,
0100
0000
0010
0000
,
1000
0001
0000
0000
,
0100
0000
0000
0000
,
0010
0100
0000
0000
,
0010
0000
0000
1000
,
0001
0000
0000
1000
,
0010
0000
0100
0010
,
1000
0000
0000
0001
,
0000
0000
0000
0100
,
0010
0000
0000
1000
,
0001
0000
0100
0000
,
1001
0000
0010
0000
,
1001
0000
0100
0000
,
1001
0000
0001
0000
,
1000
0001
0100
0010
,
1000
0000
0000
0000
,
0001
0000
0000
0100
,
0010
0000
0000
0000
,
1000
0000
0000
0001
,
0001
0000
0000
0000
,
0010
0000
0000
0000
,
0001
0000
0000
0000
,
1000
0000
0010
0000
,
0100
1001
0000
1000
,
0000
0001
0000
0001
,
0001
0000
1000
0000
,
0010
0000
0000
0000
,
0100
0000
0010
0000
,
0000
1000
1000
0000
,
0001
0000
0100
0000
,
0010
0000
1000
0001
,
0100
0000
0000
0000
,
0000
0000
0000
0000
0000
0000
0000
0000
2002
0000
0000
0000
0000
0000
0000
3003
;
