#TITLE:Programmed GAIA;
#SUBTITLE:;
#ARTIST:kors k feat.SH-01;
#TITLETRANSLIT:;
#SUBTITLETRANSLIT:;
#ARTISTTRANSLIT:;
#GENRE:;
#CREDIT:;
#BANNER:Programmed GAIA.png;
#BACKGROUND:Programmed GAIA-bg.png;
#LYRICSPATH:;
#CDTITLE:cdtitle.png;
#MUSIC:Programmed GAIA.ogg;
#OFFSET:-4.962999;
#SAMPLESTART:92.710129;
#SAMPLELENGTH:13.241379;
#SELECTABLE:YES;
#BPMS:0.000000=145.000000
;
#STOPS:144.000000=0.414000
;
#BGCHANGES:;
#KEYSOUNDS:;
#ATTACKS:;

//---------------dance-single - ----------------
#NOTES:
     dance-single:
     :
     Hard:
     9:
     0.520595,0.650744,0.070990,0.260298,0.465380,462.000000,453.000000,9.000000,33.000000,0.000000,0.000000,0.520595,0.650744,0.070990,0.260298,0.465380,462.000000,453.000000,9.000000,33.000000,0.000000,0.000000:
0000
0000
0000
0000
,
1000
0000
0001
0000
0100
0000
0000
0000
0010
0000
0000
1000
0000
0000
0001
0000
,
1000
0000
0010
0000
0100
0000
0000
0000
0001
0000
0000
1000
0000
0000
0001
0000
,
0400
0040
0000
0000
0000
0000
0000
0000
0000
0000
0000
0000
0000
0000
0000
0000
,
0000
0000
0000
0330
,
1001
0000
1000
0000
0100
0000
1000
0010
0000
0000
0100
0000
0001
0000
0100
0000
,
0010
0000
1000
0001
0010
1000
0010
0001
,
2000
0000
0000
0000
3010
0000
0010
0100
0000
0000
0001
0000
1000
0000
0001
0000
,
1000
0000
0000
1000
0000
0000
0001
0000
0010
0000
0001
0000
1000
0000
0100
0000
,
1000
0000
0000
0000
0001
0000
1000
0010
0000
0000
0100
0000
0001
0000
0010
0000
,
0001
0000
0010
0100
0010
0100
1000
0010
,
0100
0000
0000
0100
0000
0000
0001
0000
0000
0001
0000
0000
1000
0000
0000
1000
,
0100
0010
0100
1000
0010
0001
0010
0000
,
1001
0000
1000
0000
0001
0000
0010
0000
0001
0000
0000
0200
0000
0000
0310
0000
,
1000
0000
0010
0000
0100
0000
0010
0000
1000
0000
0000
0002
0000
0000
0013
0000
,
0100
0000
0000
1000
0000
0000
0010
0000
0100
0000
0000
0002
0000
0000
0013
0000
,
0001
0000
0000
0100
0000
0000
0010
0000
1000
0000
0010
2000
0000
0000
0000
0000
,
3100
0000
1000
0000
0001
0000
0100
0000
0010
0000
0000
2000
0000
0000
3001
0000
,
0010
0000
0001
0000
1000
0000
0010
0000
0100
0000
0000
0002
0000
0000
1003
0000
,
0100
0000
0000
0010
0000
0000
0001
0000
1000
0000
0000
0200
0000
0000
1300
0000
,
0001
0100
0001
0010
0000
0000
0100
1000
0200
0300
0002
0003
0200
0300
0020
0030
,
1001
1000
0001
0010
,
0001
1000
0100
0100
,
1000
0001
1000
0010
,
1000
0001
0100
0100
,
0002
0013
0200
1300
,
0020
0130
0002
0013
,
0200
0310
0002
0103
,
0020
1030
0200
0310
,
0001
0000
0000
0100
0000
0000
0010
0000
1000
0000
0000
0100
0000
0000
0001
0000
,
0100
0000
0000
0010
0000
0000
0001
0000
0100
0000
0000
1000
0000
0000
0100
0000
,
0010
0000
0000
1000
0000
0000
0100
0000
1000
0000
0000
0001
0000
0000
0010
0000
,
0001
0000
0000
0100
0000
0000
0010
0000
1000
0000
0000
0001
0000
0000
1000
0000
,
2100
0010
0010
3010
,
0102
0010
0010
0013
,
2100
3010
0102
0013
,
1001
0000
0000
0000
0100
0001
0010
0100
1000
0001
1000
0001
0010
0000
0000
0100
,
0000
0000
1000
0000
0001
0000
0000
0100
0000
0000
0010
0000
1000
0000
0000
0001
,
0000
0000
1000
0000
0100
0000
0000
1000
0000
0000
0010
0000
1000
0000
0000
0010
,
0000
0000
0100
0000
0001
0000
0000
0010
0000
0000
0100
0000
1000
0000
0000
0100
,
0000
0000
1000
0000
0010
0000
0000
0100
0000
0000
0001
0000
1000
0000
0000
0100
,
0000
0000
1000
0000
0010
0000
0000
0100
0000
0000
0001
0000
0010
0000
0000
0001
,
0000
0000
1000
0000
0100
0000
0000
1000
0000
0000
0001
0000
0100
0000
0000
0010
,
0000
0000
0100
0000
0001
0000
0000
0010
0000
0000
0001
0000
1000
0000
0000
0100
,
0000
0000
0010
0000
0000
0001
0000
1000
0000
0010
0100
0001
0100
0000
0001
0010
,
0000
0000
0100
0000
1000
0000
1000
0010
0000
0000
0100
0000
0001
0000
0001
0010
,
0000
0000
0100
0000
1000
0000
1000
0010
0000
0000
0100
0000
0100
0000
0001
1000
,
0000
0000
0010
0000
0010
0000
0100
0010
0000
0000
0100
0000
0001
0000
1000
0010
,
0000
0000
1000
0000
0100
0000
0100
0010
0000
0000
0010
0000
0001
0000
0001
0100
,
0000
0010
1000
0000
0100
0000
0010
0001
0000
0100
1000
0000
0001
0000
1000
0010
,
0000
0010
0100
0000
0001
0000
0100
0001
0000
0001
0010
0000
0100
0000
1000
0100
,
0000
0010
0001
0000
1000
0000
0001
0100
0000
0010
1000
0000
0001
0100
0001
1000
,
0100
1000
0010
0400
0004
0000
0000
0000
0000
0000
0003
0000
0301
0000
1000
0000
,
0100
0010
0000
0100
0000
0010
0000
0000
0001
0000
0100
0000
0001
0000
1000
0010
,
0000
1000
0000
0100
0000
0000
0010
0000
0100
0000
1000
0000
0001
0000
1000
0001
,
0000
0000
0100
0000
0001
0000
1000
0001
0000
0000
0010
0000
0001
0000
1000
0001
,
0000
0010
0000
0000
0100
0000
1000
0000
0100
0000
0001
0000
0100
0000
1000
0000
,
0001
1000
0000
0100
0000
1000
0000
0000
0001
0000
1000
0000
0010
0000
1000
0100
,
0000
1000
0000
0001
0000
0000
0010
0000
0001
0000
1000
0000
0010
0000
1000
0001
,
1000
0000
0100
0000
1000
0000
0001
1000
0001
0000
0010
0000
0100
0000
1000
0010
,
0000
1000
0000
0001
0000
0000
0100
0000
0010
0000
1000
0000
0001
0000
0010
0000
,
1000
0010
0000
0100
0000
2000
0000
0000
3010
0000
0001
0000
0010
0000
0100
0001
,
0000
1000
0000
0200
0000
0000
0310
0000
0100
0000
1000
0000
0001
0000
1000
0100
,
0000
0000
0010
0000
0001
0000
1000
0010
0000
0000
0100
0000
0001
0000
1000
0100
,
0000
1000
0000
0002
0000
0000
0013
0000
0001
0000
0100
0000
0010
0000
1000
0000
,
0100
0010
0000
0001
0000
0200
0000
0000
0310
0000
1000
0000
0001
0000
0100
0001
,
0000
1000
0000
0200
0000
0000
0310
0000
0001
0000
1000
0000
0010
0000
0100
0001
,
0100
0000
0010
0000
1000
0000
0100
0010
0100
0000
1000
0000
0002
0000
0000
0000
,
2003
3002
0200
0000
0000
0303
1010
0000
;

//---------------dance-single - ----------------
#NOTES:
     dance-single:
     :
     Medium:
     7:
     0.415800,0.488058,0.149868,0.220859,0.236634,369.000000,350.000000,19.000000,28.000000,0.000000,0.000000,0.415800,0.488058,0.149868,0.220859,0.236634,369.000000,350.000000,19.000000,28.000000,0.000000,0.000000:
0000
0000
0000
0000
,
0001
0010
0001
1000
,
0100
1000
0010
0100
,
0001
0100
0010
1000
0001
0100
0010
1000
,
0004
4000
0000
0000
0000
0000
0000
0000
0000
0000
0000
0000
3003
0000
0000
0000
,
1001
0000
0001
0000
0100
0000
0000
0010
0000
0000
0100
0000
0001
0000
1000
0000
,
0100
0000
1100
0000
1000
0010
1000
0001
,
0020
0000
0000
0000
0130
0000
0000
1000
0000
0000
0001
0000
0100
0000
0001
0000
,
0010
0000
1100
0000
0100
1000
0001
0100
,
0010
0000
1010
0000
1000
0001
0100
0001
,
0020
0000
0130
0000
0010
0001
1000
0010
,
0100
0000
0000
0100
0000
0000
0001
0000
0000
0001
0000
0000
1000
0000
0001
0000
,
0020
0000
0000
0030
,
1001
0000
1000
0000
0010
2000
0100
3000
,
0100
0000
1000
0000
0001
0200
0010
0300
,
0001
0000
0010
0000
0100
2000
0001
3000
,
0010
0000
0100
0000
0001
2000
0010
3000
,
0100
0000
0010
0000
0001
0020
1000
0030
,
0001
0000
1000
0000
0010
0200
0001
0300
,
0010
0000
1000
0000
0001
0020
1000
0030
,
0100
0000
0000
0010
0000
0000
0001
0000
1000
0000
0010
0000
0100
0000
0001
0000
,
0010
0010
0001
0001
,
1000
1000
0010
0010
,
0100
0100
0001
0001
,
1000
1000
0001
0001
,
2000
0000
3020
0000
,
0230
0000
0302
0000
,
0023
0000
2030
0000
,
3020
0000
0230
0000
,
2300
3001
0200
0301
,
0020
0031
2000
3100
,
2000
3010
0200
0301
,
0020
0031
0200
0310
,
1010
0011
1010
0011
,
1100
0101
1100
0101
,
1001
0110
1001
0110
,
1001
0000
0000
0000
1000
0000
0100
0000
0001
0000
0100
0000
1000
0000
0000
0010
,
0000
0000
1000
0000
0001
0000
0000
0000
0010
0000
0000
0000
0100
0000
0000
0010
,
0000
0000
0001
0000
1000
0000
0000
0000
0010
0000
1000
0000
0001
0000
0000
0010
,
0000
0000
0100
0000
0010
0000
0000
0000
0100
0000
0000
0000
1000
0000
0000
0001
,
0000
0000
0010
0000
0001
0000
0000
1000
0000
0000
0010
0000
0100
0000
0000
0001
,
0000
0000
0010
0000
0001
0000
0000
0000
1000
0000
0000
0000
0010
0000
0000
1000
,
0000
0000
0010
0000
0100
0000
0000
0000
0001
0000
0010
0000
0001
0000
0000
1000
,
0000
0000
0100
0000
1000
0000
0000
0000
0010
0000
0000
0000
0100
0000
0000
0001
,
0000
0000
0010
0000
0100
0000
0010
0000
0001
0000
1000
0000
0001
0000
0000
0100
,
0000
0000
0001
0000
1000
0000
0000
0000
0100
0000
0000
0000
0010
0000
0000
0100
,
0000
0000
1000
0000
0001
0000
0000
0000
0100
0000
0001
0000
1000
0000
0000
0100
,
0000
0000
0010
0000
0100
0000
0000
0000
0010
0000
0000
0000
0001
0000
0000
1000
,
0000
0000
0100
0000
1000
0000
0000
0001
0000
0000
0100
0000
0010
0000
0000
1000
,
0000
0000
0100
0000
1000
0000
0000
0000
0001
0000
0000
0000
0100
0000
0000
0001
,
0000
0000
0100
0000
0010
0000
0000
0000
1000
0000
0100
0000
1000
0000
0000
0001
,
0000
0010
0001
0000
0100
0010
1000
0100
,
0010
0001
4004
0000
0000
3003
0001
0100
,
0001
0000
0000
0010
0000
0001
0000
0000
1000
0000
0000
0000
0010
0000
0000
1000
,
0000
0010
0000
1000
0000
0000
0010
0000
0100
0000
0000
0000
0001
0000
0000
0010
,
0000
0000
0001
0000
1000
0000
0000
0100
0000
0000
0010
0000
0100
0000
0000
1000
,
0000
0010
0000
0100
0000
0000
0010
0000
0100
0000
0001
0000
0010
0000
0001
0000
,
1000
0000
0000
0010
0000
0100
0000
0000
0001
0000
0000
0000
1000
0000
0000
0100
,
0000
1000
0000
0001
0000
0000
0100
0000
0010
0000
1000
0000
0001
0000
0000
0010
,
0000
0000
0001
0000
1000
0000
0000
0100
0000
0000
0010
0000
0100
0000
0000
0010
,
0000
0001
0000
0100
0000
0000
0010
0000
1000
0000
0001
0000
1000
0000
0010
0000
,
1000
0000
0000
0100
0000
1000
0000
0000
0001
0000
0000
0000
0100
0000
0000
0001
,
0000
0100
0000
0001
0000
0000
0100
0000
0010
0000
0000
0000
1000
0000
0000
0100
,
0000
0000
1000
0000
0001
0000
0000
0010
0000
0000
0100
0000
0010
0000
0000
0001
,
0000
0100
0000
0010
0000
0000
0100
0000
0010
0000
1000
0000
0100
0000
1000
0000
,
0001
0000
0000
0100
0000
0010
0000
0000
1000
0000
0000
0000
0001
0000
0000
0010
,
0000
0001
0000
1000
0000
0000
0010
0000
0100
0000
0001
0000
1000
0000
0000
0100
,
0000
0000
1000
0000
0001
0000
0000
0010
0000
0000
0100
0000
0020
0000
0000
0000
,
0130
1000
0020
0000
0000
0000
0130
0000
;

//---------------dance-single - ----------------
#NOTES:
     dance-single:
     :
     Easy:
     4:
     0.269312,0.298258,0.023663,0.441717,0.000000,239.000000,236.000000,3.000000,56.000000,0.000000,0.000000,0.269312,0.298258,0.023663,0.441717,0.000000,239.000000,236.000000,3.000000,56.000000,0.000000,0.000000:
0000
0000
0000
0000
,
0002
1000
0000
1000
,
2003
0001
0000
0001
,
3200
0000
0000
0000
,
0000
0000
0000
0300
,
1001
0001
0010
0001
,
2000
3100
1000
0010
,
0102
0013
0001
1000
,
0200
0000
1300
0000
0010
0100
0010
0000
,
2000
3001
0010
0001
,
0200
0301
0010
0001
,
2000
3100
2000
3010
,
0200
0000
0000
0300
,
1001
0001
0010
0002
,
1003
0100
1000
0020
,
1030
0100
1000
0002
,
0103
0001
0010
0200
,
0310
0100
1000
0020
,
0130
0001
0010
0002
,
1003
0100
1000
0020
,
1030
0000
0010
0000
1000
0001
1000
0001
,
1000
0000
0001
0000
,
1000
0000
0010
0000
,
1000
0000
0100
0000
,
1000
0000
0010
0000
,
0100
0000
0001
0000
,
0010
0000
0001
0000
,
1000
0000
0100
0000
,
1000
0000
0010
0000
,
0200
0300
0002
0003
,
0020
0030
0002
0003
,
2000
3000
0200
0300
,
0020
0030
0200
0300
,
2000
0000
3200
0000
,
0320
0000
0032
0000
,
0203
0000
0320
0000
,
1030
0000
0001
0100
0010
1000
0001
0000
,
0010
0001
0010
0100
,
1000
0100
1000
0100
,
0010
0100
0010
0001
,
1000
0001
0010
0001
,
0100
0001
0100
0010
,
1000
0010
1000
0100
,
1000
0100
1000
0100
,
0010
0001
1000
0001
,
0100
0001
0010
0001
,
1000
0100
1000
0010
,
1000
0100
0010
0001
,
0100
0001
0010
0001
,
1000
0100
1000
0001
,
0100
0001
0010
0001
,
0010
0000
0100
0000
1000
0000
0001
0100
,
0010
1000
0020
0000
0000
0000
1030
0000
,
0100
2000
3010
0100
,
0001
0020
0031
0200
,
0301
0200
0310
0020
,
1030
0020
0130
0010
,
1000
0002
1003
0001
,
1000
0200
1300
0200
,
0310
0020
0031
0002
,
1003
2000
3010
1000
,
0010
0200
0301
0010
,
0001
2000
3100
0002
,
0103
0002
0013
0002
,
1003
2000
3001
0100
,
0001
0020
0130
0010
,
0001
2000
3010
0200
,
0310
0002
0103
0010
,
0100
0010
2000
0000
0000
0000
3001
0000
;

//---------------dance-single - ----------------
#NOTES:
     dance-single:
     :
     Beginner:
     1:
     0.101415,0.216915,0.078878,0.000000,0.000000,90.000000,80.000000,10.000000,0.000000,0.000000,0.000000,0.101415,0.216915,0.078878,0.000000,0.000000,90.000000,80.000000,10.000000,0.000000,0.000000,0.000000:
0000
0000
0000
0000
,
0000
0000
0000
0000
,
0000
0000
0000
0000
,
0000
0000
0000
0000
,
0000
0000
0000
0000
,
1001
0000
0000
0000
,
1000
0000
0000
0000
,
0010
0000
0000
0000
,
0100
0000
0000
0000
,
0001
0000
0000
0000
,
0010
0000
0000
0000
,
0001
0000
1000
0000
,
0010
0000
0000
0000
,
1001
0000
0000
0000
,
1000
0000
0000
0000
,
0010
0000
0010
0000
,
0100
0000
0000
0001
,
0001
0000
0000
0000
,
0010
0000
0000
0000
,
0001
0000
0000
0000
,
1001
0000
0010
0100
,
1001
0000
0000
0000
,
1000
0000
0000
0000
,
1000
0000
0000
0000
,
1000
0000
0000
0000
,
0001
0000
0000
0000
,
0001
0000
0000
0000
,
0001
0000
0000
0000
,
0001
0000
0000
0000
,
0100
0000
0000
0000
,
0100
0000
0000
0000
,
0100
0000
0000
0000
,
0100
0000
0000
0000
,
0010
0000
0010
0000
,
0010
0000
0010
0000
,
0010
0000
0010
0000
,
0010
0100
0000
1001
,
0000
0000
0000
0010
,
0000
0000
0000
1000
,
0000
0000
0000
0001
,
0000
1000
0000
0001
,
0000
0000
0000
0010
,
0000
0000
0000
0100
,
0000
0000
0000
0010
,
0000
0100
0000
1001
,
0000
0000
0000
1000
,
0000
0000
0000
0001
,
0000
0000
0000
0010
,
0000
0000
0000
0001
,
0000
0000
0000
1000
,
0000
0000
0000
0010
,
0000
0100
0000
0010
,
0010
1001
0000
0110
,
0000
0000
0000
0100
,
0000
0000
0000
0001
,
0000
0000
0000
1000
,
0000
0000
0000
0010
,
0000
0000
0000
1000
,
0000
0000
0000
0001
,
0000
0000
0000
0001
,
0000
0000
0000
1001
,
0000
0000
0000
0010
,
0000
0000
0000
0100
,
0000
0000
0000
0001
,
0000
0000
0000
0010
,
0000
0000
0000
0001
,
0000
0000
0000
1000
,
0000
0000
0000
0100
,
0000
1000
0000
1001
;

//---------------dance-single - ----------------
#NOTES:
     dance-single:
     :
     Challenge:
     10:
     0.693000,0.813430,0.165644,0.544258,0.918929,615.000000,594.000000,21.000000,69.000000,0.000000,0.000000,0.693000,0.813430,0.165644,0.544258,0.918929,615.000000,594.000000,21.000000,69.000000,0.000000,0.000000:
// measure 0
0000
0000
0000
0000
,  // measure 1
1000
0000
0001
0000
0010
0100
0000
0000
0010
0000
0001
0100
0000
0010
1000
0001
,  // measure 2
0010
0000
0100
0000
0010
0001
0000
0000
0100
0000
0010
1000
0000
1000
0010
0100
,  // measure 3
0004
0040
0000
0000
0000
0000
0000
0000
0000
0000
0000
0000
0000
0000
0000
0000
,  // measure 4
0000
0000
0000
0000
0000
0000
0000
0000
0000
0000
0000
0033
0100
0000
0010
0000
,  // measure 5
1001
0000
1000
0000
0001
0100
0001
1000
0000
0100
0010
0100
0010
0000
0001
0000
,  // measure 6
2000
0000
0000
0000
3010
1000
0001
0000
0001
0000
1000
0100
1000
0001
1000
0000
,  // measure 7
1020
0000
0000
0000
0130
0001
0100
0010
0000
0100
0010
0100
0010
0000
1000
0000
,  // measure 8
0200
0000
0310
0001
1000
0001
1000
0000
0001
0000
0100
0010
1000
0010
1000
0000
,  // measure 9
0100
0000
0000
0000
0010
0001
0010
0100
0000
0010
0001
1000
0001
0000
0100
0000
,  // measure 10
0020
0000
0000
0000
1030
0001
1000
0000
0100
0000
0010
0001
0010
0100
0010
0000
,  // measure 11
1001
0000
1000
0010
0000
0001
0010
0000
1000
0010
0000
0001
0010
0000
1000
0010
,  // measure 12
0100
0000
0001
0010
0001
1000
0100
0000
0100
0000
0010
0001
1000
0001
0100
0000
,  // measure 13
1001
0000
1000
0000
0001
0000
0010
0000
0100
1000
0001
0200
0000
0000
0310
0000
,  // measure 14
1000
0000
0001
0000
0010
0000
0001
0000
1000
0100
1000
0002
0000
0000
1003
0000
,  // measure 15
0010
0000
0100
0000
1000
0000
0100
0000
0010
1000
0001
0020
0000
0000
0130
0000
,  // measure 16
0010
0000
0001
0000
1000
0000
0010
0000
0100
0001
1000
0002
0000
0000
0000
0000
,  // measure 17
1003
0000
0001
0010
0000
0100
0010
0001
0100
0010
1000
0002
0000
0000
0013
0000
,  // measure 18
0100
0000
0010
0001
0000
0010
0001
0100
0010
1000
0001
2000
0000
0000
3100
0000
,  // measure 19
0010
0000
0100
1000
0000
0100
0010
0001
0100
0010
1000
0002
0000
0000
0013
0000
,  // measure 20
0001
0100
0001
0100
0000
0000
0010
1000
0002
0003
0020
0030
2000
3000
0200
0300
,  // measure 21
1002
0010
0100
0010
,  // measure 22
2003
0100
0010
0100
,  // measure 23
3002
0100
0010
0100
,  // measure 24
2003
0100
0010
0100
,  // measure 25
3002
0000
0000
1000
0000
0000
1003
0000
0200
0000
0000
0010
0000
0000
0310
0000
,  // measure 26
0002
0000
0000
0100
0000
0000
0103
0000
0020
0000
0000
1000
0000
0000
1030
0000
,  // measure 27
0200
0000
0000
0010
0000
0000
0310
0000
0002
0000
0000
1000
0000
0000
1003
0000
,  // measure 28
0020
0000
0000
0100
0000
0000
0130
0000
0002
0000
0000
0010
0000
0000
0013
0000
,  // measure 29
0021
0000
0000
0230
0000
0000
1300
0000
1020
0000
0000
0230
0000
0000
0301
0000
,  // measure 30
0201
0000
0000
0320
0000
0000
1030
0000
1200
0000
0000
0320
0000
0000
0031
0000
,  // measure 31
2100
0000
0000
3020
0000
0000
0130
0000
0201
0000
0000
0320
0000
0000
1030
0000
,  // measure 32
1002
0000
0000
0023
0000
0000
0031
0000
2100
0000
0000
3020
0000
0000
0130
0000
,  // measure 33
0201
0000
0000
0320
0000
0000
1030
0000
1200
0000
0000
0320
0000
0000
0031
0000
,  // measure 34
0202
0000
0000
0303
2020
0000
0000
3030
,  // measure 35
2200
0000
0000
3300
0022
0000
0000
0033
,  // measure 36
2002
3003
0000
0000
0000
0000
0000
0000
0000
0000
0000
0000
0000
0000
0000
0000
0000
0000
0000
0000
0000
0000
0000
0000
0000
0000
0000
0000
0000
0000
0000
0000
0000
0000
0000
0000
0000
0000
0000
0000
0000
0000
0000
0000
0000
0000
0000
0000
0001
0000
0000
0000
0000
0000
0000
0000
0000
0000
0000
0000
0100
0000
0000
0000
0000
0000
0000
0000
0000
0000
0000
0000
1000
0000
0000
0000
0000
0000
0000
0000
0000
0000
0000
0000
0100
0000
0000
0000
0000
0000
0000
0000
0000
0000
0000
0000
0010
0000
0000
0000
0000
0000
0000
0000
0000
0000
0000
0000
1000
0000
0000
0000
0000
0000
0000
0000
0000
0000
0000
0000
0001
0000
0000
0000
0000
0000
0000
0000
0000
0000
0000
0000
0010
0000
0000
0000
0000
0000
0000
0000
0000
0000
0000
0000
0100
0000
0000
0000
0000
0000
0000
0000
0000
0000
0000
0000
0000
0000
0000
0000
0000
0000
0000
0000
0000
0000
0000
0000
0010
0000
0000
0000
0000
0000
0000
0000
0000
0000
0000
0000
0001
0000
0000
0000
0000
0000
0000
0000
0000
0000
0000
0000
,  // measure 37
0000
0001
0100
0000
0010
0000
1000
0001
0000
0010
0100
0000
0010
0000
0001
1000
,  // measure 38
0000
1000
0001
0000
0100
0000
0010
1000
0000
0001
0010
0100
0010
0000
0001
1000
,  // measure 39
0000
0001
0010
0000
0001
0000
1000
0001
0000
1000
0010
0000
1000
0000
0100
0010
,  // measure 40
0000
0010
0001
0000
0100
0000
0010
1000
0000
1000
0010
0100
0001
0000
1000
0010
,  // measure 41
0000
0100
0001
1000
0010
0000
0100
0010
0000
0100
0001
0000
0010
0000
0100
0010
,  // measure 42
0000
0010
0001
0000
1000
0000
0001
0100
0000
0010
1000
0100
0010
0000
0001
1000
,  // measure 43
0000
1000
0010
0000
0100
0000
0001
0010
0000
0100
0010
0000
0001
0000
1000
0010
,  // measure 44
0000
0100
0001
0000
0000
1000
0000
0100
0000
0001
0100
0010
0001
0000
1000
0010
,  // measure 45
0000
0010
0100
0001
0010
0000
0100
1000
0000
0100
0010
0001
1000
0000
0001
0100
,  // measure 46
0000
0010
1000
0001
0010
0000
0100
0010
0000
0100
0010
0001
1000
0000
0001
0100
,  // measure 47
0000
0010
1000
0100
0010
0000
0100
1000
0000
0100
0010
0001
1000
0000
0010
0100
,  // measure 48
0000
0010
1000
0001
0000
0010
0000
0001
0000
1000
0100
0010
0001
0100
0010
1000
,  // measure 49
0000
0010
0100
0001
0010
0100
1000
0001
0000
1000
0010
1000
0010
0100
0001
0010
,  // measure 50
0000
0100
0010
0100
0010
0001
1000
0001
0000
0100
0010
1000
0001
0010
0001
0100
,  // measure 51
0000
0010
1000
0001
0010
0001
1000
0100
0000
0010
0001
0100
0002
0203
0320
2030
,  // measure 52
3200
0320
0230
2300
3040
0000
0000
0000
0000
0000
0000
0000
0130
0000
0001
0000
,  // measure 53
0010
0100
0000
1000
0000
0100
0000
0000
0010
0000
0100
0000
1000
0000
0001
0100
,  // measure 54
0000
0001
0000
1000
0000
0000
0100
0000
0010
0000
0100
0000
1000
0000
0010
0100
,  // measure 55
0000
0000
0001
0000
1000
0000
0100
0010
0000
0001
0000
1000
0010
0000
0100
0001
,  // measure 56
0000
0010
0000
0100
0010
0000
0001
0000
0010
0000
1000
0000
0010
0000
0100
0000
,  // measure 57
1000
0010
0000
0100
0000
0001
0000
0000
0010
0000
0100
0000
0010
0000
0001
1000
,  // measure 58
0000
0010
0000
0100
0000
0000
0010
0000
0100
0000
0001
0000
1000
0000
0100
1000
,  // measure 59
0001
0000
0100
0000
0001
0100
0001
0100
0000
0001
1000
0100
0010
0000
0010
0100
,  // measure 60
0000
0001
0000
0010
0001
0000
0010
0000
0100
1000
0010
0100
0001
0000
0100
0000
,  // measure 61
1000
0100
0000
0001
0000
0100
0000
0000
0010
0000
1000
0000
0100
0000
0001
0100
,  // measure 62
0000
0010
0000
0001
0000
0000
0010
0000
0100
0000
1000
0000
0010
0000
0001
0010
,  // measure 63
0000
0100
0000
1000
0100
0000
0001
0010
0000
1000
0000
0010
0100
0000
0100
0010
,  // measure 64
0000
0001
0000
1000
0010
0000
0100
0000
0010
1000
0001
0010
0100
0000
0010
0000
,  // measure 65
0001
0100
0000
1000
0000
0100
0000
0000
0010
0000
1000
0000
0001
0000
0010
0100
,  // measure 66
0000
0010
0000
0001
0000
0000
0100
0000
0001
0000
0010
0000
0100
0000
1000
0010
,  // measure 67
0100
0000
0001
0000
0010
0000
0100
0010
0001
0000
1000
0000
1020
0000
0000
0000
,  // measure 68
0230
0302
2000
0000
0000
0003
3100
0000
;
