#VERSION:0.83;
#TITLE:Princess Monomenoke;
#SUBTITLE:;
#ARTIST:Mochipet;
#TITLETRANSLIT:;
#SUBTITLETRANSLIT:;
#ARTISTTRANSLIT:;
#GENRE:;
#ORIGIN:;
#CREDIT:;
#BANNER:Princess Monomenoke.png;
#BACKGROUND:Princess Monomenoke-bg.png;
#PREVIEWVID:;
#JACKET:;
#CDIMAGE:;
#DISCIMAGE:056ae90961ec327494f9478a87752145.jpg;
#LYRICSPATH:;
#CDTITLE:;
#MUSIC:Princess Monomenoke.mp3;
#OFFSET:-0.035000;
#SAMPLESTART:81.628006;
#SAMPLELENGTH:19.199997;
#SELECTABLE:YES;
#BPMS:0.000=100.000,
28.000=50.000,
30.000=100.000,
94.000=50.000,
110.000=25.000,
112.000=100.000,
144.000=50.000,
144.250=100.000,
144.750=50.000,
145.000=100.000,
150.500=50.000,
151.000=100.000,
159.000=50.000,
159.250=100.000,
159.750=50.000,
160.000=100.000,
165.500=50.000,
166.000=100.000,
172.000=50.000,
173.000=25.600,
173.250=25.300,
174.000=25.000;
#STOPS:;
#DELAYS:;
#WARPS:;
#TIMESIGNATURES:0.000=4=4;
#TICKCOUNTS:0.000=4;
#COMBOS:0.000=1;
#SPEEDS:0.000=1.000=0.000=0;
#SCROLLS:0.000=1.000;
#FAKES:;
#LABELS:0.000=Song Start;
#BGCHANGES:;
#KEYSOUNDS:;
#ATTACKS:
;

//---------------dance-single - ----------------
#NOTEDATA:;
#CHARTNAME:;
#STEPSTYPE:dance-single;
#DESCRIPTION:;
#CHARTSTYLE:;
#DIFFICULTY:Hard;
#METER:11;
#RADARVALUES:0.673795,1.156075,0.287865,0.442870,1.243726,639.000000,600.000000,39.000000,60.000000,0.000000,0.000000,0.000000,0.000000,0.000000,0.673795,1.156075,0.287865,0.442870,1.243726,639.000000,600.000000,39.000000,60.000000,0.000000,0.000000,0.000000,0.000000,0.000000;
#CREDIT:;
#NOTES:
// measure 0
0000
0000
0000
0000
,  // measure 1
0000
0000
0000
0000
,  // measure 2
0000
0000
0000
0000
,  // measure 3
0000
0000
0000
0000
,  // measure 4
1000
0000
0001
0100
0000
0001
0010
0000
0001
1000
0000
0001
1000
0100
0010
0001
0000
0010
0000
0000
0001
0100
0000
0000
,  // measure 5
0010
0000
1000
0001
0000
1000
0010
0000
1000
0100
0000
1000
0001
0010
0100
1000
0000
0001
0000
0000
1000
0100
0000
0000
,  // measure 6
0010
0000
0001
0100
0000
0100
0010
0000
0010
1000
0000
1000
0001
0000
0001
0010
0000
0010
0000
0000
0100
1000
0000
1000
,  // measure 7
0001
0100
0010
1000
0001
0010
0001
0100
0010
1000
0001
0010
0001
1000
0100
0010
0100
1000
0010
0100
0001
0010
0100
1000
0001
0000
0000
0000
1000
0000
0010
0000
0000
0000
0010
0000
0100
0000
0000
0000
0100
0000
0001
0000
0000
0000
0001
0000
,  // measure 8
1000
0000
0001
0010
0000
0100
0000
0000
0010
0100
0000
0100
0010
0000
0001
0100
0000
0100
0010
0000
0010
1000
0001
1000
,  // measure 9
0100
0000
0010
0001
0000
1000
0000
0000
0001
1000
0000
1000
0010
0000
0010
0100
0000
0100
0001
0000
0001
0010
0000
0010
,  // measure 10
0100
0000
0010
0001
0000
1000
0000
0000
0001
0010
0000
0010
0100
0000
0010
0001
0000
0001
0100
0000
0100
0010
1000
0010
,  // measure 11
0100
0000
0010
1000
0000
0001
0000
1000
0100
0010
0001
0010
0100
0000
0010
0001
0000
0100
1000
0000
1000
0010
0000
0010
,  // measure 12
0100
0000
0010
1000
0000
0001
0000
0000
1000
0010
0000
0100
0001
0000
0010
1000
0000
0010
0100
0000
0100
0010
0001
1000
,  // measure 13
0100
0000
1000
0010
0000
0100
0000
0000
0010
0100
0000
0001
1000
0000
0100
0010
0000
0001
0100
0000
0010
1000
0000
0100
,  // measure 14
0010
0000
0001
0010
0000
0100
0000
0000
1000
0100
0000
0010
0001
0000
0001
0100
0000
0100
0010
0000
0100
0001
0000
0001
,  // measure 15
0010
0100
1000
0100
0010
0001
0010
0100
1000
0100
0010
0001
2000
0000
0000
0000
0000
3001
0200
0000
0000
0320
0000
0000
,  // measure 16
0000
0000
0000
0130
0000
0000
0001
0000
1000
0000
0000
0001
0020
0000
0000
0000
0000
0031
0100
0000
0000
0010
0000
0000
,  // measure 17
1010
0000
0000
0010
0000
0000
0110
0000
0000
0100
0000
0001
0201
0000
0000
0000
0000
0310
1000
0000
0000
0002
0000
0000
,  // measure 18
0000
0000
0000
1003
0000
0000
0100
0000
1000
0000
0000
0010
0200
0000
0000
0000
0000
0301
0010
0000
0000
0100
0000
0000
,  // measure 19
1100
0000
0000
0110
0000
0000
0011
0000
0000
0101
0000
0100
0002
0000
0000
0000
0000
1003
0020
0000
0000
0230
0000
0000
,  // measure 20
0000
0000
0000
0310
0000
0000
1000
0000
0001
0000
0000
1000
0200
0000
0000
0000
0000
1300
0010
0000
0000
0100
0000
0000
,  // measure 21
0101
0000
0000
0100
0000
0000
0110
0000
0000
0010
0000
1000
1020
0000
0000
0000
0000
0130
0001
0000
0000
2000
0000
0000
,  // measure 22
0000
0000
0000
3001
0000
0000
0010
0000
0001
0000
0000
0100
0020
0000
0000
0000
0000
1030
0100
0000
0000
0010
0000
0000
,  // measure 23
0001
0000
0010
0000
0100
0000
0010
0000
0001
0000
1000
0000
0010
0000
0100
0000
0001
0000
1000
0000
0100
0000
1000
0000
0001
0000
1000
0010
0000
0010
0100
0000
0100
0001
0000
0001
0010
0000
0010
0100
0000
0100
1000
0000
0001
1000
0000
1000
,  // measure 24
0001
0000
0001
0100
0000
0100
0010
0000
0010
1000
0000
1000
0100
0000
0100
0010
0000
0010
0001
0000
0001
1000
0000
0001
0000
0000
1000
0001
0000
0001
0100
0000
0100
0010
0000
0010
1000
0000
1000
0100
0000
0100
0010
0000
0001
0100
0000
0010
,  // measure 25
0000
0000
0100
0001
0000
0001
0010
0000
0010
0100
0000
0100
1000
0000
1000
0001
0000
0001
0100
0000
0100
0010
0000
0010
1000
0000
0001
0100
0000
0010
1000
0000
0001
0100
0000
0010
1000
0000
0001
0100
0000
0010
1000
0000
0001
0100
0000
0010
,  // measure 26
1000
0000
0001
0010
0000
0100
1000
0000
0001
0010
0000
0100
1000
0000
0001
0010
0000
0100
1000
0000
0001
0010
0000
0100
0000
0000
0010
0001
0000
0100
0010
0000
1000
0001
0000
0010
0100
0000
0010
0001
0000
1000
0010
0000
0100
0001
0000
1000
,  // measure 27
0000
0000
0000
0000
0000
0000
0000
0000
0001
0000
0000
0000
0100
0000
0000
0000
0000
0000
0000
0000
0010
0000
0000
0000
1000
0000
0000
0000
0000
0000
0000
0000
1000
0000
0000
0000
0100
0000
0000
0000
0000
0000
0000
0000
0010
0000
0000
0000
0001
0000
0000
0000
0000
0000
0000
0000
0001
0000
0000
0000
1000
0000
0000
0000
0000
0000
0000
0000
1000
0000
0000
0000
0010
0000
0000
0000
0000
0000
0000
0000
0010
0000
0000
0000
0100
0000
0000
0000
0000
0000
0000
0000
0100
0000
0000
0000
0010
0000
0000
0000
0000
0000
0000
0000
0000
0000
0000
0000
0010
0000
0000
0000
0000
0000
0000
0000
0000
0000
0000
0000
0010
0000
0000
0000
0000
0000
0000
0000
0000
0000
0000
0000
0010
0000
0000
0000
0000
0000
0000
0000
0000
0000
0000
0000
0110
0000
0000
0000
0000
0000
0000
0000
0000
0000
0101
0000
0000
0000
0000
0000
0011
0000
0000
0000
0000
0000
0010
0000
0100
0000
1000
0000
0010
0000
0100
0000
0001
0000
0010
0000
0001
0000
0100
0000
0010
0000
1000
0000
0100
0000
0010
0000
,  // measure 28
0002
0000
0000
0000
0000
1003
0020
0000
0000
0230
0000
0000
0301
0000
1000
0200
0000
0310
0002
0000
1003
0020
0000
0130
,  // measure 29
0002
0000
0000
0000
0000
1003
0200
0000
0000
0310
0000
0000
0011
0000
0000
1100
0000
0000
1001
0000
0000
0101
0000
0001
,  // measure 30
0020
0000
0000
0000
0000
0130
2000
0000
0000
3020
0000
0000
0000
0000
0130
0002
0000
0013
0200
0000
1300
0020
0000
0130
,  // measure 31
0002
0000
0000
0000
0000
0013
0200
0000
0000
1300
0000
0000
1100
0000
0000
1001
0000
0000
0101
0000
0000
1010
0000
0010
,  // measure 32
0120
0000
0000
0000
0000
0130
0002
0000
0000
2003
0000
0000
3010
0000
0100
0002
0000
1003
0020
0000
0130
0002
0000
0103
,  // measure 33
0020
0000
0000
0000
0000
0130
0002
0000
0000
1003
0000
0000
1010
0000
0000
0101
0000
0000
0011
0000
0000
0110
0000
0100
,  // measure 34
2000
0000
0000
0000
0000
3001
0200
0000
0000
0320
0000
0000
0030
0000
0100
0002
0000
1003
0200
0000
1300
0020
0000
0130
,  // measure 35
0002
0000
0000
0000
0000
1003
0020
0000
0000
0130
0000
0000
0001
0100
1000
0100
0001
1000
0010
0100
0001
0010
0100
1000
,  // measure 36
2001
0000
0000
3010
0000
0000
0000
0000
0000
1002
0000
0000
0023
0000
0000
0000
0000
0000
0030
0000
0000
0000
0100
0000
1000
0000
0000
0000
0100
0000
0010
0000
0000
0000
0001
0000
0000
0000
0000
0000
0010
0000
0100
0000
0000
0000
0000
0000
,  // measure 37
0000
0000
0000
0000
1000
0000
0010
0000
0000
0000
0000
0000
0100
0000
0000
0000
0000
0000
0001
0000
0000
0000
0000
0000
1000
0000
0000
0000
0000
0000
0001
1000
0010
0100
0001
1000
0001
0000
0000
0000
0000
0000
0000
0000
0000
0000
0010
0000
,  // measure 38
0002
0000
0000
0203
0000
0000
0000
0000
0310
1000
0000
0100
0001
0000
1000
0000
0000
0001
0020
0000
0000
0000
0000
0130
,  // measure 39
1000
0000
0000
0000
0000
0000
0010
0000
0000
0000
0000
0000
0110
0000
0000
0000
0000
0000
1001
0000
0000
0000
0000
0000
0011
0000
0000
0000
0000
0000
1001
0000
0000
0000
0001
0000
0201
0000
0000
0310
0000
0000
0000
0000
0000
2100
0000
0000
,  // measure 40
3001
0000
0000
0000
0000
1000
0001
0000
0001
1000
0000
0010
0000
0000
0010
0200
0000
0000
0000
0000
0310
1000
0000
0000
,  // measure 41
0100
0000
0000
0000
0000
0000
0010
0000
0000
0000
0000
0000
0100
0000
0000
0000
0000
0000
1000
0100
0010
0100
1000
0001
0100
0000
0000
0000
0000
0000
0000
0000
0000
0000
0010
0000
2000
0000
0000
0000
0000
0000
3002
0000
0000
0000
0000
0000
,  // measure 42
0000
0000
0103
0001
0000
0000
0010
0000
0001
0000
0000
1000
0020
0000
0000
0000
0000
0130
0001
0000
0000
1000
0000
0000
,  // measure 43
0001
0100
1000
0100
0001
0010
1000
0010
0100
1000
0010
0100
0000
0000
0000
0000
0000
0000
0000
0000
0000
0000
0000
0000
1001
0000
0000
0000
0000
0000
0000
0000
0000
0000
0000
0000
0101
0000
0000
0000
0000
0000
0000
0000
0000
0000
0000
0000
,  // measure 44
1010
0101
2002
0000
0000
0000
3003
0000
;

//---------------dance-single - ----------------
#NOTEDATA:;
#CHARTNAME:;
#STEPSTYPE:dance-single;
#DESCRIPTION:;
#CHARTSTYLE:;
#DIFFICULTY:Easy;
#METER:5;
#RADARVALUES:0.249905,0.363338,0.191910,0.125480,0.040596,237.000000,211.000000,26.000000,17.000000,0.000000,0.000000,0.000000,0.000000,0.000000,0.249905,0.363338,0.191910,0.125480,0.040596,237.000000,211.000000,26.000000,17.000000,0.000000,0.000000,0.000000,0.000000,0.000000;
#CREDIT:;
#NOTES:
0000
0000
0000
0000
,
0000
0000
0000
0000
,
0000
0000
0000
0000
,
0000
0000
0000
0000
,
1000
0000
0000
0000
,
0010
0000
0000
0000
,
0100
0000
0000
0000
,
0002
0000
0013
1100
,
1000
0010
0100
0000
0010
0000
1001
0000
,
0001
0010
0100
0010
0001
0000
0101
0000
,
0100
0001
0010
0000
0100
0000
1100
0000
,
0100
1000
0010
0100
0001
0000
1010
0000
,
1000
0001
0100
0000
0010
0000
1001
0000
,
1000
0001
0100
0001
0010
0000
1100
0000
,
0100
1000
0010
0000
0100
0000
0011
0000
,
0020
0000
0230
0000
1300
0000
0100
0010
,
0000
0100
0010
0000
0100
0000
1000
0001
,
0100
0001
0010
0001
1000
0000
0010
1000
,
0000
0010
1000
0000
0010
0000
0100
0010
,
1000
0001
0100
0001
1000
0000
0100
0010
,
0000
0100
0010
0000
0100
0000
1000
0100
,
0010
0100
1000
0001
1000
0000
0010
0100
,
0000
0010
0100
0000
0010
0000
1000
0010
,
0200
0302
1003
0000
,
0101
0000
1010
0000
,
1100
0110
0011
0000
,
1001
0000
1010
0000
,
0101
0000
0000
0000
0000
0000
0000
0000
1001
0000
0000
0000
0000
0000
0000
0000
0010
0000
0100
0000
0010
0000
0100
0000
0001
0000
0100
0000
0010
1000
0100
0010
,
0001
0000
0010
0100
0000
0100
1000
0000
,
0100
0000
1000
0010
0100
0001
1000
0100
,
0010
0000
0001
0010
0000
0010
0100
0000
,
0010
0000
0100
0010
0001
1000
0010
0100
,
0001
0000
1000
0010
0000
0010
1000
0000
,
0010
0000
0100
0010
1000
0100
1000
0001
,
0100
0000
0010
1000
0000
0001
0100
0000
,
0001
0000
0010
0100
2000
0000
3200
0000
,
0320
0031
0000
0200
0310
0000
0000
0000
0100
0000
0010
0000
0000
0000
0100
0000
,
0000
0001
0100
0010
1000
0200
0310
0000
,
0100
1000
0000
0100
0010
0000
0100
0000
,
0010
0000
0100
0000
1000
0000
0010
0000
0100
0000
0001
0000
2000
3010
0000
1000
,
0002
0003
0100
0001
0000
0010
0000
0100
,
0010
0001
1000
0020
0130
0000
0001
0100
,
0000
0100
0010
0000
0100
0000
0010
0100
,
0101
1100
2002
3003
0110
0000
0000
0000
0101
0000
0000
0000
1100
0000
0000
0000
,
1001
0110
2002
0000
0000
0000
3003
0000
;

//---------------dance-single - ----------------
#NOTEDATA:;
#CHARTNAME:;
#STEPSTYPE:dance-single;
#DESCRIPTION:;
#CHARTSTYLE:;
#DIFFICULTY:Medium;
#METER:8;
#RADARVALUES:0.431271,0.594553,0.073812,0.140242,0.524063,409.000000,399.000000,10.000000,19.000000,0.000000,0.000000,5.000000,0.000000,0.000000,0.431271,0.594553,0.073812,0.140242,0.524063,409.000000,399.000000,10.000000,19.000000,0.000000,0.000000,5.000000,0.000000,0.000000;
#CREDIT:;
#NOTES:
0000
0000
0000
0000
,
0000
0000
0000
0000
,
0000
0000
0000
0000
,
0000
0000
0000
0000
,
1000
0100
1000
0001
0200
0310
0100
0001
,
1000
0100
1000
0010
0200
0301
0010
1001
,
1000
0100
1000
0001
0100
0010
1000
0100
,
0040
0000
0000
0000
0031
0100
0001
1000
,
0100
0000
0010
0001
0000
1000
0000
0000
0010
1000
0000
1000
0001
0000
0000
0100
0000
0000
0010
0000
0000
2000
0000
0000
,
3100
0000
0010
0001
0000
0100
0000
0000
0010
0100
0000
0100
0010
0000
0000
0100
0000
0000
0001
0000
0000
1000
0000
0000
,
0100
0000
0010
0001
0000
0100
0000
0000
0010
1000
0000
1000
0001
0000
0000
0100
0000
0000
0001
0000
0000
0010
0000
0000
,
0100
0000
1000
0100
0000
1000
0020
0000
0000
0000
0000
0000
0130
0000
0000
0001
0000
0000
0010
0000
0000
0001
0000
0000
,
1000
0000
0001
0100
0000
0010
0000
0000
0100
0001
0000
0001
1000
0000
0000
0100
0000
0000
1000
0000
0000
0020
0000
0000
,
0130
0000
0001
0100
0000
0010
0000
0000
0100
0001
0000
0001
1000
0000
0000
0010
0000
0000
0100
0000
0000
0001
0000
0000
,
1000
0000
0100
1000
0000
0010
0000
0000
0100
0001
0000
0001
1000
0000
0000
0010
0000
0000
1000
0000
0000
0002
0000
0000
,
0023
0000
0000
0000
0000
0000
0230
0000
0000
0000
0000
0000
1300
0000
0000
0000
0000
0001
0100
0000
0000
0100
0000
0000
,
0000
0000
0000
0010
0000
0000
0100
0000
0001
0000
0000
1000
0100
0000
0000
0000
0000
0010
0100
0000
0000
0100
0000
0000
,
1000
0000
0000
0100
0000
0000
0010
0000
0000
0001
0000
1000
0010
0000
0000
0000
0000
0100
0010
0000
0000
0010
0000
0000
,
0000
0000
0100
0001
0000
0000
1000
0000
0001
0000
0000
0010
0001
0000
0000
0000
0000
0010
0100
0000
0000
0100
0000
0000
,
1000
0000
0000
0100
0000
0000
0010
0000
0000
0001
0000
1000
0001
0000
0000
0000
0000
1000
0010
0000
0000
0010
0000
0000
,
0000
0000
0000
0100
0000
0000
0010
0000
1000
0000
0000
0001
0010
0000
0000
0000
0000
0100
0010
0000
0000
0010
0000
0000
,
0001
0000
0000
0010
0000
0000
0100
0000
0000
1000
0000
0001
0100
0000
0000
0000
0000
0010
0100
0000
0000
0100
0000
0000
,
0000
0000
0010
1000
0000
0000
0001
0000
1000
0000
0000
0100
1000
0000
0000
0000
0000
0100
0010
0000
0000
0010
0000
0000
,
4004
0000
0000
0000
0000
0000
3003
0000
0001
0001
1000
1000
0001
0001
1000
1000
,
0010
0010
0100
0100
0010
0010
0100
0100
0001
0001
0100
0100
0010
0010
1000
1000
,
0100
0100
0010
0010
0001
0001
1000
1000
0001
0100
1000
0100
0001
0100
1000
0100
,
0001
0010
1000
0010
0001
0010
1000
0010
0001
0100
1000
0100
0001
0010
1000
0010
,
0001
0000
0100
0000
0010
0000
1000
0000
0001
0000
0010
0000
0100
0000
1000
0000
0001
0000
0001
0000
0001
0000
0001
0000
1000
0100
0010
0001
4004
0000
0000
3003
,
1001
0000
0000
0000
0000
0001
0010
0000
0000
0100
0000
0000
0000
0000
0010
0100
0000
0100
1000
0000
0001
0000
0000
1000
,
0010
0000
0000
0000
0000
0100
0001
0000
0000
0010
0000
0000
0001
0000
0000
1000
0000
0000
0100
0000
0000
0010
0000
0001
,
0100
0000
0000
0000
0000
0010
0100
0000
0000
0001
0000
0000
0000
0000
1000
0001
0000
0000
0001
0000
0100
0000
0000
0010
,
1000
0000
0000
0000
0000
0001
0010
0000
0000
0100
0000
0000
1000
0000
0000
0010
0000
0000
0100
0000
0000
0001
0000
1000
,
0001
0000
0000
0000
0000
1000
0100
0000
0000
0010
0000
0000
0000
0000
0100
0010
0000
0010
0001
0000
1000
0000
0000
0001
,
0100
0000
0000
0000
0000
0010
1000
0000
0000
0100
0000
0000
1000
0000
0000
0001
0000
0000
0010
0000
0000
0100
0000
1000
,
0010
0000
0000
0000
0000
0100
0010
0000
0000
1000
0000
0000
0000
0000
0001
1000
0000
0000
1000
0000
0010
0000
0000
0100
,
0001
0000
0000
0000
0000
1000
0100
0000
0000
0010
0000
0000
0001
0000
0001
0100
0000
0100
0010
1000
0010
1000
0001
1000
,
0002
0000
0000
0013
0000
0000
0000
0000
0000
0002
0000
0000
1003
0000
0000
0000
0000
0000
0000
0000
0000
0000
1000
0000
0001
0000
0000
0000
0001
0000
0100
0000
0000
0000
0001
0000
0000
0000
0000
0000
1000
0000
0010
0000
0000
0000
0000
0000
,
0000
0000
0010
0100
0000
0000
0001
0000
0000
0010
0000
0000
0100
0000
0000
2000
0000
0000
3010
0000
0000
0000
0000
0100
,
0001
0000
0000
0010
0000
0000
0000
0000
0100
1000
0000
1000
0001
0000
1000
0000
0000
0100
0010
0000
0000
0000
0000
0010
,
0100
0000
0000
0000
0000
0000
1000
0000
0000
0000
0000
0000
0010
0000
0000
0000
0000
0000
0100
0000
0000
0000
0000
0000
0001
0000
0000
0000
0000
0000
0010
0000
0000
0000
0100
0000
2000
0000
0000
3010
0000
0000
0000
0000
0000
2000
0000
0000
,
3001
0000
0000
0000
0000
1000
0001
0000
0001
0100
0000
0001
0000
0000
0001
0010
0000
0000
0000
0000
0100
0010
0000
0000
,
0001
0000
0000
0100
0000
0000
0010
0000
0000
0200
0000
0000
0301
0000
0000
0000
0000
1000
0100
0000
0000
0010
0000
0000
,
0000
0000
0010
0001
0000
0000
0001
0000
0100
0000
0000
0010
1000
0000
0000
0000
0000
0010
1000
0000
0000
0001
0000
0000
,
0020
0230
2000
3300
1001
0000
0000
0000
1010
0000
0000
0000
0101
0000
0000
0000
,
0011
1100
2002
0000
0000
0000
3003
0000
;

//---------------dance-single - ----------------
#NOTEDATA:;
#CHARTNAME:;
#STEPSTYPE:dance-single;
#DESCRIPTION:;
#CHARTSTYLE:;
#DIFFICULTY:Beginner;
#METER:2;
#RADARVALUES:0.104391,0.163308,0.029525,0.000000,0.000000,99.000000,95.000000,4.000000,0.000000,0.000000,0.000000,0.000000,0.000000,0.000000,0.104391,0.163308,0.029525,0.000000,0.000000,99.000000,95.000000,4.000000,0.000000,0.000000,0.000000,0.000000,0.000000,0.000000;
#CREDIT:;
#NOTES:
0000
0000
0000
0000
,
0000
0000
0000
0000
,
0000
0000
0000
0000
,
0000
0000
0000
0000
,
1000
0000
0000
0000
,
0010
0000
0000
0000
,
1000
0000
0000
0000
,
0001
0000
0100
0000
,
0100
0000
0010
0000
,
0010
0000
1000
0000
,
1000
0000
0001
0000
,
0001
0000
0100
0000
,
0010
0000
0100
0000
,
0010
0000
1000
0000
,
0001
0000
1000
0000
,
0010
0100
1001
0000
,
0000
1000
0001
0000
,
0100
0100
0100
0000
,
0000
0010
0010
0000
,
1000
0001
1001
0000
,
1000
0000
0010
0000
,
0100
0100
0010
0000
,
1000
0000
0001
0000
,
1000
0001
0100
0000
,
0010
0000
1000
0000
,
0001
1000
0001
0000
,
0100
0000
0010
0000
,
0100
0010
1000
0000
,
1001
0000
0000
1000
,
0001
0000
0100
0100
,
0010
0000
0000
1000
,
0001
0000
0010
0010
,
0100
0000
0000
1000
,
0001
0000
0100
0100
,
0010
0000
0000
1000
,
1000
0000
0001
1000
,
0010
0000
0000
0000
0000
0100
0000
0100
,
0000
0000
0000
0010
0000
0000
1000
0000
,
0000
0000
0001
1000
,
0000
0010
0010
0100
,
0000
0000
0000
0010
0000
0010
0000
0000
,
0000
1000
0000
0000
0001
0000
0000
0000
,
0000
1000
1000
0000
,
0010
0100
0010
1000
,
0001
1000
1001
0000
0000
0000
0000
0000
;
