#VERSION:0.83;
#TITLE:Pop It;
#SUBTITLE:;
#ARTIST:Anamanaguchi;
#TITLETRANSLIT:;
#SUBTITLETRANSLIT:;
#ARTISTTRANSLIT:;
#GENRE:;
#ORIGIN:;
#CREDIT:;
#BANNER:Pop It.png;
#BACKGROUND:Pop It-bg.png;
#PREVIEWVID:;
#JACKET:Pop It-jacket.png;
#CDIMAGE:;
#DISCIMAGE:;
#LYRICSPATH:;
#CDTITLE:cdtitle.png;
#MUSIC:Pop It.ogg;
#OFFSET:-4.333000;
#SAMPLESTART:8.488913;
#SAMPLELENGTH:10.434782;
#SELECTABLE:YES;
#BPMS:0.000=115.000,
168.000=118.000;
#STOPS:;
#DELAYS:;
#WARPS:;
#TIMESIGNATURES:0.000=4=4;
#TICKCOUNTS:0.000=4;
#COMBOS:0.000=1;
#SPEEDS:0.000=1.000=0.000=0;
#SCROLLS:0.000=1.000;
#FAKES:;
#LABELS:0.000=Song Start;
#BGCHANGES:;
#KEYSOUNDS:;
#ATTACKS:
;

//---------------dance-single - ----------------
#NOTEDATA:;
#CHARTNAME:;
#STEPSTYPE:dance-single;
#DESCRIPTION:;
#CHARTSTYLE:;
#DIFFICULTY:Hard;
#METER:7;
#RADARVALUES:0.403122,0.415880,0.060039,0.188695,0.265889,329.000000,322.000000,7.000000,22.000000,0.000000,0.000000,0.000000,0.000000,0.000000,0.403122,0.415880,0.060039,0.188695,0.265889,329.000000,322.000000,7.000000,22.000000,0.000000,0.000000,0.000000,0.000000,0.000000;
#CREDIT:;
#NOTES:
0000
0000
0000
0000
,
0000
0000
0000
0000
,
0010
0100
0000
0010
1000
0001
0100
0000
,
0010
0000
1000
0000
0100
0010
0001
1000
,
0010
0100
0000
0010
1000
1000
0100
0000
,
1000
0001
0100
0001
0010
0001
1000
0000
,
0200
0000
0000
0000
0300
0000
0010
0001
0000
0000
1000
0000
0000
0010
0000
0100
,
0000
0100
0000
0000
0010
0000
1000
0001
0000
0000
0020
0000
0000
0031
0000
0000
,
1000
0000
0000
0000
0000
0000
0010
2000
0000
0000
3001
0000
0000
0100
0000
0010
,
0000
0010
0000
0000
1000
0000
0000
0001
0000
0000
2000
0000
0000
3100
0000
0000
,
0010
0100
0000
0010
0001
1000
0001
0000
,
1000
0100
0001
0100
0010
0001
1000
0001
,
0010
0000
0100
0000
0000
0000
1000
0000
1000
0000
0001
0000
1000
0000
0000
0010
,
0000
0010
0000
0010
0100
0000
0001
0000
1000
0010
0000
1000
0000
0000
0001
0000
,
0010
0100
0000
1000
0100
1000
0001
0000
,
1000
0001
0100
0001
1000
0100
0010
0001
,
0010
0000
0100
0000
0000
0000
1000
0000
0010
0000
0100
0000
0001
0000
0000
1000
,
0000
0001
0000
1000
0001
0000
0100
0000
0001
0000
0010
0000
0001
0000
0000
0000
,
1000
0000
0000
0000
0101
0000
0001
0200
0000
0000
0010
0000
0000
0310
0000
0000
,
0100
0000
0000
0000
0001
0000
1000
0002
0000
0000
1000
0000
0000
1003
0000
0000
,
0001
0000
0000
0000
0010
0000
0100
2000
0000
0000
0010
0000
0000
3010
0000
1000
,
0000
1000
0000
0000
0001
0000
0000
2000
0000
3000
0002
0000
0003
0200
0000
0000
,
0310
1000
0000
0000
0001
0000
1000
0002
0000
0000
2003
0000
0000
3100
0000
0010
,
0000
0001
0000
0000
0100
0000
0010
2000
0000
0000
3002
0000
0000
0023
0000
0000
,
0130
0000
1000
0000
0001
1000
0010
0000
,
0100
0000
0001
0000
0000
0000
0001
0000
0000
0000
0001
0000
0000
0000
0001
0000
0000
0000
0001
0000
1000
0000
0001
0000
0020
0030
0000
0000
0000
0000
0000
0000
,
1001
1001
0000
0001
1000
0010
1000
0000
,
0001
0100
0001
1000
0100
0010
0100
1000
,
0010
0100
0000
0010
1000
0001
0100
0000
,
0001
0001
1000
0010
0001
0010
1000
0000
,
0110
0110
0000
0100
1000
0010
0100
0000
,
0010
1000
0001
0010
0001
1000
0010
0100
,
0001
0000
0010
0000
0000
0000
0100
0000
0100
0000
1000
0000
0100
0000
0000
1000
,
0000
0001
0000
1000
0001
0000
1000
0000
0010
0100
0000
0001
0000
0000
0000
0000
,
2000
0000
3100
0000
1000
0010
0100
0000
,
0002
0000
1003
0000
0001
0010
0100
1000
,
0100
0000
1100
0000
1000
0010
0100
0000
,
0001
0000
1010
0000
1000
0010
0100
0000
,
0001
0000
1000
0000
0100
1000
0010
0100
,
0001
0000
1000
0000
0100
1000
0020
0000
,
0130
0000
0001
0000
1000
0001
0010
0000
,
0001
0100
0001
1000
0100
0010
0001
1000
,
0100
0000
0000
1000
0000
0000
0100
0000
0000
1000
0000
0000
0010
0000
0100
0000
,
0001
0000
0000
0001
0000
0000
0100
0000
0000
0100
0000
0000
0010
0000
1000
0000
,
0001
0000
0000
0001
0000
0000
1000
0000
0000
1000
0000
0000
0010
0000
0100
0000
,
0001
0000
0000
0000
0001
0000
0000
1000
0000
0000
1000
0000
0000
0010
0000
0000
,
0100
0000
0000
0010
0000
0000
1000
0000
0000
0001
0000
0000
0010
0000
0100
0000
,
1000
0000
0000
0100
0000
0000
0001
0000
0000
0100
0000
0000
0010
0000
0001
0000
,
1000
0000
0000
1000
0000
0000
0001
0000
0000
0001
0000
0000
0100
0000
0010
0000
,
1000
0000
1000
0010
2000
0000
3001
0010
,
0200
1300
0100
1000
,
0010
0000
0100
0000
0001
1000
0001
0000
,
1000
0001
0100
0001
,
1000
0100
0010
0001
0020
0000
0000
0030
;

//---------------dance-single - ----------------
#NOTEDATA:;
#CHARTNAME:;
#STEPSTYPE:dance-single;
#DESCRIPTION:;
#CHARTSTYLE:;
#DIFFICULTY:Medium;
#METER:5;
#RADARVALUES:0.280593,0.300358,0.025731,0.068617,0.137233,229.000000,226.000000,3.000000,8.000000,0.000000,0.000000,0.000000,0.000000,0.000000,0.280593,0.300358,0.025731,0.068617,0.137233,229.000000,226.000000,3.000000,8.000000,0.000000,0.000000,0.000000,0.000000,0.000000;
#CREDIT:;
#NOTES:
0000
0000
0000
0000
,
0000
0000
0000
0000
0000
0000
0000
0000
0000
0000
0000
0000
2002
3003
0000
0000
,
0001
1000
0000
0000
0010
0000
1000
0000
,
0100
1000
0010
0100
,
0001
0100
0000
0000
0010
0000
0100
0000
,
0001
1000
0100
1000
,
0010
0000
0000
0000
0000
0000
0000
0100
0000
0000
0010
0000
0000
1000
0000
0000
,
0000
0000
0000
0000
0000
0000
0000
0001
0000
0000
0010
0000
0000
0100
0000
0000
,
1000
0000
0000
0000
0000
0000
0000
0100
0000
0000
1000
0000
0000
0010
0000
0000
,
0000
0000
0000
0000
0000
0000
0000
0100
0000
0000
0001
0000
0000
0100
0000
0000
,
0001
1000
0000
0000
0001
0000
0100
0000
,
0001
0010
0100
1000
,
0100
1000
0000
0000
0100
0000
1000
0000
,
0001
1000
0001
0000
1000
0000
0010
0000
,
0100
0001
0000
0000
0100
0000
0010
0000
,
1000
0100
1000
0010
,
0100
0001
0000
0000
0100
0000
0010
0000
,
1000
0100
1000
0010
,
0100
0000
0000
0000
0000
0000
0000
0001
0000
0000
0100
0000
0000
0010
0000
0000
,
0000
0000
0000
0000
0000
0000
0000
0000
1000
0000
0010
0000
0000
0100
0000
0000
,
0000
0000
0000
0000
0000
0000
0000
0010
0000
0000
0100
0000
0000
0001
0000
0000
,
0000
0000
0000
0000
0000
0000
0000
1000
0000
0000
1000
0000
0000
1000
0000
0000
,
0001
0000
0000
0000
1000
0000
0000
0010
0000
0000
0100
0000
0000
0001
0000
0000
,
0000
0000
0000
0000
1000
0000
0000
0100
0000
0000
1000
0000
0000
0010
0000
0000
,
0100
0000
0000
0000
0000
0000
0000
0000
0001
0000
1000
0000
0000
0010
0000
0000
,
0000
0000
0000
0000
0000
0000
0000
0000
0100
0000
0010
0000
0200
0300
0000
0000
,
0010
1000
0000
0010
0100
0000
0001
0000
,
1000
0000
0100
0000
1000
0010
0100
0000
,
0001
1000
0000
0001
0100
0000
0010
0000
,
1000
0010
0100
0001
0010
0100
1000
0000
,
0100
0100
0000
1000
0100
0000
1000
0000
,
0010
0000
0100
0000
0001
0100
0001
0000
,
1000
0100
0000
1000
0010
0010
0100
0000
,
0010
0000
0100
0000
0010
0100
0001
0000
,
1000
0001
0100
0001
,
1000
0100
1000
0010
,
0100
1001
0001
0100
,
0010
1001
0001
1000
,
0200
1300
0100
1000
,
0020
0130
0001
1000
,
0020
0130
0001
1000
,
0200
0310
0100
0010
,
0001
0000
0000
1000
0000
0000
0010
0000
0000
1000
0000
0000
0001
0000
0000
0000
,
0100
0000
0000
0001
0000
0000
1000
0000
0000
0100
0000
0000
0010
0000
0000
0000
,
0100
0000
0000
0100
0000
0000
1000
0000
0000
0010
0000
0000
0100
0000
0000
0000
,
0001
0000
0000
0100
0000
0000
0010
0000
0000
1000
0000
0000
0001
0000
0000
0000
,
1000
0000
0000
1000
0000
0000
0001
0000
0000
0001
0000
0000
0100
0000
0000
0000
,
0010
0000
0000
1000
0000
0000
0010
0000
0000
0100
0000
0000
0001
0000
0000
0000
,
1000
0100
1000
0010
,
0100
0000
0000
0000
0010
0000
1000
0001
,
0010
0000
0100
0000
1000
0100
1000
0100
,
1000
0000
0010
0000
0100
0100
0001
0000
,
0100
0000
0001
0000
1000
0001
1000
0000
,
0001
0000
0100
0010
2000
0000
0000
3000
;

//---------------dance-single - ----------------
#NOTEDATA:;
#CHARTNAME:;
#STEPSTYPE:dance-single;
#DESCRIPTION:;
#CHARTSTYLE:;
#DIFFICULTY:Easy;
#METER:3;
#RADARVALUES:0.173992,0.207940,0.042885,0.051462,0.000000,142.000000,137.000000,5.000000,6.000000,0.000000,0.000000,0.000000,0.000000,0.000000,0.173992,0.207940,0.042885,0.051462,0.000000,142.000000,137.000000,5.000000,6.000000,0.000000,0.000000,0.000000,0.000000,0.000000;
#CREDIT:;
#NOTES:
0000
0000
0000
0000
,
0000
0000
0000
0000
,
1001
0000
0001
0000
,
1000
0000
0010
0100
,
0001
0000
1000
0000
,
0100
0000
1000
0001
,
0100
0000
0020
0030
,
0000
0000
0200
0000
,
0300
0000
0002
0000
,
0003
0000
2000
0000
,
3001
0000
0100
0000
,
0001
1000
0100
0100
,
0010
0000
0100
0000
,
1000
0001
0100
0001
,
1001
0000
1000
0000
,
0010
0000
0100
0001
,
0100
0000
0010
0000
,
0100
0010
1000
0001
,
1001
0000
1000
0001
,
1000
0000
0010
0010
,
0010
0000
0100
0001
,
0100
0000
0010
0000
,
0100
0000
0001
0000
,
1000
0000
0001
1000
,
0100
0000
1000
0000
,
0010
0100
0001
1000
,
0001
0000
1000
0000
,
0010
1000
0010
0100
,
0001
0000
0001
0000
,
1000
0001
0010
0001
,
1001
0000
1000
0000
,
0100
1000
0010
0010
,
0110
0000
0100
0000
,
0001
0000
1000
0001
,
0100
0010
0000
0100
,
0000
0001
0000
1000
,
0000
0001
0000
0100
,
0000
0010
0000
1000
,
0001
1000
0000
0100
,
1000
0010
0000
0100
,
0000
0001
0000
1000
,
0001
0010
0100
1000
,
0001
0000
1000
0001
,
0100
0000
0010
0010
,
0100
0000
0001
1000
,
0100
0000
1000
1000
,
0001
0000
0100
0010
,
0100
0000
0001
1000
,
0100
0000
1000
0000
,
0001
0000
0100
0010
,
0200
0300
0010
0000
,
1000
0000
0001
1000
,
0100
0000
0010
0000
,
0001
0000
1000
0000
0020
0000
0000
0030
;

//---------------dance-single - ----------------
#NOTEDATA:;
#CHARTNAME:;
#STEPSTYPE:dance-single;
#DESCRIPTION:;
#CHARTSTYLE:;
#DIFFICULTY:Beginner;
#METER:1;
#RADARVALUES:0.098024,0.160606,0.034308,0.000000,0.000000,80.000000,76.000000,4.000000,0.000000,0.000000,0.000000,0.000000,0.000000,0.000000,0.098024,0.160606,0.034308,0.000000,0.000000,80.000000,76.000000,4.000000,0.000000,0.000000,0.000000,0.000000,0.000000,0.000000;
#CREDIT:;
#NOTES:
0000
0000
0000
0000
,
0000
0000
0000
0000
,
0001
0000
0000
0000
,
1000
0000
0001
0001
,
1000
0000
0000
0000
,
0010
0000
0100
0000
,
0010
0000
0000
0000
,
1000
0000
0000
0000
,
0001
0000
0000
0000
,
1000
0000
0000
0000
,
0010
0000
0000
0000
,
0100
0000
0010
0010
,
0010
0000
0000
0000
,
1000
0000
0001
0000
,
1001
0000
0000
0000
,
1000
0000
0001
0001
,
1000
0000
0010
0000
,
0100
0000
0000
0000
,
0010
0000
0000
0000
,
1000
0000
0000
0000
,
0001
0000
0000
0000
,
1000
0000
0000
0000
,
0100
0000
0000
0000
,
1000
0000
0000
0000
,
0010
0000
0000
0000
,
0100
0000
0000
0000
,
1001
0000
1000
0000
,
0001
0000
1000
1000
,
1000
0000
1000
0000
,
0001
0000
0001
0001
,
1001
0000
0010
0000
,
0100
0000
0010
0010
,
0100
0000
0010
0000
,
0100
0000
0100
0000
,
0010
0000
0000
0000
,
1000
0000
0000
0000
,
0001
0000
0000
0000
,
0010
0000
0000
0000
,
0001
0000
0000
0000
,
1000
0000
0000
0000
,
0010
0000
0000
0000
,
0100
0000
0000
0000
,
0010
0000
0000
0000
,
1000
0000
0000
0000
,
0001
0000
0000
0000
,
0010
0000
0001
0001
,
0001
0000
0000
0000
,
1000
0000
0000
0000
,
0010
0000
0000
0000
,
0100
0000
0010
0000
,
1001
0000
0000
0000
,
1000
0000
0000
0000
,
0001
0000
0000
0000
,
0100
0000
0010
0000
;

//---------------dance-single - ----------------
#NOTEDATA:;
#CHARTNAME:;
#STEPSTYPE:dance-single;
#DESCRIPTION:;
#CHARTSTYLE:;
#DIFFICULTY:Challenge;
#METER:10;
#RADARVALUES:0.746205,0.808656,0.360237,0.343083,1.196501,609.000000,567.000000,42.000000,40.000000,0.000000,0.000000,0.000000,0.000000,0.000000,0.746205,0.808656,0.360237,0.343083,1.196501,609.000000,567.000000,42.000000,40.000000,0.000000,0.000000,0.000000,0.000000,0.000000;
#CREDIT:;
#NOTES:
// measure 0
0000
0000
0000
0000
,  // measure 1
0000
0000
0000
0000
0000
0000
0000
0000
0000
0000
0000
0000
0000
0000
0000
0000
0000
0000
0000
0000
0000
0000
0000
0000
0000
0000
0000
0000
0000
0000
0000
0000
0000
0000
0000
0000
0000
0000
0000
0000
0000
0000
0000
0000
0000
0000
0000
0000
0000
0000
0000
0000
0000
0000
0000
0000
0000
0000
0000
0000
0000
0000
0000
0000
0000
0000
0000
0000
0000
0000
0000
0000
0000
0000
0000
0000
0000
0000
0000
0000
0000
0000
0000
0000
0000
0000
0000
0000
0000
0000
0000
0000
0000
0000
0000
0000
0000
0000
0000
0000
0000
0000
0000
0000
0000
0000
0000
0000
0000
0000
0000
0000
0000
0000
0000
0000
0000
0000
0000
0000
0000
0000
0000
0000
0000
0000
0000
0000
0000
0000
0000
0000
0000
0000
0000
0000
0000
0000
0000
0000
0000
0000
0000
0000
2002
0000
0000
0000
3000
0000
0003
0000
0000
0000
0000
0000
0000
0000
0000
0000
0000
0000
0000
0000
0000
0000
0000
0000
0000
0000
0000
0000
0000
0000
0000
0000
0000
0000
0000
0000
0000
0000
0000
0000
0000
0000
0000
0000
0000
0000
0000
0000
,  // measure 2
0101
0000
0100
0001
0000
0001
1000
0100
0010
0100
0000
0100
0010
0000
0001
1000
,  // measure 3
0000
0010
0000
0100
0001
0000
0010
0100
2000
0001
0000
0001
3000
0000
0010
0000
,  // measure 4
1001
0000
1100
0000
0000
0000
0100
1000
0010
0100
0000
0001
0000
0000
0000
0100
,  // measure 5
0000
0100
0000
0010
0100
0000
2010
0000
3100
0000
0021
0000
0130
0000
0000
0000
,  // measure 6
2002
0000
0000
0000
3003
0000
1000
0200
0000
0000
0320
0000
0030
0002
1003
0010
,  // measure 7
0000
0010
0000
0000
0100
0000
0010
2000
0000
0000
3200
0000
0000
2300
0000
0000
,  // measure 8
3001
0100
0010
0000
1001
0000
0001
0020
0000
0000
0032
0000
0000
0103
0010
1000
,  // measure 9
0000
1000
0000
0000
0011
0000
0001
0200
0000
0000
2300
0000
0000
3200
0000
0300
,  // measure 10
0110
0000
1001
0000
0000
0000
1000
0001
0010
0001
0000
0100
0000
0000
0000
0010
,  // measure 11
0000
1000
0000
0100
0010
0000
0100
1000
0010
0100
0000
0001
0000
0000
1000
0000
,  // measure 12
1010
0000
0101
0000
0000
0000
0001
0001
1000
0001
0000
0010
0000
0000
0000
0110
,  // measure 13
0000
0110
0000
0100
1000
0000
0100
0010
0001
0100
0000
1010
0000
0000
1000
0000
,  // measure 14
1100
0000
0011
0000
0000
0000
0010
0100
1000
0001
0000
0100
0000
0000
0010
1000
,  // measure 15
0000
0100
0000
0001
0100
0000
0010
0100
1000
0001
0000
1000
0000
0000
0010
0000
,  // measure 16
0101
0000
0011
0000
0000
0000
0001
0100
0001
1000
0000
0100
0000
0000
0000
0101
,  // measure 17
0000
1100
0000
1000
0010
0000
0210
0000
0301
0000
0102
0000
1003
0000
0000
0000
,  // measure 18
1200
0000
0000
0000
0310
0000
0001
0100
0000
0100
0010
0000
0010
1000
0000
1001
,  // measure 19
0000
0101
0000
0000
0011
0000
0001
0100
0000
0010
1000
0000
0100
0010
0000
0001
,  // measure 20
0000
1000
0000
0000
0001
0000
0100
0010
0000
0100
0001
0000
1000
0001
0000
0011
,  // measure 21
0000
1010
0000
0000
1100
0000
0000
2000
0000
3000
2000
0000
3000
2000
0000
3000
,  // measure 22
0001
1000
0100
0000
1001
0000
0001
0100
0000
0001
1000
0000
0001
0010
0200
0010
,  // measure 23
0000
0310
0000
0000
0100
0000
1000
0100
0000
0010
0001
0000
0001
0100
0000
0100
,  // measure 24
0010
1000
0100
0000
1001
0000
0001
0010
0000
0001
1000
0000
1000
0100
0010
0011
,  // measure 25
0000
0000
0000
1100
0000
0000
0000
0000
0000
0101
0000
0000
0000
0000
0000
1010
0000
0000
0000
0000
0000
0101
0000
0000
0000
0000
0000
0001
0000
0000
1000
0000
0000
0010
0000
0000
2000
3002
0003
0000
0000
0000
0000
0000
0000
0000
0000
0000
,  // measure 26
1000
0001
0100
0010
0100
0001
0010
0001
1000
0001
0010
0001
1000
0100
0010
0100
,  // measure 27
0010
0001
1000
0100
0010
0100
1000
0010
0100
0001
0010
0001
0100
0010
0100
0001
,  // measure 28
1000
0001
0100
0001
1000
0010
1000
0001
0010
0001
1000
0100
1000
0001
0100
0001
,  // measure 29
1000
0010
1000
0001
0010
0001
1000
0100
0010
0001
0100
0010
1000
0001
0010
0001
,  // measure 30
1000
0100
1000
0001
0100
0010
1000
0100
0010
0001
1000
0100
1000
0001
0100
0001
,  // measure 31
1000
0010
1000
0001
0010
0001
1000
0100
1000
0001
0100
0001
1000
0010
1000
0001
,  // measure 32
1000
0010
0100
0010
1000
0100
1000
0010
0100
0001
0010
0100
0010
0001
1000
0100
,  // measure 33
0010
0100
0010
0001
1000
0100
1000
0001
1000
0100
1000
0010
0100
0010
1000
0001
,  // measure 34
1000
0010
1000
0010
0200
0000
0000
0001
0000
0000
0301
0100
0010
1000
0100
0010
,  // measure 35
0000
0010
0000
0010
0001
0000
0100
0001
0000
0001
1000
0000
0001
0100
0001
1000
,  // measure 36
0100
1000
0010
0100
0002
0000
0013
0001
0000
0000
0001
0000
0001
0100
0001
1000
,  // measure 37
0100
1000
0000
1000
0020
1030
0001
0100
0000
0010
1000
0001
0010
0100
1000
0000
,  // measure 38
1000
0000
0000
0000
0000
0000
0000
0000
0100
0000
0000
0000
0000
0000
0000
0000
1000
0000
0000
0000
0000
0000
0000
0000
0010
0000
0000
0000
0000
0000
0000
0000
0100
0000
0000
0000
0000
0000
0000
0000
0001
0000
0000
0000
0000
0000
0000
0000
0100
0000
0000
0000
0000
0000
0000
0000
0000
0000
0000
0000
0000
0000
0000
0000
0010
0000
0000
0000
0000
0000
0000
0000
1000
0000
0000
0000
0000
0000
0000
0000
0000
0000
0000
0000
0000
0000
0000
0000
0100
0000
0000
0000
0000
0000
0000
0000
1000
0000
0000
0000
0000
0000
0000
0000
0100
0000
0000
0000
0000
0000
0000
0000
0000
0000
0100
0000
0000
0000
0000
0000
0000
0000
0000
0000
0000
0000
0000
0000
1000
0000
0000
0000
0000
0000
0000
0000
0100
0000
0000
0000
0000
0000
0000
0000
0000
0000
0000
0000
0000
0000
0000
0000
0000
0000
0000
0000
0000
0000
0000
0000
0000
0000
0000
0000
0000
0000
0000
0000
0100
0000
0000
0000
0000
0000
0000
0000
0000
0000
0000
0000
0010
0000
0000
0000
0000
0000
0000
0000
0000
0000
0000
0000
,  // measure 39
0000
0000
0000
0001
0000
0000
1000
0000
0000
0000
0000
0000
0001
0000
0000
0000
0000
0000
0010
0000
0000
0100
0000
0000
1000
0000
0000
0000
0000
0000
0001
0000
0000
1000
0000
0000
0020
0000
0230
0000
0302
0000
2003
0000
0002
0000
3003
0000
,  // measure 40
1000
0000
0000
0010
0000
0000
0100
0000
0000
0001
0000
0000
0010
0000
0000
0000
0000
0000
0100
0000
1000
0000
0010
0000
0100
0000
0000
0001
0000
0000
0100
0000
0000
0010
0000
0000
1000
0000
0000
0001
0000
0000
0010
0000
0000
0100
0000
0000
,  // measure 41
1000
0000
0000
0000
0000
0000
0000
0000
0000
0000
0000
0000
0001
0000
0000
0000
0000
0000
0000
0000
0000
0000
0000
0000
0100
0000
0000
0000
0000
0000
0000
0000
0000
0000
0000
0000
0001
0000
0000
0000
0000
0000
0000
0000
0000
0000
0000
0000
0010
0000
0000
0000
0000
0000
0000
0000
0100
0000
0000
0000
0000
0000
0000
0000
1000
0000
0000
0000
0000
0000
0000
0000
0010
0000
0000
0000
0000
0000
0000
0000
0100
0000
0000
0000
0000
0000
0000
0000
0001
0000
0000
0000
0000
0000
0000
0000
0010
0000
0000
0000
0000
0000
0000
0000
0000
0000
0000
0000
0000
0000
0000
0000
0100
0000
0000
0000
0000
0000
0000
0000
0000
0000
0000
0000
0000
0000
0000
0000
1000
0000
0000
0000
0000
0000
0000
0000
0000
0000
0000
0000
0000
0000
0000
0000
0020
0000
0000
0000
0000
0000
0000
0000
0000
0000
0000
0000
0000
0000
0000
0000
0000
0000
0000
0000
0000
0000
0000
0000
0000
0000
0000
0000
0000
0000
0000
0000
0000
0000
0000
0000
0000
0000
0000
0000
0000
0000
0030
0000
0000
0000
0000
0000
,  // measure 42
1001
0000
1000
0010
0000
0010
0100
0000
0100
0001
0000
0001
0010
0001
0100
0010
,  // measure 43
1000
0000
1000
0100
0000
0010
0001
0000
0001
0100
0000
0100
0010
1000
0100
1000
,  // measure 44
0010
0000
0010
0100
0000
0100
0001
0000
0001
0010
0000
0010
0001
0100
0010
1000
,  // measure 45
0100
0000
0000
0100
0010
0000
0001
2000
0010
3000
0020
0001
0030
0002
0010
0003
,  // measure 46
1000
0000
0001
0100
0000
0010
1000
0000
1000
0100
0000
1000
0010
0100
0001
0010
,  // measure 47
0100
0000
0010
0001
0000
0001
0100
0000
0100
0010
0000
0100
0001
0010
0001
1000
,  // measure 48
0100
1000
0000
0100
0001
0000
0001
0100
0000
0100
0010
0000
0010
0001
0000
0001
,  // measure 49
0010
0000
0000
0100
0001
0000
0001
0000
2000
0000
0000
0000
3100
0000
1000
0000
,  // measure 50
0001
0010
0100
1000
0100
0010
0001
0000
0000
0000
0000
0000
0100
0000
0000
0110
0000
0000
0010
0000
0000
0110
0000
0000
,  // measure 51
0100
0000
0000
0000
0001
0000
0000
0000
1000
0000
0001
0100
0001
0010
0000
0000
,  // measure 52
0100
0000
0000
0000
0000
0000
0000
0000
0000
1000
0000
0000
0000
0000
0000
0000
0000
0000
0010
0000
0000
0000
0000
0000
0000
0000
0000
0100
0000
0000
0000
0000
0000
0000
0000
0000
1001
0000
0000
0000
0000
0000
0000
0000
1000
0000
0001
0000
,  // measure 53
0100
0010
0000
0010
0100
0000
0010
0000
1000
0010
0000
0010
0100
0001
1000
0000
;
