#TITLE:Point of No Return;
#SUBTITLE:;
#ARTIST:Yousuke Yasui;
#TITLETRANSLIT:;
#SUBTITLETRANSLIT:;
#ARTISTTRANSLIT:;
#GENRE:;
#CREDIT:;
#BANNER:Point of No Return.png;
#BACKGROUND:Point of No Return-bg.png;
#LYRICSPATH:;
#CDTITLE:;
#MUSIC:Point of No Return.ogg;
#OFFSET:-0.043500;
#SAMPLESTART:20.903721;
#SAMPLELENGTH:12.000000;
#SELECTABLE:YES;
#BPMS:0.000000=138.000000
;
#STOPS:
;
#BGCHANGES:;
#KEYSOUNDS:;
#ATTACKS:;

//---------------dance-single - ----------------
#NOTES:
     dance-single:
     :
     Hard:
     7:
     0.394334,0.433648,0.300218,0.241842,0.216824,266.000000,36.000000,29.000000,0.000000,0.000000,0.000000,0.394334,0.433648,0.300218,0.241842,0.216824,266.000000,36.000000,29.000000,0.000000,0.000000,0.000000:
0000
0000
0000
0000
,
0000
0000
0000
0000
,
0000
0000
0000
0000
,
0000
0000
0000
0000
,
1010
0000
0000
0000
1000
0000
0000
0100
0000
0000
1000
0000
0010
0000
0000
0000
,
0100
0000
0000
0000
0010
0000
0000
0100
0000
0000
0001
0000
0010
0000
0000
0000
,
0110
0000
0000
0000
0100
0000
0000
0010
0000
0000
0001
0000
1000
0000
0000
0000
,
0101
0100
1010
1000
,
1001
0000
0000
0001
0001
1000
0100
0010
,
0110
0100
1100
1000
,
1001
0000
0000
0000
1000
0000
0000
0100
0000
0000
1000
0000
0010
0000
0100
0000
,
0010
0100
0010
1000
0100
0010
0001
1000
,
0001
0000
0000
0010
0000
0000
0200
0000
0000
0000
0000
0000
0000
0000
0000
0000
,
0000
0000
0300
1000
0001
0100
0001
0010
,
0100
0000
0000
1000
0000
0000
0020
0000
0000
0000
0000
0000
0000
0000
0000
0000
,
0000
0000
0000
0000
0030
0000
0100
0001
0010
0000
0000
0100
0000
0000
1000
0000
,
0100
0000
0000
0010
0000
0000
0002
0000
0000
0000
0000
0000
0000
0000
0000
0000
,
0000
0000
0000
0000
1003
0000
0100
0000
0001
0000
0000
0100
0000
0000
0010
0000
,
0002
0000
0000
0000
,
0003
1000
0100
0010
0001
0010
0100
0010
,
0001
0000
0000
1000
0000
0000
0200
0000
0000
0000
0000
0000
0000
0000
0000
0000
,
0000
0000
0300
1000
0010
0010
0100
0001
,
1000
0000
0000
0001
0000
0000
0020
0000
0000
0000
0000
0000
0000
0000
0000
0000
,
0000
0000
0000
0000
0030
0000
0100
1000
0010
0000
0000
0100
0000
0000
0001
0000
,
1000
0000
0000
0010
0000
0000
0200
0000
0000
0000
0000
0000
0000
0000
0000
0000
,
0000
0000
0301
1000
0010
0100
0001
0010
,
0100
1000
0020
0000
0000
0000
0000
0000
0000
0000
0000
0000
0000
0000
0000
0000
,
0030
0100
0001
0010
1000
0010
0001
0100
,
0010
0000
0000
1000
0000
0000
0100
0000
2000
0000
0000
0000
0000
0000
0000
0000
,
0000
3100
1000
0010
,
0100
0000
0000
0001
0000
0000
1000
0000
0100
0000
0000
1000
0000
0000
0010
0000
,
0200
0000
0000
0000
0000
0310
0100
0001
,
0010
0000
0000
0100
0000
0000
0010
0000
0002
0000
0000
0000
0000
0000
0000
0000
,
0000
1003
0100
0010
,
0100
0000
0000
1000
0000
0000
0010
0000
0100
0000
0000
0000
0001
0000
0000
0000
,
2000
0000
0000
3002
,
1003
0000
0000
0001
0000
0000
0100
0000
0020
0000
0000
0000
0000
0000
0000
0000
,
0000
0130
0010
1000
,
0010
0000
0000
0100
0000
0000
1000
0000
0100
0000
0000
0010
0000
0000
0100
0000
,
0002
0000
0000
0000
0003
1000
0100
0001
,
0100
0000
0000
1000
0000
0000
0010
0000
0200
0000
0000
0000
0000
0000
0000
0000
,
0000
0310
0100
0001
,
0001
0000
0000
1000
0000
0000
0010
0000
1000
0000
0000
0000
0001
0000
0000
0000
,
1001
0110
1001
0110
,
1002
0000
0000
0000
0000
0000
0000
0000
1003
0000
0000
0010
0000
0000
0100
0000
,
0102
0000
0000
0000
0000
0000
0000
0000
0103
0000
0000
0010
0000
0000
1000
0000
,
1010
0000
0000
0010
0000
0000
0100
0000
0110
0000
0000
0100
0000
0000
0001
0000
,
0101
0000
0000
0100
0000
0000
0001
0000
0000
0000
1000
0000
0010
0000
0100
0000
,
0002
0000
0000
0000
0000
0000
0003
0000
1000
0000
0000
0100
0000
0000
1000
0000
,
1020
0000
0000
0000
0000
0000
0030
0000
0100
0000
0000
0010
0000
0000
1000
0000
,
0001
0000
0000
0001
0000
0000
1000
0000
0001
0000
0000
0001
0000
0000
0100
0000
,
0010
0100
0002
0000
0000
0000
0000
0000
0000
0000
0000
0000
0003
0000
0000
0000
,
0201
0000
0000
0000
0000
0000
0300
0000
0010
0000
0000
1000
0000
0000
0001
0000
,
2001
0000
0000
0000
0000
0000
3000
0000
1100
0000
0000
0100
0000
0000
0010
0000
,
0011
0000
0000
0001
0000
0000
1000
0000
1001
0000
0000
0001
0000
0000
0100
0000
,
0110
0000
0000
0100
0000
0000
0001
0000
0000
0000
0010
0000
0100
0000
1000
0000
,
1002
0000
0000
0000
0000
0000
0003
0000
1000
0000
0000
0100
0000
0000
1000
0000
,
1020
0000
0000
0000
0000
0000
0030
0000
0100
0000
0000
0010
0000
0000
1000
0000
,
1001
0000
0000
0001
0000
0000
1000
0000
1010
0000
0000
0000
0101
0000
0000
0000
,
1001
0110
0101
1010
,
2002
0000
0000
0000
,
0000
0000
0000
0000
3003
0000
0001
0100
0001
0000
0000
0100
0000
0000
0001
0000
,
1001
0000
0000
0000
0000
0000
0000
1000
,
0001
1000
0000
0001
0000
0010
0000
0001
0000
0010
0000
0100
1000
0000
0001
0000
,
2002
0000
0000
0000
,
3003
0000
0000
0000
;

//---------------dance-single - ----------------
#NOTES:
     dance-single:
     :
     Medium:
     6:
     0.315705,0.426976,0.183466,0.183466,0.158448,221.000000,22.000000,22.000000,0.000000,0.000000,0.000000,0.315705,0.426976,0.183466,0.183466,0.158448,221.000000,22.000000,22.000000,0.000000,0.000000,0.000000:
0000
0000
0000
0000
,
0000
0000
0000
0000
,
0000
0000
0000
0000
,
0000
0000
0000
0000
,
1001
0001
0100
0001
,
1000
0100
1000
0100
,
0110
0100
1000
0010
,
0100
0001
0101
0001
,
1001
0000
0000
0000
,
0101
0000
1010
0000
,
1001
0000
0000
0000
,
0000
1000
0100
0010
0001
1000
0100
0010
,
0001
0000
0000
0010
0000
0000
0002
0000
0000
0000
0000
0000
0000
0000
0000
0000
,
0000
0000
0003
0001
1000
0000
0001
0000
,
1000
0000
0000
0100
0000
0000
0020
0000
0000
0000
0000
0000
0000
0000
0000
0000
,
0000
0000
0000
0000
0030
0000
0100
0000
0100
0000
0000
1000
0000
0000
0100
0000
,
1000
0000
0000
0010
0000
0000
0200
0000
0000
0000
0000
0000
0000
0000
0000
0000
,
0300
0000
0000
0000
0010
0000
0000
0000
0100
0000
0000
0010
0000
0000
1000
0000
,
0002
0000
0000
0000
,
0003
1000
0100
0010
,
0110
0000
0000
0100
0000
0000
2000
0000
0000
0000
0000
0000
0000
0000
0000
0000
,
0000
3000
0100
1000
,
0010
0000
0000
0100
0000
0000
0002
0000
0000
0000
0000
0000
0000
0000
0000
0000
,
0000
0000
0000
0000
0003
0000
0000
0000
1000
0000
0000
0001
0000
0000
0100
0000
,
0001
0000
0000
0010
0000
0000
0200
0000
0000
0000
0000
0000
0000
0000
0000
0000
,
0300
0000
0000
0000
0010
0000
0001
0000
0010
0000
0000
0100
0000
0000
1000
0000
,
0020
0000
0000
0000
,
0000
0130
0010
1000
,
0001
0000
0000
1000
0000
0000
0010
0000
2000
0000
0000
0000
0000
0000
0000
0000
,
0000
3010
0100
0001
,
1000
0000
0000
0100
0000
0000
0010
0000
0001
0000
0000
0010
0000
0000
0100
0000
,
2000
0000
0000
0000
0000
0000
0000
0000
0000
3000
0100
0000
1000
0000
0010
0000
,
0100
0000
0000
0010
0000
0000
1000
0000
0002
0000
0000
0000
0000
0000
0000
0000
,
0003
1000
0100
1000
,
0010
0000
0000
0100
0000
0000
0001
0000
1000
0000
0000
0000
0001
0000
0000
0000
,
0201
0000
0000
0310
,
1000
0000
0000
0010
0000
0000
0100
0000
0002
0000
0000
0000
0000
0000
0000
0000
,
0000
1003
0100
0010
,
0100
0000
0000
1000
0000
0000
0010
0000
0100
0000
0000
0001
0000
0000
1000
0000
,
0020
0000
0000
0000
0000
0130
0001
0010
,
0100
0000
0000
0010
0000
0000
0001
0000
2000
0000
0000
0000
0000
0000
0000
0000
,
3000
0001
0010
0100
,
0010
0000
0000
0001
0000
0000
0100
0000
0010
0000
0000
0000
1000
0000
0000
0000
,
0010
0110
0100
0110
,
1001
0000
0000
0000
0000
0000
0000
0000
0001
0000
0000
1000
0000
0000
0100
0000
,
1100
0000
0000
0000
0000
0000
0000
0000
0100
0000
0000
1000
0000
0000
0010
0000
,
0110
0000
0000
0100
0000
0000
0010
0000
0110
0000
0000
0100
0000
0000
0010
0000
,
0110
0000
0000
0100
0000
0000
0110
0000
0000
0000
0100
0000
0010
0000
1000
0000
,
1001
0000
0000
0000
0000
0000
0000
0000
0001
0000
0000
0001
0000
0000
0010
0000
,
0110
0000
0000
0000
0000
0000
0000
0000
0100
0000
0000
1000
0000
0000
0100
0000
,
1000
0000
0000
0010
0000
0000
0100
0000
0001
0000
0000
1000
0000
0000
0010
0000
,
0200
0000
0000
0300
,
2010
0000
0000
0000
3000
0000
0000
0000
0010
0000
0000
0100
0000
0000
0001
0000
,
2000
0000
0000
0000
0000
0000
0000
0000
3100
0000
0000
1000
0000
0000
0010
0000
,
0100
0000
0000
0100
0000
0000
0010
0000
0100
0000
0000
0100
0000
0000
0010
0000
,
1000
0000
0000
0001
0000
0000
0010
0000
0000
0000
0100
0000
0010
0000
0001
0000
,
2000
0000
0000
0000
3000
0000
0000
0000
0001
0000
0000
0100
0000
0000
0010
0000
,
2000
0000
0000
0000
3000
0000
0000
0000
0010
0000
0000
0010
0000
0000
0100
0000
,
0001
0000
0000
1000
0000
0000
0100
0000
0001
0000
0000
0000
0100
0000
0000
0000
,
0010
0001
1000
0010
,
2002
0000
0000
0000
,
0000
0000
0000
0000
3003
0000
0000
0000
0001
0000
0000
1000
0000
0000
0100
0000
,
1000
0000
0000
0000
,
1000
0000
0100
0000
0010
0000
0001
1000
,
1001
0000
0000
0000
;

//---------------dance-single - ----------------
#NOTES:
     dance-single:
     :
     Easy:
     3:
     0.248990,0.379442,0.275200,0.158448,0.000000,157.000000,33.000000,19.000000,0.000000,0.000000,0.000000,0.248990,0.379442,0.275200,0.158448,0.000000,157.000000,33.000000,19.000000,0.000000,0.000000,0.000000:
0000
0000
0000
0000
,
0000
0000
0000
0000
,
0000
0000
0000
0000
,
0000
0000
0000
0000
,
1001
0000
0000
0000
,
0000
0000
0000
0000
,
0101
0000
0000
0000
,
0000
0000
0011
0000
,
1001
0000
0000
0000
,
1100
0000
0110
0000
,
0011
0000
0000
0000
,
0000
0001
0010
0100
,
0010
0001
2000
0000
,
0000
3000
0001
0100
,
0001
0010
0200
0000
,
0000
0300
0010
0001
,
1000
0010
0200
0000
,
0300
0010
1000
0001
,
0200
0000
0000
0000
,
0000
0310
1000
0001
,
0010
0100
2000
0000
,
0000
3000
0100
1000
,
0010
0100
0020
0000
,
0000
0030
0100
0001
,
1000
0100
0020
0000
,
0030
0100
0010
0001
,
2000
0000
0000
0000
,
3000
0001
0010
0100
,
1000
0010
2000
0000
,
0000
3010
0100
0001
,
1000
0100
0001
0100
,
2000
0000
0000
3100
,
1000
0010
0200
0000
,
0000
0310
1000
0001
,
0100
0001
1000
0100
,
0020
0000
0000
0130
,
0010
0001
2000
0000
,
0000
3001
0100
0001
,
1000
0100
0010
0100
,
2000
0000
0000
3100
,
1000
0001
0020
0000
,
0000
0031
0100
0010
,
1000
0010
0100
0001
,
1000
0100
0010
0001
,
1001
0000
0001
1000
,
1001
0000
1000
0001
,
1001
0000
0101
0000
,
0001
0100
0010
0100
,
1001
0000
0001
1000
,
1001
0000
1000
0001
,
1001
0010
1001
0100
,
1001
0000
0000
0000
,
0101
0000
0001
1000
,
1100
0000
1000
0100
,
0110
0100
1100
1000
,
1001
0110
1001
0001
,
0101
0000
0001
1000
,
1010
0000
1000
0001
,
0011
0001
1001
1000
,
1100
0101
1010
0011
,
2002
0000
0000
0000
,
0000
0000
0000
0000
,
3003
0000
0000
0000
,
1000
0001
0100
0010
,
2002
0000
0000
0000
,
3003
0000
0000
0000
;

//---------------dance-single - ----------------
#NOTES:
     dance-single:
     :
     Challenge:
     9:
     0.781519,1.000000,0.675490,1.000000,0.421139,359.000000,81.000000,216.000000,0.000000,0.000000,0.000000,0.781519,1.000000,0.675490,1.000000,0.421139,359.000000,81.000000,216.000000,0.000000,0.000000,0.000000:
// measure 0
0000
0000
0000
0000
,  // measure 1
0000
0000
0000
0000
,  // measure 2
0000
0000
0000
0000
,  // measure 3
0000
0000
0000
0000
,  // measure 4
1000
0000
0010
0000
0100
0000
0001
0010
0000
0001
0010
0000
0100
0000
1000
0000
,  // measure 5
0001
0000
0010
0000
0001
0000
1000
0100
0000
1000
0100
0000
1000
0000
0001
0000
,  // measure 6
0100
0000
0010
0000
1000
0000
0010
0100
0000
0010
0100
0000
0001
0000
1000
0000
,  // measure 7
0100
0000
0000
1000
0000
0000
0001
0000
0000
0100
0000
0000
0010
0100
0000
0000
0000
0000
0001
0000
0000
0000
0000
0000
,  // measure 8
1000
0100
0000
0000
0000
0000
0000
0000
0000
0000
0000
0000
0000
0000
0000
0000
0000
0000
0100
0000
0000
0000
0000
0000
0010
0000
0000
0000
0000
0000
0010
0000
0000
0000
0000
0000
0100
0000
0000
0000
0000
0000
1000
0000
0000
0000
0000
0000
,  // measure 9
0001
1000
0000
0000
0000
0000
0000
0000
0000
0000
0000
0000
0000
0000
0000
0000
1010
0000
0000
0000
0000
0000
0000
0000
0000
0000
0000
0000
0000
0000
0000
0000
,  // measure 10
0001
1000
0001
0000
1000
0000
0000
0000
0100
0000
0000
0000
0010
0000
0001
0000
0000
0000
0010
0000
0100
0000
0000
0000
1000
0000
0000
0000
0010
0000
0000
0000
,  // measure 11
0100
0001
0010
0000
0110
0000
0100
1000
0000
0100
0000
0010
0001
0000
1000
0001
,  // measure 12
2000
0000
0000
0200
0000
3000
0020
0000
0000
0000
0000
0000
0000
0000
0000
0000
,  // measure 13
0000
0000
0000
0000
0000
0300
0200
0030
2000
0300
0200
3000
0002
0300
0200
0003
,  // measure 14
0020
0000
0300
0002
0000
0030
2000
0000
0000
0000
0000
0000
0000
0000
0000
0000
,  // measure 15
0000
0000
0000
0000
0000
0003
3002
0203
2000
0000
0300
0200
0000
3000
0020
0300
,  // measure 16
2000
0000
0030
0002
0000
3000
0020
0000
0000
0000
0000
0000
0000
0000
0000
0000
,  // measure 17
0000
0000
0000
0003
0200
0030
0020
0300
0002
0000
0030
2000
0000
0003
0020
3000
,  // measure 18
0200
0000
0000
0000
,  // measure 19
0030
0310
1000
0001
1000
0001
0010
0100
,  // measure 20
2000
0000
0000
0200
0000
3000
0002
0000
0000
0000
0000
0000
0000
0000
0000
0000
,  // measure 21
0000
0000
0000
0000
0000
0300
0200
0003
0020
0300
0002
0030
2000
0003
0002
3000
,  // measure 22
2000
0000
0003
0020
0000
3000
0002
0000
0000
0000
0000
0000
0000
0000
0000
0000
,  // measure 23
0000
0000
0000
0000
0000
0030
0023
0230
0002
0000
0300
2000
0000
0003
0002
3000
,  // measure 24
0020
0000
0003
0200
0000
0030
0020
0000
0000
0000
0000
0000
0000
0000
0000
0000
,  // measure 25
0000
0000
0000
0300
0230
0000
0020
0300
0002
0030
2000
0003
0020
3000
0200
0030
,  // measure 26
0302
2003
0020
0000
0000
0000
0000
0000
0000
0000
0000
0000
0000
0000
3030
0000
,  // measure 27
0100
0000
0001
0010
0100
1000
0100
0010
0100
1000
0010
0100
0001
0010
0001
1000
,  // measure 28
2020
0000
3030
0202
0000
0303
0020
0030
2002
0000
0000
0000
0000
0000
0000
0000
,  // measure 29
0000
0000
0000
3003
0202
0000
0000
0303
2020
0000
0000
3030
0202
0000
0000
0303
,  // measure 30
0022
0000
0033
0220
0000
0330
2100
0000
0200
0000
3000
0020
0000
0300
0002
0030
,  // measure 31
2000
0000
0000
0000
0000
0000
0000
0000
3003
0000
0002
0000
0023
0000
0230
0300
,  // measure 32
0220
0000
0330
0022
0000
0033
0200
0300
2200
0000
0000
0000
0000
0000
0000
0000
,  // measure 33
0000
0000
0000
3300
2002
0000
0000
3003
2020
0000
0000
3030
2200
0000
0000
3300
,  // measure 34
2020
0000
3030
0202
0000
0303
2020
3030
0202
0000
0000
0303
0022
0000
0000
0033
,  // measure 35
2002
0000
0000
0000
0000
0000
0000
0000
0000
0000
0000
3003
0202
0000
0000
0303
,  // measure 36
2002
0000
3003
2200
0000
3300
2020
3030
0202
0000
0000
0000
0000
0000
0000
0000
,  // measure 37
0000
0000
0000
0303
2020
0000
0000
3030
0022
0000
0000
0033
2002
0000
0000
3003
,  // measure 38
2200
0000
3300
0220
0000
0330
1200
0000
2300
0000
0000
0200
0000
3000
0020
0300
,  // measure 39
0002
0000
0000
0000
0000
0000
0000
0000
0033
0000
0002
0000
2000
0003
0020
3030
,  // measure 40
0220
0000
0330
2020
0000
3030
0002
0003
2002
0000
0000
0000
0000
0000
0000
0000
,  // measure 41
0000
0000
0000
3003
0202
0000
0000
0303
0220
0000
0000
0330
2020
0000
0000
3030
,  // measure 42
0220
0000
0330
0202
0000
0303
0022
0033
2200
0000
0000
3300
0202
0000
0000
0303
,  // measure 43
2002
0000
0000
3003
0220
0000
0000
0330
2002
0000
0000
3003
0220
0000
0000
0330
,  // measure 44
1001
0000
0001
0000
1000
0000
0010
1000
0000
0010
0000
0100
0010
0000
1000
0000
,  // measure 45
0001
0000
0010
0000
0100
0000
0010
0001
0000
1000
0000
0010
0100
0000
0001
0000
,  // measure 46
1000
0000
0100
0000
0010
0000
0001
0010
0000
0100
0000
1000
0100
0000
1000
0000
,  // measure 47
0010
0000
0100
0000
0001
0000
1000
0001
0000
0100
0000
0010
1000
0000
0001
0000
,  // measure 48
0010
0000
0100
0000
0010
0000
0001
0100
0000
0010
0000
1000
0010
0000
0100
0000
,  // measure 49
0001
0000
1000
0000
0100
0000
0001
0100
0000
1000
0000
0100
1000
0000
0001
0000
,  // measure 50
2002
0000
3003
0202
0000
0303
2020
3030
2200
0000
3300
0022
0000
0033
0220
0330
,  // measure 51
0002
2003
0020
3000
0130
0001
0010
0100
0010
0001
1000
0010
0100
0000
0010
0000
,  // measure 52
1001
0000
0001
0000
0100
0000
0010
1000
0000
1000
0000
1000
0010
0000
0100
0000
,  // measure 53
0010
0000
1000
0000
0001
0000
0010
0100
0000
0100
0000
0100
0010
0000
0001
0000
,  // measure 54
0022
0000
0033
2200
0000
3300
2002
3003
0202
0000
0303
2020
0000
3030
0202
0303
,  // measure 55
0220
0000
0330
2002
0000
3003
2200
0000
0000
3000
1300
0000
0100
0000
0010
0000
,  // measure 56
0001
0000
0100
0000
0010
0000
1000
0010
0000
0010
0000
0010
0100
0000
0001
0000
,  // measure 57
1000
0000
0001
0000
0100
0000
0010
0100
0000
0001
0000
1000
0001
0000
0010
0000
,  // measure 58
0220
0000
0000
0000
0000
0000
0000
0000
0330
0000
0000
0000
2002
0000
0000
0000
0000
0000
0000
0000
3003
0000
0000
0000
2020
0000
0000
0000
3030
0000
0000
0000
2002
0000
0000
0000
0000
0000
0000
0000
0000
0000
0000
0000
0000
0000
0000
3003
0202
0000
0000
0000
0000
0000
0000
0000
0000
0000
0000
0000
0000
0000
0000
0303
,  // measure 59
0022
0000
0000
0000
0000
0000
0000
0000
0000
0000
0000
0000
0000
0000
0000
0033
2200
0000
0000
0000
0000
0000
0000
0000
0000
0000
0000
0000
0000
0000
0000
3300
2020
0000
0000
0000
0000
0000
0000
0000
0000
0000
0000
0000
0000
0000
0000
3030
2002
0000
0000
0000
0000
0000
0000
0000
0000
0000
0000
0000
0000
0000
0000
3003
,  // measure 60
2002
0000
0000
0000
,  // measure 61
0000
0000
0000
0000
0000
0000
0000
0000
3003
0000
0000
0000
0001
0100
0001
0100
0001
0000
0000
0000
0000
0000
1000
0000
0000
0000
0000
0000
0100
0000
0000
0000
,  // measure 62
1100
0000
0000
0000
0000
0000
0000
0000
0000
0000
0000
0000
0000
0000
0000
0000
0000
0000
0000
0000
0000
0000
0000
0000
0000
0000
0000
0000
0001
1000
0001
1000
,  // measure 63
0001
1000
0000
1001
0000
1010
0000
0101
0000
1000
0001
0000
1010
0000
1000
0001
,  // measure 64
0020
0000
0000
0000
,  // measure 65
0000
0000
0000
0000
,  // measure 66
0030
0000
0000
0000
;

//---------------dance-single - ----------------
#NOTES:
     dance-single:
     :
     Beginner:
     1:
     0.108412,0.160116,0.016679,0.000000,0.000000,89.000000,2.000000,0.000000,0.000000,0.000000,0.000000,0.108412,0.160116,0.016679,0.000000,0.000000,89.000000,2.000000,0.000000,0.000000,0.000000,0.000000:
0000
0000
0000
0000
,
0000
0000
0000
0000
,
0000
0000
0000
0000
,
0000
0000
0000
0000
,
0010
0000
0000
0000
,
0000
0000
0000
0000
,
0100
0000
0000
0000
,
0000
0000
0001
0000
,
1000
0000
0000
0000
,
0010
0000
0100
0000
,
0001
0000
0000
0000
,
1000
0000
0000
0000
,
0001
0000
0000
0000
,
0000
0000
1000
0000
,
0001
0000
0000
0000
,
0000
0000
0010
0000
,
0100
0000
0000
0000
,
0000
0000
0010
0000
,
0001
0000
0000
0000
,
0000
0000
0000
0000
,
1000
0000
0000
0000
,
0000
0000
0100
0000
,
1000
0000
0000
0000
,
0000
0000
0100
0000
,
0010
0000
0000
0000
,
0000
0000
0001
0000
,
1000
0000
0000
0000
,
0010
0000
0100
0000
,
0001
0001
0001
0000
,
0000
0000
1000
0000
,
0010
0000
0100
0000
,
0010
0000
0000
0000
,
0100
0100
0100
0000
,
0000
0000
0001
0000
,
1000
0000
0100
0000
,
1000
0000
0000
0000
,
0010
0010
0010
0000
,
0000
0000
0100
0000
,
0001
0000
1000
0000
,
0100
0000
0000
0000
,
1000
1000
1000
0000
,
0000
0000
0010
0000
,
0100
0000
0001
0000
,
1000
1000
0001
0001
,
0010
0000
0100
0000
,
0010
0000
0001
0000
,
1000
0000
1000
0000
,
0001
0000
0000
0000
,
0100
0000
0000
0000
,
0010
0000
0000
0000
,
1000
0000
0001
0000
,
1001
0000
0000
0000
,
0010
0000
0100
0000
,
0001
0000
0100
0000
,
0010
0000
0010
0000
,
1000
0000
0001
0000
,
0010
0000
0100
0000
,
0100
0000
0010
0000
,
0010
0000
0001
0000
,
1000
0001
1000
0001
,
0010
0000
0000
0000
,
0000
0000
0100
0000
,
0000
0000
0000
0000
,
1000
0000
0000
0000
,
1001
0000
0000
0000
;
