#VERSION:0.82;
#TITLE:Plasma Storm 2013;
#SUBTITLE:;
#ARTIST:xRGTMx;
#TITLETRANSLIT:;
#SUBTITLETRANSLIT:;
#ARTISTTRANSLIT:;
#GENRE:;
#ORIGIN:;
#CREDIT:;
#BANNER:Plasma Storm 2013.png;
#BACKGROUND:Plasma Storm 2013-bg.png;
#PREVIEWVID:;
#JACKET:Plasma Storm 2013-jacket.png;
#CDIMAGE:;
#DISCIMAGE:;
#LYRICSPATH:;
#CDTITLE:;
#MUSIC:Plasma Storm 2013.ogg;
#OFFSET:-4.807000;
#SAMPLESTART:9.601000;
#SAMPLELENGTH:8.400002;
#SELECTABLE:YES;
#BPMS:0.000=200.000,
208.000=100.000,
248.000=200.000,
264.000=100.000,
272.000=200.000;
#STOPS:;
#DELAYS:;
#WARPS:;
#TIMESIGNATURES:0.000=4=4;
#TICKCOUNTS:0.000=4;
#COMBOS:0.000=1;
#SPEEDS:0.000=1.000=0.000=0;
#SCROLLS:0.000=1.000;
#FAKES:;
#LABELS:0.000=Song Start;
#BGCHANGES:;
#KEYSOUNDS:;
#ATTACKS:
;

//---------------dance-single - ----------------
#NOTEDATA:;
#CHARTNAME:;
#STEPSTYPE:dance-single;
#DESCRIPTION:;
#CHARTSTYLE:;
#DIFFICULTY:Hard;
#METER:11;
#RADARVALUES:0.721802,1.000000,0.208662,0.074522,0.253376,640.000000,28.000000,10.000000,0.000000,0.000000,0.000000,0.000000,0.000000,0.721802,1.000000,0.208662,0.074522,0.253376,640.000000,28.000000,10.000000,0.000000,0.000000,0.000000,0.000000,0.000000;
#CREDIT:;
#NOTES:
1000
0010
0000
0100
0001
0000
1001
0001
,
0001
0010
0000
0100
1000
0000
1001
1000
,
0002
0000
0000
0000
,
2003
0000
3020
0000
,
0130
0001
0010
0000
0001
0000
1000
0010
,
0100
0001
1000
0000
0001
0000
0010
0100
,
0010
0000
0001
0000
0100
0000
0010
1000
,
0001
0000
0010
0000
0100
0000
1000
0100
,
1000
0001
1000
0000
0010
0000
0100
0001
,
0100
0010
0100
0000
0010
0000
0100
0001
,
1000
0000
0100
0000
0001
0000
0001
0100
,
1000
0000
0010
0000
1000
0000
0001
0010
,
0100
1000
0001
0000
0100
0000
0100
0001
,
0100
0001
1000
0001
0010
0001
1000
0010
,
0100
0000
0001
0000
0010
0100
1000
0100
,
0002
0000
0000
0103
0000
0000
0010
0001
,
1000
0100
0010
0000
0000
0000
0100
0010
,
0001
1000
0010
0000
0000
0000
0100
0000
,
0010
1000
0001
0000
0010
0100
1000
0000
,
0001
0100
1000
0100
0001
1000
0010
1000
,
0001
0010
1000
0000
1000
0010
0001
0000
,
0001
0100
1000
0100
0001
0100
1000
0100
,
0010
1000
0001
0000
0010
0001
1000
0000
,
0001
1000
0010
1000
0001
0100
0001
1000
,
0010
0001
1000
0000
1000
0010
0001
0000
,
0001
0010
0100
0001
0010
1000
0010
0100
,
1000
0100
0001
0000
0001
0100
1000
0000
,
1000
0100
1000
0010
0100
0001
0010
0100
,
1000
0001
1000
0000
0001
0000
0100
0000
0000
0000
0010
0000
1000
0000
1000
0000
,
0001
0100
0001
0000
0010
0000
0100
0000
0000
0000
0010
0000
0000
0000
0010
0000
,
1000
0001
1000
0000
0001
0000
1000
0000
0000
0000
0100
0000
0000
0000
0010
0000
,
0001
1000
0001
0000
0100
0000
0001
0000
0000
0000
0001
1000
0001
1000
0001
1000
,
0010
0100
0010
0000
0100
0000
0001
0000
0000
0000
1000
0100
1000
0100
1000
0100
,
0010
0100
0010
0000
0001
0000
1000
0000
0000
0000
0001
0100
0001
0100
0001
0100
,
0001
1000
0001
1000
0001
0000
1000
0001
1000
0001
1000
0000
0001
1000
0001
1000
,
0001
0100
0001
0100
0010
0100
0010
0100
0010
1000
0010
1000
0001
1000
0001
1000
,
0100
0010
0001
0010
0001
0100
0010
1000
,
0001
1000
0100
1000
0010
0100
0001
0010
,
0100
0010
0001
0010
0100
1000
0010
0100
,
0001
1000
0100
1000
0100
0010
0001
1000
,
0010
1000
0100
0010
1000
0001
0100
0001
,
0010
0001
0100
0010
1000
0001
0010
0001
,
0100
0010
1000
0100
0010
0100
1000
0010
,
0100
0001
0010
0001
0100
0010
1000
0001
,
1000
1000
0001
0001
0100
1000
0100
0010
,
0100
0100
0001
0001
0010
1000
0010
0100
,
1000
1000
0100
0100
1000
0010
0001
0010
,
0100
0100
0010
0010
0100
0001
0100
1000
,
0100
0000
0010
0001
0000
0001
0100
0000
,
0010
0000
1000
0001
0000
0010
0100
0100
,
0010
0000
0001
0100
0000
0010
1000
0000
,
0001
0100
1000
0100
0001
0100
1000
0100
,
2002
3003
0001
0100
0001
0000
1000
0000
0100
0000
1000
0000
0001
0000
0010
0000
,
0100
0000
0100
0010
0001
0000
1000
0000
0100
0000
1000
0000
0001
0000
0100
0000
,
0001
0000
0001
1000
0010
0000
0100
0000
0010
0000
1000
0000
0100
0000
0010
0000
,
0100
1000
0100
0010
0100
0000
0010
0000
0001
0000
0010
0000
0100
0000
1000
0000
,
1001
0000
1000
0001
0100
0001
1000
0000
0100
0000
0010
0000
0100
0000
1000
0000
,
0001
0000
1000
0100
1000
0001
0100
0001
0100
0000
0001
0000
0100
0000
0001
0000
,
1000
0000
0100
1000
0010
0100
0001
0000
1000
0000
0010
0000
1000
0000
0001
0000
,
0100
0000
0010
0100
0001
1000
0001
0100
0010
0000
0100
0000
0001
0000
1000
0000
,
1001
0000
0001
1000
0010
0000
0100
0000
0010
0000
1000
0000
0001
0000
0100
0000
,
1001
0000
0001
1000
0010
0000
0100
0000
0010
0000
1000
0000
0001
0000
0100
0000
,
0001
0001
0100
0100
0010
0010
1000
1000
,
0001
0001
0010
0010
0100
0100
1000
1000
,
0001
0100
0001
0100
0001
0100
0001
0100
0001
0100
0001
0100
0001
0100
0001
0100
,
0001
0100
0001
0100
0001
0100
0001
0100
0001
0100
0001
0100
0001
0100
0001
0100
,
0020
0000
0000
0000
,
0000
0000
0000
0000
0000
0000
0000
0030
,
1001
0000
0001
0100
0010
0000
1000
0000
,
0001
0011
0100
1100
,
0100
0000
0010
0001
1000
0000
0001
0000
,
0100
0110
0100
0101
,
1001
0000
0001
0100
0010
0000
1000
0000
,
0001
0011
0010
0110
,
0100
0010
0100
0010
0001
0000
1000
0000
,
0010
1010
0010
0110
,
1001
0000
0001
1000
0010
0100
0001
0000
,
1000
1001
0001
0101
,
1100
0000
0100
0010
0001
1000
0010
1000
,
0001
1001
0001
0011
,
1010
0000
1000
0001
0010
0100
0010
0000
,
0100
1100
0100
0110
,
1001
0000
0001
0100
0001
0010
0100
1000
,
0001
0100
0010
1000
,
1002
1000
1000
1000
,
1000
1000
1000
1003
,
0001
0100
0001
1000
,
0010
1000
0010
0100
,
0001
0000
1000
0010
0000
0100
0000
0001
,
0010
0000
0100
1000
0000
0100
0000
1000
,
0001
0100
0010
1000
0001
0010
0100
1000
,
0001
1000
0001
1000
0001
1000
0001
1000
0001
1000
0001
1000
0001
0000
0000
0000
,
2002
0000
0000
0000
,
3003
0000
0000
0000
;

//---------------dance-single - ----------------
#NOTEDATA:;
#CHARTNAME:;
#STEPSTYPE:dance-single;
#DESCRIPTION:;
#CHARTSTYLE:;
#DIFFICULTY:Medium;
#METER:8;
#RADARVALUES:0.551465,0.623752,0.089427,0.111783,0.059618,491.000000,12.000000,15.000000,0.000000,0.000000,0.000000,0.000000,0.000000,0.551465,0.623752,0.089427,0.111783,0.059618,491.000000,12.000000,15.000000,0.000000,0.000000,0.000000,0.000000,0.000000;
#CREDIT:;
#NOTES:
1000
0001
0000
0001
1000
0000
0001
1000
,
0100
0010
0000
0010
0100
0000
0010
0100
,
2000
0000
0000
0000
,
3002
0000
0023
0000
,
0130
1000
0010
0000
0100
0000
0001
0100
,
0010
0000
1000
0000
0001
0000
0010
0100
,
1000
0000
0010
0000
0100
0000
0001
0010
,
0001
0000
0100
0000
0010
0000
1000
0001
,
0100
0001
0010
0000
0100
0000
1000
0010
,
0100
0000
0100
0000
0001
0000
1000
0001
,
0010
0000
0100
0000
1000
0000
0001
1000
,
0010
0000
0100
0000
0001
0000
1000
0001
,
0010
0001
1000
0000
0010
0000
0100
0001
,
0010
0000
1000
0000
0010
0000
0001
1000
,
0010
0000
0100
0000
0001
0000
0010
0001
,
2000
0000
0000
3010
0000
0000
0100
0010
,
1000
0001
1000
0000
0000
0000
0010
0100
,
0001
1000
0001
0000
0000
0000
0001
0000
,
1000
0001
0100
0000
0001
1000
0100
0000
,
1000
0010
0100
0001
0010
0100
1000
0001
,
0100
0000
0001
0000
0100
0001
0100
0000
,
0010
0000
1000
0000
0010
1000
0010
0000
,
0100
0000
0001
0000
1000
0001
1000
0000
,
0001
0000
0100
0000
0010
1000
0010
0000
,
1002
0000
2000
3003
,
0001
0000
0100
0000
0010
1000
0010
0000
,
0100
0000
0001
0000
1000
0100
1000
0000
,
0100
0000
1000
0000
0010
0100
0010
0000
,
0100
0000
0010
1000
0000
0010
0000
0100
,
0001
0000
1000
0100
0000
1000
0000
0010
,
0100
0000
0001
1000
0000
0100
0000
1000
,
0010
0000
0100
0001
0000
1000
0001
0100
,
0001
1000
0010
1000
0000
0001
0000
1000
,
0010
0100
0001
1000
0000
0010
1000
0001
,
0100
0001
0100
0000
0010
0100
0010
0000
,
0100
0010
1000
0001
0100
0010
1000
0001
,
1000
0000
1100
0000
0100
0010
0001
0000
,
0010
0000
0011
0000
0001
0100
0010
0000
,
1000
0000
1001
0000
0001
0100
0010
0000
,
1000
0000
1100
0000
0100
0010
0001
0000
,
0012
0000
0020
0033
,
0001
0010
0100
0000
1000
0000
1100
0000
,
1000
0010
0100
0000
0001
0000
1001
0000
,
0001
0100
0010
0000
1000
0000
0001
0000
,
1000
0010
1000
0010
1000
0010
1000
0000
,
0001
0010
0001
0010
0001
0010
0001
0000
,
0100
0001
0100
0001
0100
0001
0100
0000
,
0010
0100
0010
0100
0001
1000
0001
1000
,
0001
0000
0010
0001
0000
0010
0000
0100
,
1000
0000
1000
0010
0000
0010
0100
0010
,
1000
0000
0010
0100
0000
0001
0000
1000
,
0100
0010
0001
0010
0100
0010
0001
1000
,
0002
0000
0103
0000
0010
1000
0010
0100
,
0001
0000
0010
0000
0100
0010
0001
0010
,
0100
0000
1000
0000
0100
1000
0010
0100
,
0001
0000
0010
0000
0100
1000
0100
0001
,
0100
0000
0000
1000
0100
0000
0000
1000
0000
0001
0100
0000
0010
0000
1000
0000
,
0100
0000
0000
0010
0001
0000
0000
0100
0000
0010
1000
0000
0001
0000
1000
0001
,
0100
0000
0000
0010
0100
0000
0000
0010
0000
1000
0001
0000
0010
0000
0100
0000
,
0010
0000
0000
0001
0100
0000
0000
0010
0000
1000
0000
0001
0010
0000
0001
0000
,
1000
0000
0001
0100
0010
0000
1000
0000
0100
0000
0001
0000
0100
0000
1000
0000
,
0001
0000
1000
0001
0100
0000
0001
0000
1000
0000
0100
0000
0001
0000
0100
0000
,
1000
0001
1000
0001
0100
0001
0100
0001
,
0100
0010
0100
0010
1000
0010
1000
0010
,
1000
0100
0010
0001
1000
0100
0010
0001
,
1000
0010
0100
0001
1000
0010
0100
0001
,
2002
0000
0000
0000
,
0000
3000
0000
0000
0003
0000
0000
0000
,
1001
0000
0001
0100
0001
0000
0100
0000
,
0010
1000
0010
0100
,
0001
0000
1000
0001
0100
0000
0001
0000
,
1000
0010
1000
0001
,
0010
0000
0100
1000
0010
0000
0100
0000
,
0001
1000
0100
1000
,
0010
1000
0010
0100
0001
0000
1000
0000
,
0001
0100
0010
1000
,
0001
0000
0100
0010
0100
0001
0100
0000
,
0010
1000
0100
1000
,
0010
0000
0100
0001
0100
0010
1000
0001
,
1000
0100
1000
0010
,
0100
0000
0001
0100
0001
0100
0010
0000
,
1000
0010
0100
0001
,
1000
0000
0001
0100
0010
1000
0001
0100
,
0010
1000
0100
0010
,
2002
0000
0000
0000
,
0000
0000
0000
3003
,
0001
0100
0001
1000
,
0100
1000
0010
0100
,
0001
1000
0010
1000
,
0001
0100
0001
0010
,
0100
1000
0100
0010
,
0001
1000
0001
1000
0001
1000
0001
0000
,
0220
0000
0000
0000
,
0330
0000
0000
0000
;

//---------------dance-single - ----------------
#NOTEDATA:;
#CHARTNAME:;
#STEPSTYPE:dance-single;
#DESCRIPTION:;
#CHARTSTYLE:;
#DIFFICULTY:Easy;
#METER:6;
#RADARVALUES:0.397097,0.415834,0.111783,0.141592,0.000000,339.000000,15.000000,19.000000,0.000000,0.000000,0.000000,0.000000,0.000000,0.397097,0.415834,0.111783,0.141592,0.000000,339.000000,15.000000,19.000000,0.000000,0.000000,0.000000,0.000000,0.000000;
#CREDIT:;
#NOTES:
1002
0000
0200
0303
,
2001
0000
0200
3300
,
1002
0000
0000
0000
,
2003
0000
3020
0000
,
0130
0001
0100
0010
,
1000
0100
0010
0100
,
1000
0010
0100
0001
,
1000
0100
0100
1000
,
0010
0100
0001
1000
,
0100
0010
0100
1000
,
0001
1000
0001
0100
,
0001
0010
0010
0001
,
1001
0001
1000
0010
,
0100
0001
0010
0100
,
1000
0100
0100
1000
,
0020
0000
0030
0100
0000
0000
0010
0000
,
0100
0001
0000
0100
,
0010
1000
0000
0001
,
1000
0100
1000
0010
,
1000
0100
0010
0001
,
1000
0001
0100
0001
,
1000
0100
1000
0001
,
0100
0001
1000
0100
,
1000
0001
0100
0001
,
1002
0000
2000
3003
,
0001
1000
0010
1000
,
0001
0010
0001
1000
,
0010
1000
0001
0010
,
0001
0000
0100
0001
0000
0100
0000
0000
,
0010
0000
1000
0010
0000
1000
0000
0000
,
0010
0000
0100
0010
0000
0100
0000
0000
,
0010
0000
1000
0010
0000
1000
0000
0000
,
0001
0000
1000
0001
0000
1000
0000
0000
,
0001
0000
0100
0010
0000
1000
0000
0000
,
0010
0000
0100
0000
,
0010
0100
0001
1000
,
0001
1000
0010
0010
,
1000
0001
0010
0010
,
0001
1000
0100
0100
,
1000
0001
0100
0100
,
2001
0000
0020
3030
,
0010
0100
0001
0010
,
0100
1000
0100
0100
,
1000
0010
0100
0001
,
1000
0100
0001
0100
,
1000
0010
0001
0010
,
1000
0010
0001
0010
,
1000
0100
0001
0100
,
1000
0010
0100
0100
,
0001
0010
0100
0100
,
0010
0001
1000
1000
,
0001
0010
0100
1000
,
2002
3003
0001
1000
,
0100
1000
0010
0100
,
0001
0010
0001
1000
,
0100
1000
0010
0100
,
0001
0000
1000
0000
0100
1000
0010
0100
,
0001
0000
1000
0000
0001
1000
0001
0100
,
0001
0000
0010
0000
0001
0010
0001
1000
,
0100
0000
1000
0000
0010
0100
0001
1000
,
1001
0000
0000
0000
0000
0000
0000
0100
,
1001
0000
0000
0000
0000
0000
0000
0010
,
1001
0000
0110
0000
,
0101
0000
1010
0000
,
1000
0100
0010
0001
,
1000
0001
1000
0001
1000
0001
1000
0001
,
2000
0000
0000
0000
,
0000
0000
0000
0000
,
3001
0100
0001
0010
,
0001
0100
0010
1000
,
0010
0100
0001
1000
,
0100
1000
0001
1000
,
0001
0100
0001
0010
,
0001
1000
0100
1000
,
0001
0001
1000
0001
,
0100
0001
0010
0100
,
1000
0100
1000
0010
,
0100
1000
0100
0001
,
0010
0100
0100
0100
,
0010
0001
0010
0001
,
1000
0010
1000
0001
,
0100
0001
0100
0010
,
1000
0001
0010
0001
,
1000
0100
0010
0001
,
2002
0000
0000
0000
,
0000
0000
0000
0000
,
3003
0001
0000
1000
,
0000
0010
0000
0100
,
0010
1000
0010
0100
,
0001
0100
0010
1000
,
0001
0010
0100
1000
,
0001
1000
0001
1000
0001
1000
0001
0000
,
2002
0000
0000
0000
,
3003
0000
0000
0000
;

//---------------dance-single - ----------------
#NOTEDATA:;
#CHARTNAME:;
#STEPSTYPE:dance-single;
#DESCRIPTION:;
#CHARTSTYLE:;
#DIFFICULTY:Beginner;
#METER:3;
#RADARVALUES:0.217179,0.274242,0.096879,0.007452,0.000000,190.000000,13.000000,1.000000,0.000000,0.000000,0.000000,0.000000,0.000000,0.217179,0.274242,0.096879,0.007452,0.000000,190.000000,13.000000,1.000000,0.000000,0.000000,0.000000,0.000000,0.000000;
#CREDIT:;
#NOTES:
// measure 0
1001
0000
0000
0000
,  // measure 1
0110
0000
0000
0000
,  // measure 2
1001
0000
0000
0000
,  // measure 3
0000
0000
0000
0000
,  // measure 4
0001
0000
0000
1000
,  // measure 5
1000
0000
0000
0001
,  // measure 6
0010
0000
0000
0000
,  // measure 7
0001
0000
0000
0000
,  // measure 8
0100
0000
0000
0000
,  // measure 9
0010
0000
0000
1000
,  // measure 10
1000
0000
0000
0001
,  // measure 11
0001
0000
0000
0000
,  // measure 12
0100
0000
0000
0000
,  // measure 13
0010
0000
0100
0000
,  // measure 14
0001
0000
0000
1000
,  // measure 15
1000
0000
0000
0010
,  // measure 16
0100
0100
0000
0010
,  // measure 17
1000
1000
0000
0010
,  // measure 18
0100
0000
0001
0000
,  // measure 19
1000
0000
0000
0000
,  // measure 20
0001
0000
0001
0000
,  // measure 21
0001
0001
0001
0000
,  // measure 22
1000
0000
1000
0000
,  // measure 23
1000
1000
1000
0000
,  // measure 24
0110
0000
1001
0000
,  // measure 25
1000
0000
0010
0000
,  // measure 26
0100
0000
0010
0000
,  // measure 27
0100
0000
0001
0000
,  // measure 28
1000
1000
1000
0000
,  // measure 29
0001
0001
0001
0000
,  // measure 30
0100
0100
0100
0000
,  // measure 31
0010
0010
0010
0000
,  // measure 32
1000
0001
1000
0000
,  // measure 33
0001
1000
0001
0000
,  // measure 34
1000
0000
0001
0000
,  // measure 35
0100
0100
0010
0010
,  // measure 36
1000
1000
1000
0000
,  // measure 37
0010
0010
0100
0000
,  // measure 38
0001
0001
0010
0000
,  // measure 39
0001
0001
1000
0000
,  // measure 40
0001
0001
0100
0000
,  // measure 41
0010
0010
1000
0000
,  // measure 42
0010
0010
0100
0000
,  // measure 43
0010
0010
1000
0000
,  // measure 44
0001
0001
0001
0001
,  // measure 45
1000
1000
1000
1000
,  // measure 46
0001
0001
0001
0001
,  // measure 47
1000
1000
1000
1000
,  // measure 48
0110
0000
1001
0000
,  // measure 49
1000
0000
0010
0000
,  // measure 50
0100
0000
0001
0000
,  // measure 51
1000
0000
0001
0000
,  // measure 52
1001
0000
0000
0000
,  // measure 53
0001
0000
0000
0000
,  // measure 54
0100
0000
0000
0000
,  // measure 55
0010
0000
0000
0000
,  // measure 56
1000
0000
1000
0000
,  // measure 57
0100
0000
1000
0000
,  // measure 58
0010
0000
0100
0000
,  // measure 59
0001
0000
1000
0000
,  // measure 60
1001
0000
0000
0000
,  // measure 61
1001
0000
0000
0000
,  // measure 62
1000
0000
0100
0000
,  // measure 63
0010
0000
0001
0000
,  // measure 64
1000
0000
1000
0000
,  // measure 65
0001
0001
0001
0001
,  // measure 66
1001
0000
0000
0000
,  // measure 67
0000
0000
0000
0000
,  // measure 68
0010
0000
0000
0000
,  // measure 69
0100
0000
0001
0000
,  // measure 70
0010
0000
0000
0000
,  // measure 71
0100
0100
1000
0100
,  // measure 72
1000
0000
0001
0000
,  // measure 73
0100
0000
0000
0000
,  // measure 74
0001
0000
1000
0000
,  // measure 75
0010
0010
1000
0010
,  // measure 76
0100
0000
0000
0000
,  // measure 77
0010
0000
1000
0000
,  // measure 78
0001
0000
0000
0000
,  // measure 79
1000
0001
1000
0100
,  // measure 80
0010
0000
0000
0000
,  // measure 81
0100
0000
0000
0000
,  // measure 82
1000
0000
0000
0000
,  // measure 83
0001
0000
1000
0000
,  // measure 84
0020
0000
0000
0000
,  // measure 85
0000
0000
0000
0030
,  // measure 86
0100
0000
0000
0000
,  // measure 87
0010
0000
0000
0000
,  // measure 88
1000
0000
1001
0000
,  // measure 89
0001
0000
1000
0000
,  // measure 90
0010
0000
0100
0000
,  // measure 91
0001
1000
0001
1000
,  // measure 92
0110
0000
0000
0000
;
