#TITLE:Pineapple Juniors;
#SUBTITLE:(マクロスMACROSS 82-99 Remix);
#ARTIST:Saint Pepsi;
#TITLETRANSLIT:;
#SUBTITLETRANSLIT:;
#ARTISTTRANSLIT:;
#GENRE:;
#CREDIT:;
#BANNER:Pineapple Juniors (MACROSS 82 99 Remix).png;
#BACKGROUND:Pineapple Juniors (MACROSS 82 99 Remix)-bg.png;
#LYRICSPATH:;
#CDTITLE:;
#MUSIC:Pineapple Juniors (MACROSS 82 99 Remix).ogg;
#OFFSET:-4.191000;
#SAMPLESTART:8.264454;
#SAMPLELENGTH:16.269806;
#SELECTABLE:YES;
#BPMS:0.000000=118.000000
;
#STOPS:
;
#BGCHANGES:;
#KEYSOUNDS:;
#ATTACKS:;

//---------------dance-single - ----------------
#NOTES:
     dance-single:
     :
     Hard:
     8:
     0.464557,0.386578,0.398192,0.206470,0.165913,359.000000,54.000000,28.000000,0.000000,0.000000,0.000000,0.464557,0.386578,0.398192,0.206470,0.165913,359.000000,54.000000,28.000000,0.000000,0.000000,0.000000:
// measure 0
0010
0100
0000
0000
1000
0000
0001
0000
0100
0010
0000
0000
1000
0000
0001
0000
,  // measure 1
0220
0000
0000
0000
0000
0000
0330
0000
1001
0000
0000
0001
0100
0000
0010
0000
,  // measure 2
1010
0000
0000
0000
0011
0000
0001
0000
1000
0000
0000
0010
0000
0000
0100
0000
,  // measure 3
0000
0001
2000
0000
3200
0000
0310
0100
,  // measure 4
1100
0000
0000
0000
0011
0000
0001
0000
1000
0000
0000
0010
0000
0000
0100
0000
,  // measure 5
0000
0001
2000
0000
3002
0000
0013
0100
,  // measure 6
1100
0000
0000
0000
1010
0000
0010
0000
0100
0000
0000
0001
0000
0000
0010
0000
,  // measure 7
0000
0100
0020
0000
0032
0000
1003
0001
,  // measure 8
0101
0000
0000
0000
0011
0000
0001
0000
1000
0000
0000
0100
0000
0000
0010
0000
,  // measure 9
0000
0000
0100
0000
0020
0000
0000
0000
0031
1000
0001
1000
0001
0000
1000
0000
,  // measure 10
1010
0000
0000
0000
1010
0000
0010
0000
1000
0000
0000
0001
0000
0000
0100
0000
,  // measure 11
0000
0010
0100
0000
0001
0000
1000
0000
,  // measure 12
0100
0000
0000
0000
1000
0000
0100
0000
0010
0000
0000
0100
0000
0000
0010
0000
,  // measure 13
0000
0001
0010
0100
0010
0000
0000
0100
,  // measure 14
1001
0000
0000
0000
1001
0000
0001
0000
1000
0000
0000
0100
0000
0000
1000
0000
,  // measure 15
0000
0100
0010
0001
0010
0000
0001
0000
,  // measure 16
1000
0000
0000
0000
0001
0000
0100
0000
0001
0000
0000
0001
0000
0000
1000
0000
,  // measure 17
0000
0100
0001
0100
1000
0010
0100
0001
,  // measure 18
1000
0000
0000
0000
0101
0000
0000
0000
0000
0000
0001
0000
0010
0000
0100
1000
,  // measure 19
0000
0100
2000
0000
3020
0000
0230
0000
,  // measure 20
0301
0000
0000
0000
1000
0000
0010
1000
0000
0000
0010
0000
0100
0000
0001
0000
,  // measure 21
1000
0001
1000
0010
0200
0000
0000
0000
0320
0000
0000
0000
1030
0000
0100
0000
,  // measure 22
0110
0000
0000
0000
0110
0000
0100
0000
0010
0000
0000
0010
0000
0000
0100
0000
,  // measure 23
0000
0010
0001
0000
1000
0000
0001
0100
,  // measure 24
1000
0000
0000
0000
0110
0000
0010
0000
0100
0000
0000
0010
0000
0000
0100
0000
,  // measure 25
0001
0000
1000
0000
0100
0000
1000
0000
0001
1000
0001
1000
0100
0000
0100
0000
,  // measure 26
1100
0000
0000
0000
0101
0000
0000
0000
1100
0000
0000
0101
0000
0000
0000
0000
,  // measure 27
1000
0000
0100
0000
0010
0000
0001
0000
0011
0000
0000
0011
0000
0000
0000
0000
,  // measure 28
0101
0000
0000
0000
1100
0000
0000
0000
0101
0000
0000
1100
0000
0000
0000
0000
,  // measure 29
0001
0000
0100
0000
0010
0000
1000
0000
0010
0000
0000
0100
0000
0000
0000
0000
,  // measure 30
0110
0000
0000
0000
1001
0000
0000
0000
0110
0000
0000
1001
0000
0000
0000
0000
,  // measure 31
0001
0000
0001
0000
1000
0000
0100
0000
1100
0000
0000
1001
0000
0000
0000
0000
,  // measure 32
1100
0000
0000
0000
0011
0000
0000
0000
1100
0000
0000
0011
0000
0000
0000
0000
,  // measure 33
0001
0000
0010
0000
0100
0000
0010
0000
0011
0000
0000
1001
0000
0000
0000
0000
,  // measure 34
0001
0100
1000
0100
0010
0000
0100
0010
,  // measure 35
1000
0001
0010
1000
0010
0000
0100
1000
,  // measure 36
0100
0001
0100
1000
0010
0000
0100
0010
,  // measure 37
1000
0001
0010
0001
1000
0000
0001
0100
,  // measure 38
0010
1000
0001
0010
0011
0000
0000
0001
,  // measure 39
0010
0100
0010
0001
1001
0000
0000
0001
,  // measure 40
0100
1000
0100
0010
1010
0000
1000
0100
,  // measure 41
0001
0100
1000
0010
0110
0000
0100
0010
,  // measure 42
1001
0000
0000
0000
0110
0000
0000
0000
0000
0000
0100
0000
0010
0000
1000
0010
,  // measure 43
0000
0000
0100
0000
0002
0000
0000
0003
2000
0000
0000
0000
3100
0000
0000
0000
,  // measure 44
0010
0000
0000
0000
0100
0000
1000
0010
0000
0000
0100
0000
0010
0000
1000
0000
,  // measure 45
0001
0100
0001
1000
0020
0000
0000
0000
0230
0000
0000
0000
0301
0000
0100
0000
,  // measure 46
0110
0000
0000
0000
1001
0000
0000
0000
0000
0000
0001
0000
0010
0000
0100
1000
,  // measure 47
0000
0100
2000
0000
3002
0000
0103
0001
,  // measure 48
1000
0000
0100
0000
0010
0000
0001
1000
0000
0000
1000
0000
0010
0000
1000
0000
,  // measure 49
0001
0100
0010
1000
0001
0000
0100
0000
0010
0000
1000
0000
0000
0000
0000
0000
,  // measure 50
1100
0000
0000
0000
0011
0000
0000
0000
0000
0000
0010
0000
0001
0000
1000
0010
,  // measure 51
0000
0100
0002
0000
2003
0000
3200
0000
,  // measure 52
0320
0000
0000
0000
0130
0000
1000
0100
0000
0000
1000
0000
0010
0000
0100
0000
,  // measure 53
0001
1000
0010
0100
0002
0000
0000
0000
0203
0000
0000
0000
0310
0000
1000
0000
,  // measure 54
0101
0000
0000
0000
1010
0000
0000
0000
0000
0000
1000
0000
0100
0000
0010
0001
,  // measure 55
0000
0010
0200
0000
0320
0000
0031
0010
,  // measure 56
0100
0000
0010
0000
0001
0000
1000
0010
0000
0000
0100
0000
0010
0000
1000
0000
,  // measure 57
0001
0000
0100
0000
0010
0000
1000
0000
0001
1000
0001
1000
0001
0000
0100
0000
,  // measure 58
0110
1001
0000
0000
;

//---------------dance-single - ----------------
#NOTES:
     dance-single:
     :
     Medium:
     6:
     0.339200,0.300672,0.206470,0.103235,0.073739,280.000000,28.000000,14.000000,0.000000,0.000000,0.000000,0.339200,0.300672,0.206470,0.103235,0.073739,280.000000,28.000000,14.000000,0.000000,0.000000,0.000000:
// measure 0
1000
0000
0100
0010
0001
0000
1000
0100
,  // measure 1
0020
0000
0000
0000
0130
0000
1000
0001
,  // measure 2
1001
0000
0000
0000
1001
0000
0000
0000
0001
0000
0000
1000
0000
0000
0100
0000
,  // measure 3
0000
1000
0010
0000
0100
0000
0010
1000
,  // measure 4
1001
0000
0000
0000
1001
0000
0000
0000
0001
0000
0000
1000
0000
0000
0100
0000
,  // measure 5
0000
1000
0010
0000
0100
0000
0010
0100
,  // measure 6
0101
0000
0000
0000
0101
0000
0000
0000
0001
0000
0000
1000
0000
0000
0100
0000
,  // measure 7
0000
1000
0010
0000
0100
0000
0010
1000
,  // measure 8
1001
0000
0000
0000
1100
0000
0000
0000
0100
0000
0000
1000
0000
0000
0100
0000
,  // measure 9
1000
0010
1000
0000
0010
1000
0010
0001
,  // measure 10
0010
0000
0000
0000
0100
0000
0000
0000
0001
0000
0000
0100
0000
0000
0001
0000
,  // measure 11
0000
1000
0100
0010
0001
0000
1000
0000
,  // measure 12
0001
0000
0000
0000
0100
0000
0100
0000
0001
0000
0000
1000
0000
0000
0100
0000
,  // measure 13
0000
0100
0010
0001
1000
0000
0000
0001
,  // measure 14
1001
1001
0000
0000
,  // measure 15
0000
0000
1000
0010
0100
0000
0010
0000
,  // measure 16
1000
0000
0000
0000
0001
0000
1000
0000
0100
0000
0000
1000
0000
0000
0100
0000
,  // measure 17
0000
0010
0001
1000
0010
0000
0000
0100
,  // measure 18
0010
0000
0000
0000
1001
0000
0000
0000
0000
0000
0001
0000
1000
0000
0000
0100
,  // measure 19
0000
1000
0010
0000
0100
0000
0001
0000
,  // measure 20
1000
0000
0000
0000
0100
0000
0000
0010
0000
0000
0100
0000
1000
0000
0010
0000
,  // measure 21
1000
0010
0001
0000
0001
0010
0100
0001
,  // measure 22
1001
0000
0000
0000
1001
0000
0000
0000
0001
0000
0000
0010
0000
0000
0001
0000
,  // measure 23
0000
1000
0100
0000
1000
0000
0010
0100
,  // measure 24
0001
0000
0000
0000
1000
0000
0000
0000
0100
0000
0000
1000
0000
0000
0010
0000
,  // measure 25
0100
0010
0100
0000
0010
1000
0001
0001
,  // measure 26
1000
0000
0000
0000
0100
0000
0000
0000
1000
0000
0000
0010
0000
0000
0000
0000
,  // measure 27
0100
0000
0001
0000
0100
0000
0001
0000
0100
0000
0000
0010
0000
0000
0000
0000
,  // measure 28
0100
0000
0000
0000
0001
0000
0000
0000
1000
0000
0000
0100
0000
0000
0000
0000
,  // measure 29
2000
3020
0230
0302
,  // measure 30
1003
0000
0000
0000
0001
0000
0000
0000
0100
0000
0000
0001
0000
0000
0000
0000
,  // measure 31
0100
0000
0100
0000
0010
0000
1000
0000
0001
0000
0000
1000
0000
0000
0000
0000
,  // measure 32
0100
0000
0000
0000
0010
0000
0000
0000
0100
0000
0000
0010
0000
0000
0000
0000
,  // measure 33
0002
0023
0230
2300
,  // measure 34
3001
0000
0000
0000
1000
0000
0000
0000
0010
0000
0000
1010
0000
0000
0000
0000
,  // measure 35
0010
0000
0100
0000
0001
0000
1000
0000
0001
0000
0000
1001
0000
0000
0000
0000
,  // measure 36
1000
0000
0000
0000
0100
0000
0000
0000
0010
0000
0000
0011
0000
0000
0000
0000
,  // measure 37
0002
2003
3020
0230
,  // measure 38
0302
1000
1000
1000
,  // measure 39
0100
0100
0100
0103
,  // measure 40
0101
1010
0101
1010
,  // measure 41
1001
0000
0000
0000
0000
0000
0000
0010
,  // measure 42
1001
0000
0110
0000
0000
0100
0010
1000
,  // measure 43
0100
0000
0010
0000
0100
0000
0010
0001
,  // measure 44
1000
0001
0100
0001
,  // measure 45
1000
0010
0001
0000
0001
0100
0010
0000
,  // measure 46
0100
0000
1001
0000
0000
0010
1000
0001
,  // measure 47
1000
0000
0100
0000
0010
0000
0100
1000
,  // measure 48
0010
0100
0001
1000
,  // measure 49
0100
0010
0001
0000
0001
1000
0010
0000
,  // measure 50
0101
0000
0000
0000
0000
0001
1000
0010
,  // measure 51
0100
0000
0001
0000
1000
0000
0100
0010
,  // measure 52
0001
0010
0100
1000
,  // measure 53
0010
0100
0001
0000
1000
0010
0100
0000
,  // measure 54
0010
0000
1001
0000
0000
0000
0100
0010
,  // measure 55
1000
0001
1000
0100
,  // measure 56
0010
0001
0010
1000
,  // measure 57
0010
0000
0100
0000
0010
0001
1000
0000
,  // measure 58
1001
1001
0000
0000
;

//---------------dance-single - ----------------
#NOTES:
     dance-single:
     :
     Easy:
     3:
     0.212790,0.171812,0.066365,0.036870,0.000000,188.000000,9.000000,5.000000,0.000000,0.000000,0.000000,0.212790,0.171812,0.066365,0.036870,0.000000,188.000000,9.000000,5.000000,0.000000,0.000000,0.000000:
// measure 0
1000
0100
1000
0010
,  // measure 1
2002
0000
3003
0000
,  // measure 2
1000
0001
0100
0001
,  // measure 3
1000
0100
0100
1000
,  // measure 4
0010
0010
0100
0001
,  // measure 5
1000
0100
1000
0001
,  // measure 6
0100
0100
0001
1000
,  // measure 7
0010
0100
0001
0010
,  // measure 8
0100
0100
0010
0001
,  // measure 9
1000
0010
0001
0010
,  // measure 10
0100
0100
0000
0000
,  // measure 11
0010
0000
1000
0000
,  // measure 12
0100
0000
1000
0000
,  // measure 13
0001
1000
0100
0000
,  // measure 14
0010
0010
0000
0000
,  // measure 15
0001
0000
0010
0000
,  // measure 16
0001
0000
0100
0000
,  // measure 17
0010
1000
0001
0000
,  // measure 18
1000
1001
0000
0001
,  // measure 19
0010
0001
1000
0100
,  // measure 20
0010
0100
1000
0010
,  // measure 21
0100
0001
0010
0100
,  // measure 22
1000
1000
0000
0001
,  // measure 23
0000
0100
0010
0100
,  // measure 24
0001
0001
0000
1000
,  // measure 25
0000
0010
0000
0100
,  // measure 26
0100
0010
1000
0001
,  // measure 27
0010
0100
0100
0010
,  // measure 28
0001
1000
0010
1000
,  // measure 29
0001
0100
0001
1000
,  // measure 30
0100
1000
0010
0100
,  // measure 31
0001
1000
0100
1000
,  // measure 32
0010
0100
0001
1000
,  // measure 33
0010
0100
0001
0000
,  // measure 34
1000
0001
0100
0000
,  // measure 35
0100
0001
1000
1000
,  // measure 36
0100
1000
0010
0000
,  // measure 37
0100
0010
1000
0000
,  // measure 38
0002
0000
0000
0000
,  // measure 39
0000
0000
0000
0000
,  // measure 40
1003
0100
0010
0001
,  // measure 41
2002
0000
3003
0000
,  // measure 42
1001
0000
0000
0001
,  // measure 43
0010
0001
1000
0100
,  // measure 44
1000
0010
0100
0010
,  // measure 45
1000
0010
0100
0001
,  // measure 46
1000
1001
0000
0000
,  // measure 47
1000
0000
0010
0000
,  // measure 48
0100
0001
0010
0001
,  // measure 49
1000
0100
0010
0000
,  // measure 50
0001
1001
0000
1000
,  // measure 51
0010
1000
1000
0100
,  // measure 52
0010
0100
1000
0001
,  // measure 53
0100
0001
0010
0100
,  // measure 54
1000
1001
0000
0001
,  // measure 55
0010
0001
0100
0001
,  // measure 56
1000
0100
0010
0100
,  // measure 57
1000
0010
0100
0001
,  // measure 58
1001
1001
0000
0000
;

//---------------dance-single - ----------------
#NOTES:
     dance-single:
     :
     Beginner:
     1:
     0.131677,0.171812,0.066365,0.000000,0.000000,116.000000,9.000000,0.000000,0.000000,0.000000,0.000000,0.131677,0.171812,0.066365,0.000000,0.000000,116.000000,9.000000,0.000000,0.000000,0.000000,0.000000:
// measure 0
1000
0000
0001
0000
,  // measure 1
1001
0000
0000
0000
,  // measure 2
0100
0100
0000
0000
,  // measure 3
0001
0000
1000
0000
,  // measure 4
0010
0010
0000
0000
,  // measure 5
1000
0000
0001
0000
,  // measure 6
1000
1000
0000
0000
,  // measure 7
0010
0000
0100
0000
,  // measure 8
0001
0001
0000
0000
,  // measure 9
1000
0000
0001
0001
,  // measure 10
1000
1000
0000
0010
,  // measure 11
0000
0100
0100
0000
,  // measure 12
0000
0001
0000
0000
,  // measure 13
1000
0000
0001
0000
,  // measure 14
0100
0100
0000
0000
,  // measure 15
0010
0000
0100
0000
,  // measure 16
0001
0000
0000
0000
,  // measure 17
1000
1000
1000
0000
,  // measure 18
0010
1001
0000
0000
,  // measure 19
0001
0000
1000
0000
,  // measure 20
0010
0000
0100
0000
,  // measure 21
0001
0001
0000
0000
,  // measure 22
0100
0100
0000
0000
,  // measure 23
0010
0000
0100
0000
,  // measure 24
0001
0001
0000
0000
,  // measure 25
0000
1000
0000
1000
,  // measure 26
0001
0000
0100
0000
,  // measure 27
0001
0000
0000
0000
,  // measure 28
1000
0000
0100
0000
,  // measure 29
1000
0000
0000
0000
,  // measure 30
0010
0000
0100
0000
,  // measure 31
0010
0000
0000
0000
,  // measure 32
0100
0000
0001
0000
,  // measure 33
0100
0000
0000
0000
,  // measure 34
0001
0000
0000
1000
,  // measure 35
1000
0000
0000
0001
,  // measure 36
0001
0000
0000
0100
,  // measure 37
0100
0000
0000
0010
,  // measure 38
0010
0000
0100
0000
,  // measure 39
0001
0000
1000
0000
,  // measure 40
0001
0001
0001
0001
,  // measure 41
1001
0000
0110
0000
,  // measure 42
1001
1001
0000
0001
,  // measure 43
0001
0000
1000
0000
,  // measure 44
0010
0000
0100
0000
,  // measure 45
0001
0000
0000
0000
,  // measure 46
1000
1001
0000
0000
,  // measure 47
1000
0000
0000
0001
,  // measure 48
0001
0000
0100
0000
,  // measure 49
0010
0000
0100
0000
,  // measure 50
1001
1001
0000
0000
,  // measure 51
0100
0000
0010
0000
,  // measure 52
1000
0000
0001
0000
,  // measure 53
0010
0010
0000
0000
,  // measure 54
0100
0100
0000
0000
,  // measure 55
0010
0000
0001
0000
,  // measure 56
1000
0000
0001
0000
,  // measure 57
0010
0000
0100
0000
,  // measure 58
1000
1000
0000
0000
;
