#TITLE:Peacock;
#SUBTITLE:(Haywyre Remix);
#ARTIST:7 Minutes Dead;
#TITLETRANSLIT:;
#SUBTITLETRANSLIT:;
#ARTISTTRANSLIT:;
#GENRE:;
#CREDIT:;
#BANNER:Peacock (Haywyre Remix).png;
#BACKGROUND:Peacock (Haywyre Remix)-bg.png;
#LYRICSPATH:;
#CDTITLE:;
#MUSIC:Peacock (Haywyre Remix).ogg;
#OFFSET:-4.688000;
#SAMPLESTART:4.688000;
#SAMPLELENGTH:18.285715;
#SELECTABLE:YES;
#BPMS:0.000000=105.000000
,161.000000=93.000000
,164.500000=95.000000
,172.750000=62.999996
,174.000000=60.000000
,174.750000=46.000000
,175.000000=26.000000
,178.000000=27.000000
;
#STOPS:70.000000=0.571000,
117.000000=0.571000
;
#BGCHANGES:;
#KEYSOUNDS:;
#ATTACKS:;

//---------------dance-single - ----------------
#NOTES:
     dance-single:
     :
     Hard:
     8:
     0.470204,0.520909,0.216753,0.216753,0.337171,356.000000,27.000000,27.000000,0.000000,0.000000,0.000000,0.470204,0.520909,0.216753,0.216753,0.337171,356.000000,27.000000,27.000000,0.000000,0.000000,0.000000:
1000
0001
0100
0001
1000
0100
0001
0100
,
1000
0001
0010
0001
1000
0010
0001
0010
,
1000
0001
0100
0001
1000
0100
0001
0100
,
2000
0000
3010
0100
0002
0000
0013
0100
,
1000
0000
0000
0001
0000
1000
0001
0000
0000
0001
0000
0000
0100
0000
0010
1000
0000
0000
0100
0000
0000
0000
0000
0000
,
0010
0000
0000
0010
0100
0000
0010
0000
0000
0010
0100
0000
0010
0000
0001
1000
,
0100
0000
0010
0001
1000
0000
0010
0000
0100
0001
1000
0000
0001
1000
0010
1000
,
0001
0000
0010
0000
0100
0000
1000
0100
0010
0000
0100
0010
0001
0000
0001
0010
,
0100
1000
0100
1000
0100
1000
0100
1000
0001
1000
0001
1000
0001
1000
0001
1000
,
0001
0100
0001
0100
0001
0100
0001
0100
0010
0100
0010
0100
0010
0000
0000
0000
,
2000
0000
0000
0000
3001
0100
0010
1000
0000
0010
1000
0001
0000
0010
0100
1000
,
0002
0000
0000
0000
1003
0100
1000
0010
0000
0100
0010
1000
0000
0001
0010
0110
,
0000
1001
0000
0000
0001
1000
0100
1000
0000
0100
0010
0100
0000
0010
0001
0010
,
0200
0000
0000
0000
0310
0001
1000
0010
0000
0100
0010
1000
0000
0000
1000
0000
,
0202
0000
0000
0300
0023
0000
0230
0000
0320
0000
0000
0000
0130
0000
1000
0001
,
0010
0000
0200
0000
1300
0100
0010
0100
0000
0010
0001
1000
0000
0001
0100
0001
,
0020
0000
0000
0000
0230
0000
2300
0000
3002
0000
0003
1000
0001
0000
0100
0000
,
0020
0000
0000
0000
0030
0000
1000
0100
,
0001
0100
1000
0010
1001
0000
0001
0010
,
1000
0010
0001
0100
0110
0000
0200
0000
,
0301
0000
0010
0000
1000
0000
0010
0000
0100
0000
0010
0100
0000
2002
0000
3003
,
1001
0000
0001
0100
0010
0000
0100
0010
1000
0000
0001
1000
1200
0000
0000
0000
,
2300
0000
3002
0000
0100
0000
0023
0000
0130
0000
0100
1100
0000
1000
0100
0000
,
0011
0000
0001
0000
1000
0000
0010
0000
1010
0000
0010
1000
0002
0000
0000
0000
,
2003
0000
0000
0000
3020
0000
0000
0000
0130
0000
0010
1000
0001
0000
1000
0000
,
0100
0000
0010
0001
0010
0000
0001
0100
0001
0000
0100
0010
1000
0000
0100
0000
,
0000
0010
0100
1000
0000
0100
0010
0001
,
0000
1000
0001
0100
0001
1000
0100
0010
,
0000
0000
0001
0000
0010
0000
1000
0000
0000
0000
0010
0000
0100
0000
0000
1000
,
0000
0001
1000
0000
0101
0100
0000
0100
,
0110
0010
0000
1000
1010
0010
0000
0100
,
0110
0100
0110
0100
0110
0100
0000
0001
,
0101
0100
0000
0100
0110
0010
0000
0100
,
0110
0000
1000
0010
0100
0000
0001
1000
,
0100
0000
1000
0000
0001
0000
0100
0010
1000
0000
0000
0000
0000
0000
0000
0000
,
0001
0000
0001
0000
0100
0010
1000
0001
,
0010
0000
0100
0000
1000
0000
0001
0010
0100
0000
0000
0000
0000
0000
0000
0000
,
1000
1000
1000
1000
0100
0000
0010
0001
,
1000
0000
0000
0000
0001
0000
1000
0010
0100
0000
0000
0000
0000
0000
0000
0000
,
0001
0000
0101
0000
1001
0001
1001
1000
,
0100
0000
0010
0000
0100
0000
0000
0010
,
0001
0000
1000
0000
0000
0000
0100
0000
0000
0000
0000
0000
0010
0001
0000
1000
,
0001
0010
0000
0100
1000
0000
0000
0000
0001
0000
0001
1000
0001
1000
0000
1100
,
0000
0000
0010
0000
0000
0000
0011
0000
0000
1001
0000
0000
0000
0000
0000
0000
0101
0000
0000
0000
0000
0000
0001
0000
2000
0000
0000
0000
0001
0000
0000
0000
,
0001
0001
0001
0001
0001
0001
3001
0000
;

//---------------dance-single - ----------------
#NOTES:
     dance-single:
     :
     Medium:
     5:
     0.267213,0.251473,0.096334,0.112390,0.048167,207.000000,12.000000,14.000000,0.000000,0.000000,0.000000,0.267213,0.251473,0.096334,0.112390,0.048167,207.000000,12.000000,14.000000,0.000000,0.000000,0.000000:
1000
0000
0100
0000
0010
0001
0100
0010
,
1000
0000
0001
0000
1000
0001
0100
0010
,
0100
0000
0001
0000
0010
0001
0100
0001
,
2000
3100
2000
3010
,
0100
0010
1000
0010
0100
0001
0010
0000
,
0100
0010
0100
1000
,
0001
0100
0010
0100
0001
1000
0100
0010
,
0002
0000
0000
0000
,
0013
0100
2000
0000
0000
0000
0000
0000
,
0000
0000
0000
0000
0000
3000
0011
0000
,
0102
0103
0001
0100
,
2010
0000
0000
0000
3100
0000
0000
0000
1000
0000
0000
0000
0010
0000
0000
0100
,
0000
0001
0000
0000
1000
0000
0000
0000
0001
0000
1000
0000
0100
0000
0000
0000
,
1200
0000
0310
0000
0001
0010
0001
0000
,
0102
0000
0103
0001
1000
0000
0100
1000
,
0010
0200
0301
0000
0100
0000
0010
0000
,
1002
0000
1003
0001
0100
0000
0010
0000
,
2002
0000
3003
0001
,
0100
0010
0101
0001
,
1100
0000
0100
1000
0010
0000
0120
0000
,
1030
0000
0000
0000
0001
0000
0000
0000
0100
0000
0000
0001
0000
0010
0000
0000
,
0001
0000
1000
0100
0010
0000
0110
0000
,
0100
0000
0100
0000
1000
0000
0000
0000
0001
0000
0000
1000
0000
0001
0000
0000
,
0100
0000
0001
0100
0010
0000
1020
0000
,
1030
0000
0010
0000
0100
0000
1000
0100
,
0010
0001
0010
0001
1000
0000
0001
0100
,
0000
0010
1000
0010
0000
1000
0001
1000
,
0000
0001
0100
0000
0100
0000
0001
1000
,
0000
0100
0010
0001
0000
0010
0001
1000
,
0000
0010
0100
0000
0010
0000
0000
1000
,
0001
0000
0000
1000
0001
0000
0000
1000
,
0001
0000
0001
0000
0100
0000
0000
0010
,
0100
0000
0000
0010
0100
0000
0010
0000
,
0100
0000
0010
0100
0001
0000
0000
1000
,
0010
0000
0000
0100
0001
0000
0000
0000
,
1000
0000
1000
0000
0100
0000
0000
1000
,
0010
0000
0000
0100
0001
0000
0000
0000
,
0010
0001
0010
0001
0010
0000
0000
0100
,
1000
0000
0000
0010
0100
0000
0000
0000
,
0001
0100
0010
0100
,
0001
1000
0100
0000
,
1000
0000
0000
0000
0000
0010
0000
0000
0000
0000
0000
0000
0000
0100
0000
0000
,
0000
0001
0000
0000
1000
0000
0000
0000
0000
0000
0000
0001
0000
0000
0000
1000
,
0000
0000
0000
0001
0000
0000
0000
0000
1000
0000
0000
0000
0010
0000
0010
0000
,
0010
0010
0010
0010
0010
0010
0100
0000
;

//---------------dance-single - ----------------
#NOTES:
     dance-single:
     :
     Easy:
     3:
     0.175466,0.179624,0.048167,0.104362,0.004014,134.000000,6.000000,13.000000,0.000000,0.000000,0.000000,0.175466,0.179624,0.048167,0.104362,0.004014,134.000000,6.000000,13.000000,0.000000,0.000000,0.000000:
1000
0100
1000
0010
,
0100
0001
0100
0010
,
1000
0001
1000
0010
,
2000
3010
0200
0301
,
1000
0010
0100
0001
,
0100
0000
0001
0000
,
1000
0000
0000
0001
0000
0000
0100
0000
,
0001
0100
0010
1000
,
2002
0000
0000
0000
,
0000
0000
0000
3003
,
0110
0100
0100
0100
,
1001
0010
0010
0010
,
1000
0001
0100
0001
,
0011
0010
0100
1000
,
0200
1300
0100
1000
,
0010
0100
0001
0001
,
0200
1300
0010
0100
,
0002
0000
0003
0100
,
0100
0100
0010
2000
,
3010
0100
0001
0020
,
0130
0010
0001
2000
,
3001
0100
0010
1001
,
0001
0200
0301
0100
,
0010
1000
0100
0020
,
0130
0010
0001
1000
,
0100
0001
0100
1000
,
0000
1000
0000
0001
,
0000
0100
0001
0100
,
0000
0010
0000
1000
,
0000
0000
0001
0000
,
0001
0000
0001
0000
,
0001
0001
1000
0000
,
1000
0000
1000
0000
,
1000
0010
0101
0000
,
0001
0000
0100
0000
,
0010
0000
0100
0000
,
0010
0000
1000
0000
,
0001
0001
0100
0000
,
0001
0000
0010
0000
,
0100
1000
0100
1000
,
0010
0100
0010
0000
,
0000
0000
0000
0100
0000
0000
0000
0010
,
0000
0000
0000
1000
,
0000
0000
0000
1000
0000
0000
0000
0000
0001
0000
0000
0000
0200
0000
0000
0000
,
0000
0000
0000
0300
;

//---------------dance-single - ----------------
#NOTES:
     dance-single:
     :
     Beginner:
     1:
     0.103216,0.105366,0.048167,0.000000,0.000000,84.000000,6.000000,0.000000,0.000000,0.000000,0.000000,0.103216,0.105366,0.048167,0.000000,0.000000,84.000000,6.000000,0.000000,0.000000,0.000000,0.000000:
// measure 0
1000
0000
0000
0000
,  // measure 1
0001
0000
0000
0000
,  // measure 2
1000
0000
0000
0000
,  // measure 3
0010
0000
0010
0000
,  // measure 4
1001
0000
0000
0000
,  // measure 5
1000
0000
1000
0000
,  // measure 6
0010
0000
0000
0000
,  // measure 7
0100
0000
0010
0000
,  // measure 8
1001
0000
0000
0000
,  // measure 9
0000
0000
0000
0010
,  // measure 10
1001
0000
0001
0000
,  // measure 11
1001
0000
1000
0000
,  // measure 12
0110
0000
0010
0000
,  // measure 13
0100
0000
0001
0000
,  // measure 14
1000
0000
0001
0000
,  // measure 15
1000
0000
0000
0000
,  // measure 16
0010
0000
0100
0000
,  // measure 17
0001
0000
0000
1000
,  // measure 18
1000
1000
0000
0001
,  // measure 19
0000
0000
0000
0100
,  // measure 20
0000
0000
0000
0010
,  // measure 21
0000
1000
0000
1001
,  // measure 22
0000
0001
0000
0100
,  // measure 23
0000
0010
0000
0100
,  // measure 24
0000
0001
0000
1000
,  // measure 25
0001
0100
0000
0010
,  // measure 26
0000
0010
0000
0010
,  // measure 27
0000
0100
0100
0100
,  // measure 28
0000
0001
0000
1000
,  // measure 29
0000
0000
0010
0000
,  // measure 30
0010
0000
0010
0000
,  // measure 31
0010
0010
0100
0000
,  // measure 32
1000
0000
0100
0000
,  // measure 33
0000
0001
1000
0000
,  // measure 34
0100
0000
1000
0000
,  // measure 35
0001
0001
0001
0000
,  // measure 36
0100
0000
0001
0000
,  // measure 37
1000
0000
0100
0000
,  // measure 38
1000
0000
0100
0000
,  // measure 39
0010
0010
0001
0000
,  // measure 40
1000
0000
0001
0000
,  // measure 41
0000
0000
1000
0000
,  // measure 42
0000
0001
0000
1000
,  // measure 43
0001
0100
0010
1000
;
