#VERSION:0.83;
#TITLE:Party All Night;
#SUBTITLE:;
#ARTIST:KaW feat. Sam-I-Am;
#TITLETRANSLIT:;
#SUBTITLETRANSLIT:;
#ARTISTTRANSLIT:;
#GENRE:;
#ORIGIN:;
#CREDIT:;
#BANNER:Party All Night.png;
#BACKGROUND:Party All Night-bg.png;
#PREVIEWVID:;
#JACKET:Party All Night-jacket.png;
#CDIMAGE:;
#DISCIMAGE:;
#LYRICSPATH:;
#CDTITLE:CDtitle.png;
#MUSIC:Party All Night.ogg;
#OFFSET:-1.946000;
#SAMPLESTART:46.105999;
#SAMPLELENGTH:15.360001;
#SELECTABLE:YES;
#BPMS:0.000=125.000;
#STOPS:88.000=0.960,
190.000=0.960;
#DELAYS:;
#WARPS:;
#TIMESIGNATURES:0.000=4=4;
#TICKCOUNTS:0.000=4;
#COMBOS:0.000=1;
#SPEEDS:0.000=1.000=0.000=0;
#SCROLLS:0.000=1.000;
#FAKES:;
#LABELS:0.000=Song Start;
#BGCHANGES:;
#KEYSOUNDS:;
#ATTACKS:
;

//---------------dance-single - ----------------
#NOTEDATA:;
#CHARTNAME:;
#STEPSTYPE:dance-single;
#DESCRIPTION:;
#CHARTSTYLE:;
#DIFFICULTY:Hard;
#METER:7;
#RADARVALUES:0.437626,0.434914,0.207102,0.120809,0.008629,355.000000,331.000000,24.000000,14.000000,0.000000,0.000000,0.000000,0.000000,0.000000,0.437626,0.434914,0.207102,0.120809,0.008629,355.000000,331.000000,24.000000,14.000000,0.000000,0.000000,0.000000,0.000000,0.000000;
#CREDIT:;
#NOTES:
0000
0000
0000
0000
,
1001
0000
0000
0000
,
0000
0000
0000
0000
,
0100
0000
0000
0100
0000
0000
0000
0000
0001
0000
0000
0000
0000
0000
0000
0000
,
1000
0000
0000
1000
0000
0000
0000
0000
0000
0000
0001
0000
0010
0000
1000
0000
,
0010
0001
0100
0010
1000
0100
1000
0000
,
0001
1000
0100
1000
0001
0010
0100
0000
,
0010
0001
1000
0100
1000
0010
0100
0100
,
0010
1000
0001
0010
0100
0010
0001
0001
,
0000
1000
0010
0100
0010
1000
0001
0000
,
0001
0100
0010
0100
0001
1000
0100
0000
,
0010
0001
1000
0100
1000
0001
0100
0000
,
0010
0100
1000
0000
0100
0001
1000
0100
,
2002
0000
3003
0110
,
2002
0000
3003
0110
,
1001
0001
0010
0001
1000
0100
1000
0000
,
0001
0100
0001
0010
1000
0010
0001
0000
,
1000
0001
0100
0000
0001
1000
0010
0000
,
0100
0010
1000
0001
0010
0100
1000
0000
,
0100
1000
0010
0100
0001
0001
0101
0000
,
0001
0100
0010
1000
0100
0100
1100
0000
,
1000
0010
0100
0000
0010
1000
0001
0000
,
0220
0000
0030
0300
0001
1000
0100
0000
,
0010
0001
0100
1000
0100
0010
1000
0000
,
1000
0010
0001
0010
0100
0001
0010
0000
,
0100
0010
0001
0000
1000
0100
0101
0000
,
0001
0100
1100
0000
1000
0001
0010
0000
,
0100
1000
0010
0001
0010
0100
0001
0000
,
0001
0100
1000
0100
0010
1000
0100
0000
,
0010
0100
1000
0000
0001
0010
1010
0000
,
1000
0010
0011
0001
0200
0000
0000
0000
,
0000
0300
0020
0000
,
0000
0030
1000
0001
,
0100
0010
1000
0000
0001
0100
1000
0000
,
1000
0100
0001
0000
1001
1000
0010
1000
,
0001
0010
0100
0000
0010
0001
0100
0010
,
1000
0001
0010
0000
0001
1000
0100
1000
,
0010
0100
0001
0010
0001
1000
0100
1000
,
0010
0100
0001
0010
2002
0000
0000
0000
,
3003
0110
2002
0000
,
3003
0000
0110
0000
0001
1000
0100
1000
,
0001
1000
0001
0000
0010
0100
1000
0001
,
0100
0010
0100
0000
0010
1000
0010
0100
,
0001
0010
0100
0000
0010
0001
1000
0100
,
1000
0010
0100
0000
0010
1000
0001
0010
,
1000
0010
0100
0000
1000
0001
0100
0010
,
1000
0001
0100
0001
0010
1000
0010
0100
,
1000
0100
0001
0100
2002
0000
3000
0003
,
0001
0100
0001
0100
0001
0100
0001
0100
,
0010
0100
0010
0100
0010
0100
0010
0100
,
0010
1000
0010
1000
0010
1000
0010
1000
,
0001
0010
1010
0000
1000
0010
0011
0000
,
1000
0010
1000
0010
1000
0010
1000
0010
,
0100
0010
0100
0010
0100
0010
0100
0010
,
0100
0001
0100
0001
0100
0001
0100
0001
,
1000
0100
0101
0000
0001
0100
1100
0000
,
1001
0000
0000
0000
;

//---------------dance-single - ----------------
#NOTEDATA:;
#CHARTNAME:;
#STEPSTYPE:dance-single;
#DESCRIPTION:;
#CHARTSTYLE:;
#DIFFICULTY:Medium;
#METER:5;
#RADARVALUES:0.300791,0.362428,0.112180,0.034517,0.000000,244.000000,231.000000,13.000000,4.000000,0.000000,0.000000,0.000000,0.000000,0.000000,0.300791,0.362428,0.112180,0.034517,0.000000,244.000000,231.000000,13.000000,4.000000,0.000000,0.000000,0.000000,0.000000,0.000000;
#CREDIT:;
#NOTES:
0000
0000
0000
0000
,
0000
0000
0000
0000
,
0000
0000
0000
0000
,
0000
0000
0000
0000
,
0000
0000
0000
0000
0000
0001
0010
1000
,
0010
0000
0100
0000
1000
0100
1000
0000
,
0100
0000
0010
0000
0001
0010
0001
0000
,
1000
0000
0001
0000
0100
0010
0100
0000
,
0010
0000
1000
0000
0001
0100
0001
0000
,
0000
1000
0001
0000
0010
0000
0001
0000
,
1000
0100
1000
0000
0100
0010
0100
0000
,
0010
0000
0001
0000
0100
0010
1000
0000
,
0010
0000
0100
0000
0001
0100
0010
0000
,
1001
0000
0000
0000
,
0110
0000
0000
0000
,
0100
0000
0010
0000
1000
0010
1000
0000
,
0010
0000
0100
0000
0001
0010
0001
0000
,
0010
0100
1000
0000
0100
0010
0001
0000
,
1000
0000
0001
0000
0100
0010
0100
0000
,
1000
0010
0100
0001
1000
0010
0100
0000
,
0001
0010
0100
1000
0001
0010
0100
0000
,
0010
0001
1000
0010
,
1001
0000
1000
1010
,
0010
1000
0010
0000
0100
0000
0101
0000
,
0001
0100
0001
0000
0010
0000
0011
0000
,
0010
0100
0010
0000
0100
0100
0100
0000
,
1000
1000
1000
0000
0001
0100
0001
0000
,
0100
0000
0101
0000
0001
1000
0001
0000
,
1000
0000
1001
0000
1000
0010
1000
0000
,
0010
0000
1010
0000
1000
1000
1000
0000
,
0001
0001
0001
0000
0200
0000
0000
0000
,
0000
0300
0020
0000
,
0000
0030
2000
0000
,
0000
3000
0002
0000
,
0000
0003
1000
0010
,
0100
0001
0100
0000
0001
0000
0010
0000
,
0100
0010
0100
0000
0010
0000
0001
0000
,
1000
0100
1000
0000
0100
0000
1000
0000
,
0010
1000
0010
0000
0110
0000
0000
0000
,
0000
0000
1001
0000
,
0000
0000
0001
0010
,
0001
1000
0010
0000
1000
0000
0001
0000
,
0100
0010
1000
0000
0010
0000
0100
0000
,
0001
1000
0100
0000
0010
0000
0100
0000
,
0010
0001
0100
0000
0010
0000
1000
0000
,
0100
1000
0010
0000
0100
0000
0001
0000
,
1000
0001
0010
0000
0100
0000
0010
0000
,
0001
0010
1001
0000
,
0001
0100
1000
0000
0100
0000
0010
0000
,
1000
0010
0001
0000
0010
0000
0100
0000
,
0001
0100
1000
0000
0100
0000
0010
0000
,
1000
1000
1000
0000
0001
0001
0001
0000
,
0001
0010
1000
0000
0010
0000
0100
0000
,
1000
0100
0001
0000
0100
0000
0010
0000
,
0001
0010
1000
0000
0010
0000
0100
0000
,
1000
0100
0001
0000
0001
0100
1000
0000
,
1001
0000
0000
0000
;

//---------------dance-single - ----------------
#NOTEDATA:;
#CHARTNAME:;
#STEPSTYPE:dance-single;
#DESCRIPTION:;
#CHARTSTYLE:;
#DIFFICULTY:Easy;
#METER:3;
#RADARVALUES:0.255179,0.314104,0.181214,0.000000,0.000000,207.000000,186.000000,21.000000,0.000000,0.000000,0.000000,0.000000,0.000000,0.000000,0.255179,0.314104,0.181214,0.000000,0.000000,207.000000,186.000000,21.000000,0.000000,0.000000,0.000000,0.000000,0.000000,0.000000;
#CREDIT:;
#NOTES:
0000
0000
0000
0000
,
0000
0000
0000
0000
,
0000
0000
0000
0000
,
0000
0000
0000
0000
,
0000
0000
0000
0000
,
1000
0001
0100
0001
,
1000
0010
1000
0001
,
0100
0001
0010
0001
,
1000
0100
0010
0100
,
0000
0010
0001
1000
,
0001
0010
0001
1000
,
0100
0100
1000
0010
,
0100
0100
0001
0010
,
1001
0000
0000
0000
,
0110
0000
0000
0000
,
1000
0010
0100
0001
,
0010
0001
1000
0100
,
1000
0010
1000
0001
,
0100
0001
0010
0001
,
1000
0001
0100
0101
,
0001
1000
0100
1100
,
1000
0001
0010
0100
,
1001
0000
1000
1010
,
0010
0100
0001
0101
,
0001
0010
0001
1001
,
1000
0000
0010
0000
1000
0001
1000
0000
,
0001
1000
0001
0000
1000
0000
1010
0000
,
0010
1000
0100
0110
,
0010
0001
0100
0101
,
0001
0000
1000
0000
0010
0100
0010
0000
,
0010
0100
0010
0000
1000
0000
0000
0000
,
0000
0000
0001
0000
,
0000
0000
0100
0000
,
0000
0000
0010
0000
,
0000
0000
1000
0001
,
0010
0001
1000
0100
,
1000
0001
0100
0010
,
0100
0001
1000
0010
,
1000
0001
1001
0000
,
0000
0000
0110
0000
,
0000
0000
0010
1000
,
0001
0100
0001
0010
,
0100
0010
0001
1000
,
0100
1000
0001
0100
,
0010
0100
0001
1000
,
0100
1000
0010
0100
,
0001
0010
0001
1000
,
0100
1000
1001
0000
,
0001
0100
0010
1010
,
1000
0010
0100
0101
,
0001
0010
0001
0011
,
0001
1000
0001
0000
1000
0001
1000
0000
,
0001
0101
0100
0010
,
1000
1010
0010
1000
,
0100
1100
1000
0001
,
0100
0010
0100
0000
0010
0100
0010
0000
,
1001
0000
0000
0000
;

//---------------dance-single - ----------------
#NOTEDATA:;
#CHARTNAME:;
#STEPSTYPE:dance-single;
#DESCRIPTION:;
#CHARTSTYLE:;
#DIFFICULTY:Beginner;
#METER:1;
#RADARVALUES:0.073965,0.120809,0.043146,0.000000,0.000000,60.000000,55.000000,5.000000,0.000000,0.000000,0.000000,0.000000,0.000000,0.000000,0.073965,0.120809,0.043146,0.000000,0.000000,60.000000,55.000000,5.000000,0.000000,0.000000,0.000000,0.000000,0.000000,0.000000;
#CREDIT:;
#NOTES:
0000
0000
0000
0000
,
0000
0000
0000
0000
,
0000
0000
0000
0000
,
0000
0000
0000
0000
,
0000
0000
0000
0000
,
1000
0000
0000
0000
,
0001
0000
0000
0000
,
1000
0000
0000
0000
,
0001
0000
0000
0000
,
0100
0000
0000
0000
,
0010
0000
0000
0000
,
1000
0000
0000
0000
,
0010
0000
0000
0000
,
1001
0000
0000
0000
,
0110
0000
0000
0000
,
1000
0000
0000
0000
,
0001
0000
0000
0000
,
0100
0000
0000
0000
,
0010
0000
0000
0000
,
1000
0000
0000
0000
,
0100
0000
0000
0000
,
1000
0000
0000
0000
,
0001
0000
0100
0000
,
0000
0000
0010
0000
,
0000
0000
1000
0000
,
0000
0000
0001
0000
,
1000
0000
0001
0000
,
0000
0000
0100
0000
,
0000
0000
0010
0000
,
0000
0000
1000
0000
,
0001
0000
1000
0000
,
0000
0000
0000
0000
,
0000
0000
0010
0000
,
0000
0000
0000
0000
,
0000
0000
0100
0000
,
0000
0000
0010
0000
,
0000
0000
1000
0000
,
0000
0000
0001
0000
,
0000
0000
1001
0000
,
0000
0000
0110
0000
,
0000
0000
0010
0000
,
0000
0000
0001
0000
,
0000
0000
1000
0000
,
0000
0000
0100
0000
,
0000
0000
1000
0000
,
0000
0000
0001
0000
,
0000
0000
0010
0000
,
0000
0000
0100
0000
,
1000
0000
0000
0000
,
0010
0000
0000
0000
,
0100
0000
0000
0000
,
0001
0000
1000
0000
,
0001
0000
0000
0000
,
0010
0000
0000
0000
,
0100
0000
0000
0000
,
1000
0000
0001
0000
,
0110
0000
0000
0000
;

//---------------dance-single - ----------------
#NOTEDATA:;
#CHARTNAME:;
#STEPSTYPE:dance-single;
#DESCRIPTION:;
#CHARTSTYLE:;
#DIFFICULTY:Challenge;
#METER:9;
#RADARVALUES:0.631168,0.604047,0.138068,0.000000,0.716227,512.000000,496.000000,16.000000,0.000000,0.000000,0.000000,0.000000,0.000000,0.000000,0.631168,0.604047,0.138068,0.000000,0.716227,512.000000,496.000000,16.000000,0.000000,0.000000,0.000000,0.000000,0.000000,0.000000;
#CREDIT:;
#NOTES:
// measure 0
0000
0000
0000
0000
,  // measure 1
0000
0000
0000
0000
,  // measure 2
0000
0000
0000
0000
,  // measure 3
1010
0000
0000
0010
0000
0000
0000
0000
1000
0000
0000
0000
0000
0000
0000
0000
,  // measure 4
1001
0000
0000
0001
0000
0000
0000
0000
0000
1000
0100
0001
0100
0000
0010
0000
,  // measure 5
0001
0000
1000
0010
0100
0001
0010
0001
0100
0000
0010
1000
0000
0000
0001
0000
,  // measure 6
1000
0100
1000
0000
0100
0000
1000
0000
0010
0000
0100
0001
0000
0000
0010
0000
,  // measure 7
0001
0100
0010
1000
0001
0000
1000
0001
0000
0010
0000
0001
0100
0000
0010
0000
,  // measure 8
1000
0000
0001
0100
0010
0000
1000
0010
0000
0100
0000
0001
0010
0000
0100
0000
,  // measure 9
0000
0000
0010
0000
0001
0000
1000
0010
0001
0000
0010
0100
0000
0000
0000
0010
,  // measure 10
0000
1000
0000
1000
0001
0000
0010
0100
0000
1000
0010
0000
0100
0000
0000
0000
,  // measure 11
0010
0000
1000
0000
0001
0000
0010
0100
1000
0000
0001
0000
1000
0000
0000
0001
,  // measure 12
0000
0100
0010
1000
0001
0000
0000
0010
0000
0001
0000
1000
0100
0000
1000
0000
,  // measure 13
1001
0000
0001
0000
1000
0010
0000
0010
0000
0010
1000
0100
0010
0001
1000
0000
,  // measure 14
0001
0000
1000
0000
0001
0100
0000
0100
0000
0100
0010
0100
0010
1000
0001
0000
,  // measure 15
0000
1000
0000
0001
0100
0000
0010
1000
0100
0000
0010
0001
0000
0000
0010
0001
,  // measure 16
1000
0000
0010
0000
0010
0000
0100
0000
0001
0000
1000
0001
0000
0000
0000
1000
,  // measure 17
0001
0100
0001
0000
0010
0000
0000
0100
0000
0010
0001
0000
1000
0000
0000
0000
,  // measure 18
0001
0000
1000
0001
0000
0001
0100
0001
0010
0000
0100
1000
0010
0000
0000
0000
,  // measure 19
0100
0001
0010
0100
0010
0000
0001
0000
1000
0010
0100
0001
1000
0000
0000
0000
,  // measure 20
0001
1000
0100
1000
0010
0000
0100
0010
1000
0001
0010
0000
0001
0000
1000
0001
,  // measure 21
0100
0000
0001
0100
0000
0010
1000
0000
0100
0000
0001
0000
0100
0000
1000
0000
,  // measure 22
1001
0001
0100
0010
1000
0000
1000
0000
0101
0000
0001
0100
0010
0000
0000
1000
,  // measure 23
0000
0000
0001
0000
0010
0000
0001
0000
1000
0000
0100
0000
1000
0000
0000
0010
,  // measure 24
0000
0000
0100
0000
0001
0000
0010
0000
0001
0000
1000
0001
0100
0000
0000
0010
,  // measure 25
0000
0100
0010
1000
0100
0000
0000
0000
0001
0010
1000
0000
1010
0000
0000
1000
,  // measure 26
0000
0010
0001
0000
0011
0000
0000
0000
0010
0000
0001
0100
0010
0000
0000
1000
,  // measure 27
0000
0000
0001
0000
0010
0000
0001
0000
1000
0000
0010
0000
0100
0000
0000
0010
,  // measure 28
0000
0000
1000
0000
0001
0000
0010
0000
0001
0000
0100
0010
1000
0000
0000
0001
,  // measure 29
0000
1000
0001
0010
0001
0000
0000
0000
0001
0010
1000
0000
1010
0000
0000
1000
,  // measure 30
0000
0010
0001
0000
0011
0000
0001
1000
0001
0000
0100
0010
0100
0010
0100
0000
,  // measure 31
0001
0000
1000
0100
0000
0000
0010
0001
0010
0000
0001
0000
1000
0000
0010
0000
,  // measure 32
1000
0000
0001
0010
0000
0000
0100
0000
0010
0000
0001
1000
0000
0010
0000
1000
,  // measure 33
0000
0100
0000
1000
0001
0000
0000
0000
1000
0010
1000
0000
0100
0000
0000
0010
,  // measure 34
0000
0001
0010
0001
1000
0000
0000
0000
0001
0000
1000
0001
0100
0000
0010
0000
,  // measure 35
1000
0000
0010
1000
0000
0100
0000
0000
0010
0001
0010
0000
0001
0000
1000
0000
,  // measure 36
0001
0100
0000
0010
0000
1000
0000
0000
0100
0000
0010
0001
0100
0000
0010
0100
,  // measure 37
0000
0010
1000
0000
0010
0000
0100
0000
0001
0000
1000
0001
0100
0000
0010
1000
,  // measure 38
0000
0100
0010
0000
0001
0000
1000
0000
0110
0000
0100
0000
0100
0001
0000
0001
,  // measure 39
0000
0001
0100
0010
1000
0001
0010
0000
0110
0000
0100
0000
0100
1000
0000
1000
,  // measure 40
0000
1000
0100
0010
0001
1000
0010
0000
0100
0000
0010
1000
0001
0000
0010
0000
,  // measure 41
0001
0000
1000
0010
0000
0000
0100
0000
0001
0100
0001
0010
0100
0000
0010
0000
,  // measure 42
0001
0000
1000
0010
0000
0000
0100
0000
0001
0000
1000
0010
1000
0000
0001
0100
,  // measure 43
0001
0000
0010
0100
0000
0000
0010
0001
0010
0000
0001
1000
0001
0000
0100
0000
,  // measure 44
0001
0000
0010
0100
0000
0000
0010
0001
1000
0000
1000
0001
0100
0000
0001
1000
,  // measure 45
0000
1000
0100
0000
1000
0000
0000
0000
0010
0000
1000
0001
0100
0000
0001
0100
,  // measure 46
0000
0010
1000
0000
0001
0000
0010
0001
0100
0000
0010
1000
0000
0001
0100
0000
,  // measure 47
0001
0000
0010
0000
1000
0000
0010
0000
1001
1000
0010
0100
0001
0000
0010
0000
,  // measure 48
0001
0000
0010
0100
1000
0000
0100
0000
1000
0000
0010
0000
0100
0000
0001
0000
,  // measure 49
1000
0010
0100
0001
0010
0100
0010
0001
,  // measure 50
1000
0000
0001
1000
0010
0000
0100
0000
0010
1000
0001
0100
0010
0000
1000
0000
,  // measure 51
0001
0100
1000
0000
1100
0000
1000
0100
0000
0100
0001
0000
1001
0000
0001
0000
,  // measure 52
1000
0000
0100
0010
0001
0000
0010
0000
0001
0000
0100
0000
0010
0000
1000
0000
,  // measure 53
0001
0100
0010
1000
0100
0010
0100
1000
,  // measure 54
0001
0000
1000
0001
0100
0000
0010
0000
0100
0001
1000
0010
0100
0000
0001
0000
,  // measure 55
1000
0010
0001
0000
0011
0000
0000
0001
0000
0001
0100
0010
1000
0000
0001
0000
,  // measure 56
0110
0000
0000
0000
;
