#VERSION:0.83;
#TITLE:Paper Planes;
#SUBTITLE:;
#ARTIST:Virtual Riot;
#TITLETRANSLIT:;
#SUBTITLETRANSLIT:;
#ARTISTTRANSLIT:;
#GENRE:;
#ORIGIN:;
#CREDIT:;
#BANNER:Paper Planes.png;
#BACKGROUND:Paper Planes-bg.png;
#PREVIEWVID:;
#JACKET:Paper Planes-jacket.png;
#CDIMAGE:;
#DISCIMAGE:;
#LYRICSPATH:;
#CDTITLE:cdtitle.png;
#MUSIC:Paper Planes.ogg;
#OFFSET:-10.964996;
#SAMPLESTART:10.973000;
#SAMPLELENGTH:10.971428;
#SELECTABLE:YES;
#BPMS:0.000=175.000;
#STOPS:;
#DELAYS:;
#WARPS:;
#TIMESIGNATURES:0.000=4=4;
#TICKCOUNTS:0.000=4;
#COMBOS:0.000=1;
#SPEEDS:0.000=1.000=0.000=0;
#SCROLLS:0.000=1.000;
#FAKES:;
#LABELS:0.000=Song Start;
#BGCHANGES:;
#KEYSOUNDS:;
#ATTACKS:
;

//---------------dance-single - ----------------
#NOTEDATA:;
#CHARTNAME:;
#STEPSTYPE:dance-single;
#DESCRIPTION:;
#CHARTSTYLE:;
#DIFFICULTY:Hard;
#METER:8;
#RADARVALUES:0.454287,0.497605,0.139951,0.101076,0.015550,409.000000,391.000000,18.000000,13.000000,0.000000,0.000000,0.000000,0.000000,0.000000,0.454287,0.497605,0.139951,0.101076,0.015550,409.000000,391.000000,18.000000,13.000000,0.000000,0.000000,0.000000,0.000000,0.000000;
#CREDIT:;
#NOTES:
1000
0001
0010
0001
0100
0000
0000
0010
,
1000
0100
1000
0000
0000
0010
0000
1001
,
0000
1000
0010
0100
0001
0000
0000
0010
,
0100
0001
1000
0000
0000
0010
0000
0101
,
0000
0100
0001
0010
0001
1000
0000
1000
,
0100
1000
0001
0000
1000
0010
1000
0100
,
0000
0100
0010
0100
0000
0010
0001
0010
,
0001
1000
0100
1000
0001
0010
0100
1000
,
0000
0001
0010
0001
1000
0000
0000
1000
,
0010
1000
0001
0000
0000
1000
0000
1100
,
0000
0100
0010
0001
0100
0000
0000
0010
,
0100
0001
1000
0000
0000
1000
0000
1001
,
0000
0001
0010
0001
1000
0001
0000
0100
,
0001
0010
0100
0000
0010
0001
1000
0100
,
0000
1000
0010
0100
0000
0010
1000
0001
,
0010
0001
1000
0001
1000
0100
0010
0001
,
1000
0000
1000
0000
0000
0010
0000
0100
,
0001
0001
0100
0000
0000
0001
0100
0010
,
1000
0000
0101
0000
0000
0001
0000
1000
,
0010
0010
1000
0000
0000
0010
0100
0001
,
1000
0000
0101
0000
0000
0001
0000
1000
,
0100
0100
1000
0000
0000
0010
0000
0010
,
1000
0000
1100
0000
0000
0100
0000
0010
,
0100
0100
0010
0000
0000
0100
1000
0001
,
2001
0000
3010
0000
0000
0101
0000
0100
,
0010
1000
0001
0000
0000
1000
0100
0010
,
0001
0000
0011
0000
0000
1001
0000
1000
,
0001
0001
0010
0000
0000
0001
0010
0100
,
1000
0000
0101
0000
0000
1010
0000
0010
,
0100
0100
0001
0000
0000
0100
0001
1000
,
0010
0000
0101
0000
0000
0001
0000
0100
,
0010
1000
0001
0000
0000
1000
0100
0010
,
0001
1000
0000
0001
0100
0000
0001
1000
,
0000
0100
0000
1000
0000
0001
0000
1000
,
0000
0000
0000
0000
,
0000
0000
0000
0000
,
1000
0010
0000
0010
0100
0000
0100
0001
,
0000
1000
0000
0001
0000
0010
0000
0100
,
0000
0000
0000
0000
,
0000
0000
0000
0000
,
1000
0000
0010
0000
0100
0000
0000
0000
0001
0000
0000
1000
0010
0000
0000
0000
,
0100
0000
0010
1000
0001
0000
0000
0000
,
1000
0000
0100
0000
1000
0000
0000
0000
0010
0000
0000
0100
0001
0000
0000
0000
,
0001
0000
0010
0100
1000
0001
0100
0000
,
0000
0000
0100
0000
0010
0000
1000
0000
0001
0000
0000
1000
0100
0000
0000
0000
,
0010
0000
0100
1000
0001
0000
0000
0000
,
0000
0000
1000
0000
0001
0000
1000
0000
0010
0000
0000
0100
0001
0000
0000
0000
,
1000
0000
0010
0100
0001
0000
2000
0000
,
3001
0100
0010
1000
0100
0000
0010
0001
,
0100
0010
1000
0000
0010
1000
0000
0101
,
0000
0001
0010
0001
1000
0000
0001
1000
,
0100
1000
0010
0000
0100
0001
0000
0011
,
0000
0010
0100
0100
0010
0001
0000
1000
,
0001
0100
1000
0000
0100
0100
0010
1000
,
0000
0001
0010
0001
0000
0010
0100
1000
,
0010
0100
0001
1000
0001
0010
0100
1000
,
0001
0100
0001
1000
0010
0000
0100
0010
,
1000
0010
0100
0000
0010
1000
0000
1001
,
0000
1000
0010
0100
0010
0000
0100
0001
,
0100
0010
1000
0000
0001
0100
0000
1001
,
0000
0001
0001
0010
0001
1000
0000
1000
,
0100
0010
0100
0000
0010
0100
1000
0001
,
0000
1000
0001
0100
0000
0001
1000
0100
,
0010
0100
1000
0010
1000
0100
0010
0001
,
1000
0000
0001
0000
0000
1000
0000
0001
,
1000
1000
0001
0000
0000
1000
0000
0001
,
0100
0000
0100
0000
0000
0010
0000
0100
,
0010
0010
0100
0000
0000
0010
0100
0001
,
1000
0000
1000
0000
0000
0001
0000
1000
,
0001
0001
1000
0000
0000
0001
0000
0100
,
0010
0000
0010
0000
0000
0100
0000
0010
,
0100
0100
0010
0000
0000
0100
0010
1000
,
0002
0000
0000
0000
0003
0000
0000
2000
,
0000
0000
0000
0000
3000
0200
0000
0320
,
0000
0000
0000
0000
0030
0000
0000
0020
,
0000
0000
0000
0000
0030
0020
0000
0032
,
0000
0000
0000
0000
0003
0000
0000
0002
,
0000
0000
0000
0000
0003
0002
0000
2003
,
0000
0000
0000
0000
3000
0000
0000
2000
,
0000
0000
0000
0000
,
3001
0000
0000
0000
;

//---------------dance-single - ----------------
#NOTEDATA:;
#CHARTNAME:;
#STEPSTYPE:dance-single;
#DESCRIPTION:;
#CHARTSTYLE:;
#DIFFICULTY:Medium;
#METER:5;
#RADARVALUES:0.302117,0.404304,0.000000,0.007775,0.000000,272.000000,272.000000,0.000000,1.000000,0.000000,0.000000,0.000000,0.000000,0.000000,0.302117,0.404304,0.000000,0.007775,0.000000,272.000000,272.000000,0.000000,1.000000,0.000000,0.000000,0.000000,0.000000,0.000000;
#CREDIT:;
#NOTES:
1000
0100
1000
0000
,
0010
0000
1000
0000
0000
0010
0000
0100
,
0000
0001
0100
0000
,
0001
0000
1000
0000
0000
0001
0000
1000
,
0000
0100
1000
0000
0010
0000
0000
0000
,
0100
0000
0001
0000
0100
0000
0000
0010
,
0000
0000
0000
1000
0000
0000
0000
0001
,
0000
0000
1000
0000
0100
1000
0100
0000
,
0000
1000
0010
0000
0100
0000
0000
0100
,
0001
0000
0100
0000
0000
0010
0000
1000
,
0000
0001
1000
0000
0100
0000
0000
1000
,
0010
0000
0100
0000
0000
0001
0000
0100
,
0000
0001
1000
0000
,
0100
1000
0010
0100
,
0001
0100
0001
0100
,
0010
1000
0100
0001
,
0100
0000
0100
0000
0000
0000
0000
1000
,
0001
0000
1000
0000
0000
0001
0100
0010
,
1000
0000
0010
0000
0000
0100
0000
0001
,
0100
0000
0100
0000
0000
0010
1000
0000
,
0001
0000
1000
0000
0000
0100
0000
1000
,
0100
1000
0000
0100
,
0010
0000
0001
0000
0000
1000
0000
0001
,
0100
0000
0010
0000
0000
1000
0010
0000
,
0100
0000
0001
0000
0000
1000
0000
0001
,
1000
0000
0100
0000
0000
1000
0010
0000
,
0100
0000
0001
0000
0000
1000
0000
0001
,
0100
0000
0001
0000
0000
1000
0000
0100
,
1000
0000
0010
0000
0000
0100
0000
0010
,
0100
0000
0001
0000
0000
1000
0100
0000
,
1000
0000
0001
0000
0000
0100
0000
0001
,
0100
0000
0010
0000
0000
0100
0010
1000
,
0001
1000
0000
0001
0100
0000
0001
0100
,
0000
0010
0000
1000
0000
0100
0000
1000
,
0000
0000
0000
0000
,
0000
0000
0000
0000
,
1000
0100
0000
0010
0001
0000
0001
1000
,
0000
0001
0000
1000
0000
0001
0000
0100
,
0000
0000
0000
0000
,
0000
0000
0000
0000
,
0001
0100
1000
0100
,
0001
0010
0100
0000
,
0010
0001
0010
1000
,
0010
0000
0100
0000
1000
0000
0001
1000
,
0010
0001
0010
1000
,
0100
0100
0100
0000
,
1000
0100
0001
0100
,
0010
0010
0010
0100
,
1000
0100
0010
0000
,
0010
0000
0001
0000
0000
1000
0000
0001
,
0000
0100
0001
0000
,
0100
0000
0001
0000
0000
0100
0000
0010
,
0000
1000
0010
0000
,
0100
0000
0001
0000
1000
0000
0001
1000
,
0000
0001
1000
0001
0000
1000
0001
1000
,
0000
0000
0001
0000
0100
0010
1000
0000
,
0010
0100
0001
0000
,
0100
0000
0010
0000
0000
1000
0000
0010
,
0000
0100
0100
0000
,
0001
0000
0001
0000
0000
1000
0000
0100
,
0000
1000
0010
0000
,
0100
0000
0001
0000
1000
0000
0001
0100
,
0000
0100
0010
1000
0000
0010
1000
0010
,
0000
0010
0100
0001
1000
0000
0100
0000
,
1000
0000
1000
0000
0000
0000
0000
0100
,
1000
1000
0000
0010
,
0100
0000
0100
0000
0000
0001
0000
0100
,
0001
0001
0000
0100
,
0010
0000
0010
0000
0000
1000
0000
0010
,
1000
0000
1000
0000
0000
0010
0000
0100
,
0001
0000
0001
0000
0000
1000
0000
1000
,
0001
0000
0001
0000
0000
1000
0000
0001
,
0100
0000
0000
0000
0000
0000
0000
0010
,
0000
0000
0000
0000
0000
1000
0000
0001
,
0000
0000
0000
0000
0000
0000
0000
0001
,
0000
0000
0000
0000
0000
0010
0000
0100
,
0000
0000
0000
0000
0000
0000
0000
0100
,
0000
0000
0000
0000
0000
0100
0000
0010
,
0000
0000
0000
0000
0000
0000
0000
0020
,
0000
0000
0000
0000
,
0030
0000
0000
0000
;

//---------------dance-single - ----------------
#NOTEDATA:;
#CHARTNAME:;
#STEPSTYPE:dance-single;
#DESCRIPTION:;
#CHARTSTYLE:;
#DIFFICULTY:Easy;
#METER:4;
#RADARVALUES:0.213259,0.248803,0.000000,0.023325,0.000000,192.000000,192.000000,0.000000,3.000000,0.000000,0.000000,0.000000,0.000000,0.000000,0.213259,0.248803,0.000000,0.023325,0.000000,192.000000,192.000000,0.000000,3.000000,0.000000,0.000000,0.000000,0.000000,0.000000;
#CREDIT:;
#NOTES:
1000
0010
0100
0000
,
0010
0000
0100
0000
0000
0010
0000
0100
,
0000
0001
0100
0000
,
0001
0000
0100
0000
0000
0001
0000
0001
,
0000
1000
0100
0000
,
1000
0000
0010
0100
,
0001
0000
0001
0000
,
0001
0010
0100
0010
,
0001
1000
0010
0000
,
1000
0000
0010
0000
0000
0100
0000
0001
,
0000
1000
0001
0000
,
1000
0000
0001
0000
0000
1000
0000
0100
,
0000
1000
0010
0000
,
0100
0001
1000
0000
,
0001
0000
1000
0000
,
0010
0100
0001
1000
,
0001
0001
0000
0000
,
1000
1000
0000
0000
,
0010
0100
0000
0010
,
1000
0001
0000
0010
,
0001
0001
0000
0010
,
0100
1000
0000
0100
,
1000
1000
0000
0100
,
1000
0010
0000
0100
,
0001
0001
0000
1000
,
0010
0001
0000
0001
,
0010
0010
0000
0100
,
1000
0100
0000
0001
,
0100
0100
0000
0010
,
1000
1000
0000
0001
,
1000
1000
0000
0100
,
0010
0010
0000
0100
,
0020
0000
0000
0000
,
0000
0000
0000
0000
0000
0000
0000
0030
,
0000
0000
0000
0000
,
0000
0000
0000
0000
,
0200
0000
0000
0000
,
0000
0000
0000
0000
0000
0000
0000
0300
,
0000
0000
0000
0000
,
0000
0000
0000
0000
,
0010
0000
0001
0000
,
1000
0000
0001
0000
,
0100
0000
0001
0000
,
1000
1000
1000
0000
,
0100
0000
1000
0000
,
0010
0000
0010
0000
,
0100
0000
0001
0000
,
1000
1000
1000
0000
,
0001
1000
0010
0000
,
1000
0000
0010
0000
0000
0100
0000
0100
,
0000
0001
0100
0000
,
0001
0000
0100
0000
0000
0010
0000
0010
,
0000
0100
0010
0000
,
1000
0000
0001
1000
,
0100
0000
0100
0000
,
0100
0010
0001
0010
,
0100
0010
0010
0000
,
0010
0000
0010
0000
0000
0100
0000
0100
,
0000
1000
0001
0000
,
1000
0000
0001
0000
0000
0100
0000
0100
,
0000
0001
0010
0000
,
0001
1000
0100
1000
,
0010
0000
0100
0000
,
0010
0100
0001
1000
,
0001
0001
0000
0000
,
1000
1000
0000
0010
,
1000
1000
0000
0000
,
0001
0001
0000
0000
,
0100
0100
0000
0000
,
0010
0010
0000
0000
,
0100
0100
0000
0000
,
0001
0001
0000
1000
,
0001
0000
0000
0000
0000
0000
0000
1000
,
0000
0000
0000
0000
0000
0010
0000
0100
,
0000
0000
0000
0000
0000
0000
0000
0100
,
0000
0000
0000
0000
0000
0010
0000
1000
,
0000
0000
0000
0000
0000
0000
0000
0001
,
0000
0000
0000
0000
0000
1000
0000
0010
,
0000
0000
0000
0000
0000
0000
0000
0200
,
0000
0000
0000
0000
,
0300
0000
0000
0000
;

//---------------dance-single - ----------------
#NOTEDATA:;
#CHARTNAME:;
#STEPSTYPE:dance-single;
#DESCRIPTION:;
#CHARTSTYLE:;
#DIFFICULTY:Beginner;
#METER:1;
#RADARVALUES:0.098855,0.155502,0.007775,0.000000,0.000000,89.000000,88.000000,1.000000,0.000000,0.000000,0.000000,0.000000,0.000000,0.000000,0.098855,0.155502,0.007775,0.000000,0.000000,89.000000,88.000000,1.000000,0.000000,0.000000,0.000000,0.000000,0.000000,0.000000;
#CREDIT:;
#NOTES:
1000
0000
0000
0000
,
1000
0000
0000
0000
,
0001
0000
0000
0000
,
0001
0000
0000
0000
,
0100
0000
0000
0000
,
0010
0000
0000
0000
,
1000
0000
1000
0000
,
1000
0000
0001
0000
,
0100
0000
0000
0000
,
0100
0000
0000
0000
,
0010
0000
0000
0000
,
0010
0000
0000
0000
,
1000
0000
0000
0000
,
0001
0000
0000
0000
,
0100
0000
0100
0000
,
0010
0000
0000
0000
,
1000
0000
0000
0000
,
1000
0000
0000
0000
,
0001
0000
0000
0000
,
0100
0000
0000
0000
,
0010
0000
0000
0000
,
0100
0000
0000
0000
,
0001
0000
0000
0000
,
1000
0000
0000
0000
,
0001
0001
0000
0000
,
1000
0000
0000
0000
,
0010
0010
0000
0000
,
0100
0000
0000
0000
,
0010
0010
0000
0000
,
1000
0000
0000
0000
,
0001
0001
0000
0000
,
1000
0000
0000
0000
,
0010
0000
0000
0000
,
0000
0000
0000
0000
,
0000
0000
0000
0000
,
0000
0000
0000
0000
,
0100
0000
0000
0000
,
0000
0000
0000
0000
,
0000
0000
0000
0000
,
0000
0000
0000
0000
,
0010
0000
0000
0000
,
1000
0000
0000
0000
,
0001
0000
0000
0000
,
1000
0000
0000
0000
,
0100
0000
0000
0000
,
1000
0000
0000
0000
,
0010
0000
0000
0000
,
0100
0000
0000
0000
,
0001
0000
0000
0000
,
0001
0000
0000
0000
,
1000
0000
0000
0000
,
1000
0000
0000
0000
,
0010
0000
0000
0000
,
0100
0000
0000
0000
,
0010
0000
0000
0000
,
1000
0000
0010
0000
,
0100
0000
0000
0000
,
0100
0000
0000
0000
,
0001
0000
0000
0000
,
0001
0000
0000
0000
,
1000
0000
0000
0000
,
0100
0000
0000
0000
,
1000
0000
0000
0000
,
0001
0000
1000
0000
,
0010
0010
0000
0000
,
0100
0000
0000
0000
,
0010
0010
0000
0000
,
0100
0000
0000
0000
,
0010
0010
0000
0000
,
0100
0000
0000
0000
,
0010
0010
0000
0000
,
0100
0000
0000
0000
,
0001
0000
0000
0000
,
0001
0000
0000
0000
,
1000
0000
0000
0000
,
1000
0000
0000
0000
,
0010
0000
0000
0000
,
0010
0000
0000
0000
,
0100
0000
0000
0000
,
0100
0000
0000
0000
,
1001
0000
0000
0000
;

//---------------dance-single - ----------------
#NOTEDATA:;
#CHARTNAME:;
#STEPSTYPE:dance-single;
#DESCRIPTION:;
#CHARTSTYLE:;
#DIFFICULTY:Challenge;
#METER:9;
#RADARVALUES:0.617564,0.622007,0.124401,0.217702,0.314891,556.000000,540.000000,16.000000,28.000000,0.000000,0.000000,0.000000,0.000000,0.000000,0.617564,0.622007,0.124401,0.217702,0.314891,556.000000,540.000000,16.000000,28.000000,0.000000,0.000000,0.000000,0.000000,0.000000;
#CREDIT:;
#NOTES:
// measure 0
0001
0010
1000
0010
0100
0000
0000
0100
,  // measure 1
1000
0001
0100
0000
0000
0110
0000
1010
,  // measure 2
0000
1000
0010
0001
0010
0000
0000
0010
,  // measure 3
0100
0001
1000
0000
0000
0110
0000
1001
,  // measure 4
0000
1000
0100
1000
0010
0100
0000
0010
,  // measure 5
0100
0001
1000
0000
0001
1000
0100
2000
,  // measure 6
0000
3010
1000
0020
0000
1030
0010
0100
,  // measure 7
0001
0000
0010
0000
0100
0000
1000
0000
0001
1000
0010
0100
0001
0010
0100
0010
,  // measure 8
0000
0001
1000
0010
0100
0000
0000
0010
,  // measure 9
0100
0001
0010
0000
0100
0110
0000
1100
,  // measure 10
0000
1000
0010
0001
0010
0000
0100
0001
,  // measure 11
0010
1000
0010
0000
0100
0110
0000
1100
,  // measure 12
0000
1000
0010
0100
0010
1000
0000
0001
,  // measure 13
0010
0001
0100
0000
0010
1000
0001
0200
,  // measure 14
0000
0310
1000
0200
0000
1300
0010
0100
,  // measure 15
0001
0000
0010
0000
0001
0000
1000
0000
0100
0010
0001
0100
0010
1000
0001
0100
,  // measure 16
0001
0010
0100
0000
0000
1000
0000
0001
,  // measure 17
1000
0000
1000
0000
0010
0000
0000
0000
0000
0000
0100
0000
0001
0100
0000
0010
,  // measure 18
1000
0000
1000
0000
0100
0010
0000
0001
0100
0000
0010
0000
1000
0000
0001
0000
,  // measure 19
0010
0000
0001
0000
0100
0010
0000
0100
0001
0000
2000
0000
3200
0000
0320
0000
,  // measure 20
0031
0000
0100
0000
0010
1000
0000
1000
0001
0000
0010
0000
0001
0000
0100
0000
,  // measure 21
0010
0000
1000
0000
0100
1000
0000
0100
0010
0000
0002
0000
0000
0000
2003
0000
,  // measure 22
3010
0000
0100
0000
0001
0100
0000
0010
1000
0000
0100
0000
1000
0000
0001
0000
,  // measure 23
0010
0000
0001
0000
0100
0010
0000
0100
0001
0000
2000
0000
3020
0000
0230
0000
,  // measure 24
0301
0000
1000
0000
0100
0010
0000
0010
0001
0000
0100
0000
0010
0000
1000
0000
,  // measure 25
0100
0000
0010
0000
0001
0010
0000
0100
1000
0000
0010
0000
0100
0000
0001
0000
,  // measure 26
1000
0000
0001
0000
0010
0100
0000
1000
0010
0000
0100
0000
0001
0000
1000
0000
,  // measure 27
0100
0000
1000
0000
0010
0100
0000
0010
1000
0000
0002
0000
0023
0000
0230
0000
,  // measure 28
1300
0000
0001
0000
1000
0100
0000
0010
0100
0000
1000
0000
0010
0000
0100
0000
,  // measure 29
0001
0000
1000
0000
0001
1000
0000
0010
0100
0000
0020
0000
0000
0000
2030
0000
,  // measure 30
3100
0000
0010
0000
0001
0010
0000
0100
1000
0000
0010
0000
0100
0000
0001
0000
,  // measure 31
0100
0010
2000
0000
0000
3100
0010
0001
,  // measure 32
0100
0000
0000
0100
0000
0000
0001
0000
0000
0000
0010
0000
0000
0010
0000
0000
,  // measure 33
0100
0000
0000
0100
0000
0000
1000
0000
0000
0000
0001
0000
0000
0001
0000
0000
,  // measure 34
0010
0000
0000
0010
0000
0000
0100
0000
0000
0000
0010
0000
0000
0010
0000
0000
,  // measure 35
0001
0000
0000
0001
0000
0000
1000
0000
0000
0000
0010
0000
0000
0010
0000
0000
,  // measure 36
1000
0000
0000
0001
0000
0000
0100
0000
0000
0000
0010
0000
0000
1000
0000
0000
,  // measure 37
0100
0000
0000
0010
0000
0000
0100
0000
0000
0000
0010
0000
0000
0001
0000
0000
,  // measure 38
0100
0000
0000
0010
0000
0000
1000
0000
0000
0000
0001
0000
0000
0010
0000
0000
,  // measure 39
0001
0000
0000
0100
0000
0000
0010
0000
0000
0000
0100
0000
0000
0010
0000
0000
,  // measure 40
1000
0000
0100
0000
0010
0000
0001
0000
0100
0000
0010
1000
0001
0000
0000
0100
,  // measure 41
0010
0000
0000
0010
1000
0000
0001
0000
0100
0000
0000
0000
0000
0000
0000
0000
,  // measure 42
0001
0000
0010
0000
0100
0000
1000
0000
0100
0000
0010
0001
1000
0000
0000
0001
,  // measure 43
0100
0000
0000
0100
0010
0000
1000
0000
0001
0000
0010
0000
0200
0000
0000
0000
,  // measure 44
0310
0000
0001
0000
0100
0000
0010
0000
1000
0000
0100
1000
0001
0000
0000
1000
,  // measure 45
0010
0000
0000
0100
0001
0000
0010
0000
0001
0000
0000
0000
0000
0000
0000
0000
,  // measure 46
0010
0000
0001
0000
0100
0000
0001
0000
1000
0000
0100
1000
0001
0000
0000
0100
,  // measure 47
0010
0000
0000
0010
1000
0000
0100
0000
1000
0000
0001
1000
0020
0000
0000
0000
,  // measure 48
1030
0100
0001
0100
0010
0000
0000
0010
,  // measure 49
0001
1000
0010
0000
0000
0110
0000
0101
,  // measure 50
0000
0001
0100
1000
0100
0000
0000
0100
,  // measure 51
0010
1000
0001
0000
0000
0110
0000
1001
,  // measure 52
0000
0001
0010
0001
0100
0010
0000
0100
,  // measure 53
0010
1000
0001
0000
1000
0001
0010
0002
,  // measure 54
0000
0103
0001
0200
0000
0301
0100
0010
,  // measure 55
1000
0000
0100
0000
0010
0000
0001
0000
1000
0001
0100
0010
1000
0100
0010
0100
,  // measure 56
0000
1000
0001
0100
0010
0000
0000
0100
,  // measure 57
0010
1000
0100
0000
0010
0110
0000
0011
,  // measure 58
0000
0001
0100
1000
0100
0000
0010
1000
,  // measure 59
0100
0001
0100
0000
0010
0110
0000
0011
,  // measure 60
0000
0001
0100
0010
0100
0001
0000
1000
,  // measure 61
0100
1000
0010
0000
0100
0001
1000
0020
,  // measure 62
0000
0130
0001
0020
0000
0031
0100
0010
,  // measure 63
1000
0000
0100
0000
1000
0000
0001
0000
0010
0100
1000
0010
0100
0001
1000
0010
,  // measure 64
1000
0001
0100
0000
0000
0010
0000
0100
,  // measure 65
0001
0010
0001
0000
0000
0010
0100
1000
,  // measure 66
0001
1000
0001
0000
0000
0100
0000
0100
,  // measure 67
0010
0010
1000
0000
0000
0100
0010
0001
,  // measure 68
1000
0001
0100
0000
0000
0001
0000
0001
,  // measure 69
0010
0001
1000
0000
0000
0100
0000
0100
,  // measure 70
0010
0001
0010
0000
0000
0001
0000
0010
,  // measure 71
0001
0001
0100
0000
0000
0100
0010
1000
,  // measure 72
0001
0000
1000
0000
0010
0000
0100
0000
0001
0000
0000
0010
0001
0000
0000
0001
,  // measure 73
0100
0000
0010
1000
0001
0000
0000
0000
,  // measure 74
1000
0000
0001
0000
0100
0000
0001
0000
0010
0000
0000
0100
1000
0000
0000
0000
,  // measure 75
1000
0100
1000
0010
0100
0001
0020
0000
,  // measure 76
0130
0000
1000
0000
0010
0000
0100
0000
0001
0000
0000
1000
0100
0000
0000
0000
,  // measure 77
0020
0000
0031
1000
0010
0100
0000
0200
,  // measure 78
0000
0000
0000
0000
0300
0000
0000
0200
,  // measure 79
0000
0000
0000
0000
0310
0000
1000
0000
0001
0100
0010
1000
0001
0010
0100
1000
,  // measure 80
0010
0000
0000
0000
;
