#VERSION:0.81;
#TITLE:PUZZLER;
#SUBTITLE:;
#ARTIST:Electronic Boutique;
#TITLETRANSLIT:;
#SUBTITLETRANSLIT:;
#ARTISTTRANSLIT:;
#GENRE:;
#ORIGIN:;
#CREDIT:;
#BANNER:Puzzler.png;
#BACKGROUND:Puzzler-bg.png;
#PREVIEWVID:;
#JACKET:Puzzler-jacket.png;
#CDIMAGE:;
#DISCIMAGE:;
#LYRICSPATH:;
#CDTITLE:;
#MUSIC:Puzzler .mp3;
#OFFSET:0.389001;
#SAMPLESTART:23.606033;
#SAMPLELENGTH:12.000000;
#SELECTABLE:YES;
#BPMS:0.000=130.000;
#STOPS:;
#DELAYS:;
#WARPS:;
#TIMESIGNATURES:0.000=4=4;
#TICKCOUNTS:0.000=4;
#COMBOS:0.000=1;
#SPEEDS:0.000=1.000=0.000=0;
#SCROLLS:0.000=1.000;
#FAKES:;
#LABELS:0.000=Song Start;
#BGCHANGES:1.000=Puzzler BGA.avi=1.000=0=0=1=====,
99999=-nosongbg-=1.000=0=0=0 // don't automatically add -songbackground-
;
#KEYSOUNDS:;
#ATTACKS:
;

//---------------dance-single - ----------------
#NOTEDATA:;
#CHARTNAME:;
#STEPSTYPE:dance-single;
#DESCRIPTION:;
#CHARTSTYLE:;
#DIFFICULTY:Hard;
#METER:7;
#RADARVALUES:0.427653,0.684131,0.095202,0.423119,0.179826,234.000000,9.000000,40.000000,0.000000,0.000000,0.000000,0.000000,0.000000,0.427653,0.684131,0.095202,0.423119,0.179826,234.000000,9.000000,40.000000,0.000000,0.000000,0.000000,0.000000,0.000000;
#CREDIT:;
#NOTES:
0000
0000
0000
0000
,
0000
0001
1000
0000
0000
0001
1000
0000
,
0000
0001
1000
0000
0000
0001
1000
0000
,
0000
1000
0001
0000
0000
1000
0001
0000
,
1000
0000
0000
0000
0000
0000
0100
0100
,
1100
0000
0000
0000
1000
0000
0000
0010
0000
0000
0000
0000
0100
0000
0000
0000
,
0001
0000
0000
0000
1000
0000
0100
0000
1000
0000
0000
0010
0000
0000
0100
0000
,
0001
0000
0001
0000
0010
0000
0000
0001
0000
0000
0000
0000
0000
0000
0000
0000
,
1000
0000
0100
0000
0010
0000
0100
0000
1000
0001
0000
0000
0000
0000
0000
0000
,
0100
0000
0010
0000
0100
0001
0000
1000
0000
0000
0000
0000
0000
0000
0000
0000
,
0100
0000
1000
0000
0010
0000
0001
0000
0010
0000
0100
0000
0000
1001
0000
0001
,
0100
0000
0010
0000
1000
0000
0000
0001
0000
0000
0000
0000
0000
0000
0000
0000
,
2000
3100
0002
0103
,
0010
0000
1000
0000
0001
0000
0000
0010
0000
0000
0100
0000
0000
0000
0000
0000
,
0100
0000
0010
0000
0001
0000
1000
0000
0100
0000
0000
0010
0000
0000
0000
0000
,
0100
0000
1000
0000
0001
0000
0000
1000
0000
0000
0000
0000
0000
0000
0000
0000
,
0001
0100
0010
0100
0020
0000
2030
0000
,
3001
0000
0000
0000
1000
0000
0000
0010
0000
0000
0000
0000
0000
0000
0000
0000
,
0100
0000
0001
0000
0100
0000
0010
0000
1000
0000
0000
0100
0000
1000
0000
0000
,
0001
0000
0100
0000
0001
0000
0000
0010
0000
0000
0000
0000
0000
0000
0000
0000
,
0200
0310
0020
0032
,
0000
0000
0000
0003
,
2001
0000
0000
0100
0000
0200
0000
3300
,
0102
0000
0200
0300
0000
0200
0000
0303
,
2001
0000
0000
3200
0300
0010
0000
0010
,
0000
0010
0100
0010
0200
0000
2300
0000
,
3020
0000
0000
0230
0000
0302
0000
0000
,
2003
0000
0200
0300
0000
0200
0000
3300
,
0100
0010
0000
0001
0000
1000
0000
1000
,
0000
0001
1000
0001
1000
0000
0110
0000
,
0001
0000
0000
0000
1000
0000
0000
0100
0000
0100
0000
0000
1000
0000
0001
0000
,
0000
0000
0100
0000
0010
0000
1000
0000
0100
0000
0100
0000
0010
0100
0000
0000
,
0000
0010
0000
0000
0100
0000
1000
0000
0001
0000
0001
0000
0010
0001
0000
0000
,
0000
0010
0100
1000
0001
0100
0001
0000
,
1000
0000
0100
0000
0010
0000
0100
0000
0000
1000
0000
0000
0020
0000
0000
0000
,
0030
0000
0100
0000
0001
0000
0000
1000
0000
0000
0100
0000
1000
0000
0001
0000
,
0020
0030
0020
0030
0020
0030
0020
0030
0020
0030
0020
0030
0020
0030
0020
0030
,
0010
0000
0000
0100
0000
0000
1000
0000
0000
0100
0000
0000
0010
0000
0100
0000
1000
0000
0001
0000
0100
0000
0001
0000
,
0010
0000
0100
0000
1000
0000
0000
2002
,
0000
0000
0000
0000
0000
3003
0001
0001
,
0101
0000
0100
0000
0001
0000
0000
0010
0000
0000
0000
0000
0100
0000
1000
0000
,
0001
0000
0000
0000
1000
0000
0100
0000
1000
0000
0000
0010
0000
0000
0100
0000
,
0001
0000
0001
0000
0100
0000
0000
0010
0000
0000
0000
0000
0100
0000
0010
0000
,
1000
0000
0100
1000
0020
0000
0000
0000
,
1030
0000
1000
0000
0001
0000
0000
0100
0000
0000
0000
0000
0000
0000
0000
0000
,
0000
0000
0000
0000
0010
0000
1000
0000
0001
0000
0000
0100
0000
0010
0000
0000
,
0100
0000
0010
0000
1000
0000
0000
0100
0000
0000
0000
0000
0000
0000
0000
0000
,
2000
3200
0320
0032
,
1003
0100
0001
0100
1000
0010
0000
2002
,
0000
0000
0000
3003
;

//---------------dance-single - ----------------
#NOTEDATA:;
#CHARTNAME:;
#STEPSTYPE:dance-single;
#DESCRIPTION:;
#CHARTSTYLE:;
#DIFFICULTY:Medium;
#METER:5;
#RADARVALUES:0.341518,0.315753,0.158670,0.116358,0.000000,200.000000,15.000000,11.000000,0.000000,0.000000,0.000000,0.000000,0.000000,0.341518,0.315753,0.158670,0.116358,0.000000,200.000000,15.000000,11.000000,0.000000,0.000000,0.000000,0.000000,0.000000;
#CREDIT:;
#NOTES:
0000
0000
0000
0000
,
0000
0000
0000
0000
,
0000
0000
0000
0000
,
0000
0000
0000
0000
,
0000
0000
0000
0000
0000
0000
1000
0001
,
0100
0001
0100
0010
0100
0000
0000
0000
,
0010
0000
0100
0010
1000
0000
0010
0000
,
0100
0001
0100
0001
0100
0000
0000
0000
,
0010
0000
1000
0001
0100
0000
0000
0000
,
0010
1000
0010
1000
0010
0000
0000
0000
,
1000
0000
0100
1000
0010
0000
0100
0000
,
0001
1000
0001
1000
0001
0000
0000
0000
,
2000
3100
0200
0310
,
0001
0010
0001
0010
0001
0000
0000
0000
,
0100
0000
0010
0100
0001
0000
1000
0000
,
0100
1000
0100
1000
0100
0000
0000
0000
,
1000
0000
0010
0100
0002
0000
2003
0000
,
3001
0000
0100
0001
0010
0000
0000
0000
,
0100
0000
0010
0001
0010
0000
0100
0000
,
1000
0100
1000
0100
1000
0000
0100
0000
,
1000
0010
0100
0002
,
0000
0000
0000
0000
0000
0000
0000
0003
,
1000
0000
0000
0001
0000
0100
0000
0000
,
1010
0000
0101
0000
0000
1001
0000
0000
,
0001
0000
0000
0011
0000
0010
0000
0010
,
0000
0010
0100
0010
0100
0000
1000
0000
,
1100
0000
0000
0010
0000
0100
0000
0000
,
1001
0000
0101
0000
0000
1001
0000
0000
,
1000
0001
0000
0100
0000
0001
0000
0100
,
0000
0001
0100
0100
0001
0000
0100
0000
,
0010
0000
1010
0000
1000
0000
0010
0100
,
0001
0000
1000
0000
0100
1000
0100
0000
,
0000
1000
0010
0000
0100
0000
0001
0000
,
0000
1000
0001
0000
0100
0000
0001
0000
,
1000
0000
0001
0000
0100
0001
0100
0000
,
0100
0000
0010
0000
1000
0001
0010
0000
,
0100
0010
0100
0010
0100
0010
0100
0010
,
0100
1000
0100
1000
,
0110
0000
1001
0000
0110
0000
0000
2002
,
0000
0000
0000
3003
,
1001
0000
0001
0000
1000
0100
1000
0000
,
0010
0000
0100
0000
0001
0100
0001
0000
,
0100
0000
0010
0000
0100
0001
0100
0000
,
0010
0000
1000
0000
0001
0001
1000
0000
,
0001
0000
0001
0100
0010
0000
0100
0000
,
0010
0000
0100
0010
1000
0000
0001
0000
,
1000
0000
0100
0010
0001
0000
0010
0000
,
0002
0103
0200
0310
,
0100
0010
1000
0001
0100
0010
0000
2002
,
0000
0000
0000
3003
;

//---------------dance-single - ----------------
#NOTEDATA:;
#CHARTNAME:;
#STEPSTYPE:dance-single;
#DESCRIPTION:;
#CHARTSTYLE:;
#DIFFICULTY:Easy;
#METER:2;
#RADARVALUES:0.207026,0.209973,0.116358,0.211560,0.000000,106.000000,11.000000,20.000000,0.000000,0.000000,0.000000,0.000000,0.000000,0.207026,0.209973,0.116358,0.211560,0.000000,106.000000,11.000000,20.000000,0.000000,0.000000,0.000000,0.000000,0.000000;
#CREDIT:;
#NOTES:
0000
0000
0000
0000
,
0000
0000
0000
0000
,
0000
0000
0000
0000
,
0000
0000
0000
0000
,
0000
0000
0000
0000
,
1001
0001
0010
0000
,
0000
0001
0100
0010
,
0000
0100
0010
0000
,
0100
0010
1000
0000
,
0001
1000
0100
0000
,
0000
1000
0001
0010
,
0001
1000
0001
0000
,
0200
0300
0002
0003
,
1000
0100
1000
0000
,
0000
0100
0010
0001
,
0000
1000
0001
0000
,
0100
0010
2000
0000
,
3001
0100
0001
0000
,
0000
1000
0001
0100
,
0010
1000
0010
0000
,
0100
0010
2000
0002
,
0000
0000
0000
3003
,
0102
0000
0000
0003
,
2100
0000
0000
3000
,
1020
0000
0000
0030
,
0000
1000
0001
1010
,
0021
0000
0000
0030
,
0210
0000
0000
0300
,
2001
0000
0000
3000
,
0000
0001
1000
0001
,
0100
0000
0001
0000
,
0010
0000
0001
0001
,
0000
1000
0001
0100
,
0000
0001
1000
0100
,
0000
1000
0000
0001
,
0000
0100
0000
0001
,
0020
0000
0000
0000
,
0130
1000
0002
2003
,
3010
0000
0000
0000
0000
0000
0000
2002
,
0000
0000
0000
3003
,
1001
0001
1000
0000
,
0000
0100
1000
0010
,
0000
0100
0100
0000
,
0010
1000
0002
0000
,
0013
0001
1000
0000
,
0000
0001
0100
0010
,
0100
0001
0010
0000
,
0100
0010
0001
1000
,
0020
0000
0000
0000
0000
0030
0000
2002
,
0000
0000
0000
0000
0000
3003
0000
0000
;

//---------------dance-single - ----------------
#NOTEDATA:;
#CHARTNAME:;
#STEPSTYPE:dance-single;
#DESCRIPTION:;
#CHARTSTYLE:;
#DIFFICULTY:Challenge;
#METER:9;
#RADARVALUES:0.649790,0.999884,0.253872,0.655835,0.650546,344.000000,24.000000,62.000000,0.000000,0.000000,0.000000,0.000000,0.000000,0.649790,0.999884,0.253872,0.655835,0.650546,344.000000,24.000000,62.000000,0.000000,0.000000,0.000000,0.000000,0.000000;
#CREDIT:;
#NOTES:
0000
0000
0000
0000
,
0010
0000
0100
0000
0100
0001
0100
1000
,
0100
0010
1000
0001
0010
0000
0100
0000
,
1000
0010
1000
0001
0100
0000
0001
0000
,
1000
0000
0000
0000
0000
0000
0010
0010
,
1001
0000
1000
0000
0100
1000
0000
0001
0000
0000
0000
0000
1000
0001
0000
0000
,
0100
0000
0100
0000
0010
0000
1000
0000
0001
0010
0000
0001
0000
1001
0000
0000
,
1001
0000
0001
0000
0100
0010
0000
0100
0000
0000
0000
0000
0000
0000
0000
0000
,
1000
0000
0010
0000
0100
0000
0001
0000
1000
0010
0000
0000
0000
0000
0000
0000
,
0101
0000
0001
0000
1000
0100
0000
1000
0000
0000
0000
0000
0000
0000
0000
0000
,
0001
0000
0100
0000
0010
1000
0001
0010
0100
0000
0010
0001
0000
1001
0000
1000
,
0100
0000
0010
0000
0100
1000
0000
0001
0000
0000
0000
0000
0000
0000
0000
0000
,
2000
3200
2300
3002
,
0103
0000
0001
0000
0010
0100
0000
1000
0000
0000
0200
0300
0000
0200
0000
0300
,
0010
0000
0001
0000
1000
0000
0010
0000
1000
0001
0000
0100
0000
0101
0000
0000
,
0101
0000
0001
0000
1000
0100
0000
1000
0000
0000
0000
0000
0000
0000
0000
0000
,
0001
0100
0010
1000
2020
3000
0200
0330
,
1001
0000
1000
0000
0001
0010
0000
0100
0000
0000
0000
1000
0100
0010
0100
1000
,
0001
0000
0100
0000
0010
1000
0010
1000
0010
0000
0100
0001
0000
0011
0000
0010
,
0100
0000
1000
0000
0001
1000
0000
0010
0000
0000
0000
0000
0000
0000
0000
0000
,
0200
0302
2003
0200
,
0000
0000
0000
0000
0000
0000
0000
3300
,
2002
0000
0000
0000
0000
0000
0000
0000
0000
0000
0000
0000
0000
0000
0000
0000
0000
0000
0000
0000
0000
0000
0000
3000
0200
0000
0000
0000
0000
0000
0000
0000
0000
0000
0000
0000
0000
0000
0000
0300
0020
0000
0000
0000
0000
0000
0000
0000
0000
0000
0000
0000
0000
0000
0000
0000
0000
0000
0000
0000
0000
0000
0000
0033
,
2002
0000
0000
0000
0000
0000
0000
0000
0000
0000
0000
0000
0000
0000
0000
0003
0200
0000
0000
0000
0000
0000
0000
0000
0000
0000
0000
0000
0000
0000
0000
0000
0000
0000
0000
0000
0000
0000
0000
0300
0002
0000
0000
0000
0000
0000
0000
0000
0000
0000
0000
0000
0000
0000
0000
0000
3003
0000
0000
0000
0000
0000
0000
0000
,
0201
0000
0000
0020
0300
0100
0000
0100
,
0000
0000
0000
0000
0000
0000
0000
0000
2000
0000
0000
0000
0000
0000
0000
3000
2030
0000
0000
0000
0000
0000
0000
0000
3002
0000
0000
0000
0000
0000
0000
0003
2002
0000
0000
0000
0000
0000
0000
0000
0000
0000
0000
0000
0000
0000
0000
3003
0220
0000
0000
0000
0000
0000
0000
0000
0330
0000
0000
0000
0000
0000
0000
0000
,
2020
0000
0000
0000
0000
0000
0000
0000
0000
0000
0000
0000
0000
0000
0000
0000
0000
0000
0000
0000
0000
0000
0000
0030
0002
0000
0000
0000
0000
0000
0000
0000
0000
0000
0000
0000
0000
0000
0000
0003
0200
0000
0000
0000
0000
0000
0000
0000
0000
0000
0000
0000
0000
0000
0000
0000
0000
0000
0000
0000
0000
0000
0000
3300
,
2020
0000
0000
0000
0000
0000
0000
0000
0000
0000
0000
0000
0000
0000
0000
0000
0000
0000
0000
0000
0000
0000
0000
0000
0000
0000
0000
0000
0000
0000
0000
0000
0000
0000
0000
0000
0000
0000
0000
0000
0000
0000
0000
0000
0000
3000
0000
0000
0002
0000
0000
0000
0000
0000
0000
0000
0000
0000
0000
0000
0000
0000
0000
0000
0000
0000
0000
0000
0000
0000
0000
0000
0000
0000
0000
0000
0000
0000
0000
0000
0000
0000
0000
0000
0000
0000
0000
0000
0000
0000
0000
0000
0000
0000
0000
0000
0000
0000
0000
0000
0000
0000
0000
0000
0000
0000
0000
0000
0000
0000
0000
0000
0000
0000
0000
0000
0000
0003
0000
0000
2000
0000
0000
0000
0000
0000
0000
0000
0000
0000
0000
0000
0000
0000
0000
0000
0000
0000
0000
0000
0000
0000
0000
0000
0000
0000
0000
0000
0000
0000
0000
0000
0000
0000
0000
0000
0000
0000
0000
0000
0000
0000
0000
0000
0000
0000
0000
0000
3000
0000
0000
0000
0000
0000
0000
0000
0000
0000
0000
0000
0000
0000
0000
0000
0000
0000
0000
0000
0000
0000
0000
0030
,
0020
0000
0000
0000
0000
0000
0000
0000
0000
0000
0000
0000
2000
0000
0000
0000
0000
0000
0000
0000
0000
0000
0000
0030
0002
0000
0000
0000
0000
0000
0000
0000
0000
0000
0000
0000
0000
0000
0000
0000
0000
0000
0000
0000
0000
0000
0000
0000
0000
0000
0000
0000
0000
0000
0000
0000
0000
0000
0000
0000
3003
0000
0000
0000
0000
0000
0000
0000
0000
0000
0000
0000
2000
0000
0000
0000
0000
0000
0000
0000
0000
0000
0000
0000
0000
0000
0000
0000
0000
0000
0000
0000
0000
0000
0000
0000
0000
0000
0000
0000
0000
0000
0000
0000
0000
0000
0000
0000
0000
0000
0000
0000
0000
0000
0000
0000
0000
0000
0000
0000
0001
0000
0000
0000
0000
0000
0000
0000
0000
0000
0000
0000
0000
0000
0000
0000
0000
0000
0000
0000
0000
0000
0000
0000
0000
0000
0000
0000
0000
0000
0000
0000
0000
0000
0000
0000
0000
0000
0000
0000
0000
0000
0000
0000
0000
0000
0000
0000
0001
0000
0000
0000
0000
0000
0000
0000
0000
0000
0000
0000
0000
0000
0000
0000
0000
0000
0000
0000
0000
0000
0000
0000
,
0000
0000
0100
0000
0100
0000
3100
0000
0110
0000
0000
0000
1001
0000
1000
0001
,
0020
0000
0000
0000
0130
0000
0000
1000
0000
1000
0000
1000
0001
0000
1000
0000
,
0000
0001
0000
0100
0001
0000
0100
0000
0001
0100
0001
0100
0010
1000
0000
0000
,
0000
1000
0000
0010
1000
0000
0010
0000
0100
0010
0100
0010
1000
0001
0000
0000
,
0000
1000
0100
1000
0001
0000
0100
0000
0001
0100
0001
1000
0001
1000
0000
0000
,
0000
1000
0100
0010
0001
0000
0010
0100
0000
1000
0001
0100
0002
0000
0000
0000
,
1003
0010
0100
0001
0010
0000
0100
0010
0000
0001
0100
0001
0020
0000
0000
0000
,
0130
1000
0100
1000
0100
1000
0100
1000
0100
1000
0100
1000
0100
1000
0100
1000
0100
1000
0100
1000
0100
1000
0100
1000
,
0100
0000
0000
0010
0000
0000
0100
0000
0000
0010
0000
0000
0001
0000
0000
1000
0000
0000
0010
0000
0000
1000
0000
0000
0001
0000
0000
0000
0100
0000
0000
0000
0010
0000
0000
0000
1000
0000
0000
0000
0001
0000
0000
0000
0010
0000
0000
0000
,
0200
0000
2300
0000
3002
0000
0000
0020
,
0000
0000
0000
0000
0000
0033
0001
0001
,
1001
0000
1000
0000
0001
0100
0000
0010
0000
0000
0000
0000
0002
0203
0302
0023
,
0130
0000
1000
0000
0010
0000
0100
0000
0001
1000
0000
0001
0000
0011
0000
0000
,
1001
0000
1000
0000
0001
0100
0000
0001
0000
0000
0000
0000
2000
3200
2300
3002
,
0103
0000
0010
0000
1000
0000
0001
0000
0010
0100
1000
0100
0010
0001
1000
0001
,
0010
0000
0100
0000
1000
0100
0000
0010
0000
0000
0000
0000
0100
1000
0100
0000
,
1000
0000
0001
0000
0100
0001
0010
0100
0010
0000
0001
1000
0000
1010
0000
0010
,
1000
0000
0001
0000
0010
0100
0000
1000
0000
0000
0000
0000
0000
0000
0000
0000
,
0002
0203
0320
0230
,
0301
0100
0001
1000
0100
0010
0100
1000
0001
0100
0001
1000
0000
0000
0120
0000
,
0000
0000
0000
0030
;

//---------------dance-single - ----------------
#NOTEDATA:;
#CHARTNAME:;
#STEPSTYPE:dance-single;
#DESCRIPTION:;
#CHARTSTYLE:;
#DIFFICULTY:Beginner;
#METER:1;
#RADARVALUES:0.105780,0.150736,0.021156,0.084624,0.000000,60.000000,2.000000,8.000000,0.000000,0.000000,0.000000,0.000000,0.000000,0.105780,0.150736,0.021156,0.084624,0.000000,60.000000,2.000000,8.000000,0.000000,0.000000,0.000000,0.000000,0.000000;
#CREDIT:;
#NOTES:
// measure 0
0000
0000
0000
0000
,  // measure 1
0000
0000
0000
0000
,  // measure 2
0000
0000
0000
0000
,  // measure 3
0000
0000
0000
0000
,  // measure 4
0000
0000
0000
0000
,  // measure 5
0010
0000
0000
0000
,  // measure 6
1000
0000
0000
0000
,  // measure 7
0001
0000
0000
0000
,  // measure 8
0100
0000
0010
0000
,  // measure 9
1000
0000
0000
0000
,  // measure 10
0001
0000
0000
0000
,  // measure 11
0100
0000
0000
0000
,  // measure 12
0010
0000
0000
0000
,  // measure 13
1000
0000
0000
0001
,  // measure 14
1000
0000
0000
0010
,  // measure 15
0010
0000
0000
0000
,  // measure 16
0100
0000
0000
0000
,  // measure 17
1001
0000
0000
0000
,  // measure 18
1000
0000
0000
0000
,  // measure 19
0001
0000
0000
0000
,  // measure 20
0100
0000
0010
0000
,  // measure 21
0000
0000
0000
0000
,  // measure 22
2000
0000
0000
3000
,  // measure 23
0002
0000
0000
0003
,  // measure 24
0200
0000
0000
0300
,  // measure 25
0000
0000
0000
0000
,  // measure 26
0020
0000
0000
0030
,  // measure 27
2000
0000
0000
3000
,  // measure 28
0002
0000
0000
0003
,  // measure 29
0000
0000
0000
0000
,  // measure 30
1000
0000
0000
0000
,  // measure 31
0100
0000
0010
0010
,  // measure 32
0000
0100
0000
0010
,  // measure 33
0000
0001
0000
1000
,  // measure 34
0000
0001
0001
0001
,  // measure 35
0000
1000
1000
1000
,  // measure 36
0020
0000
0000
0030
,  // measure 37
0100
0000
0010
0000
,  // measure 38
1000
0001
1000
0000
,  // measure 39
0002
0000
0000
0003
,  // measure 40
0100
0000
0000
0010
,  // measure 41
1000
0000
0000
0000
,  // measure 42
0100
0000
0000
0010
,  // measure 43
0001
0000
1000
0000
,  // measure 44
1001
0000
0000
0000
,  // measure 45
0001
0000
0100
0000
,  // measure 46
0010
0000
0000
0000
,  // measure 47
1000
0000
0001
0000
;
