#TITLE:Outbreak;
#SUBTITLE:;
#ARTIST:USAO;
#TITLETRANSLIT:;
#SUBTITLETRANSLIT:;
#ARTISTTRANSLIT:;
#GENRE:;
#CREDIT:;
#BANNER:Outbreak.png;
#BACKGROUND:Outbreak-bg.png;
#LYRICSPATH:;
#CDTITLE:;
#MUSIC:Outbreak.ogg;
#OFFSET:-10.835006;
#SAMPLESTART:89.606239;
#SAMPLELENGTH:14.769226;
#SELECTABLE:YES;
#BPMS:0.000000=195.000000
;
#STOPS:
;
#BGCHANGES:;
#KEYSOUNDS:;
#ATTACKS:;

//---------------dance-single - ----------------
#NOTES:
     dance-single:
     :
     Hard:
     8:
     0.514618,0.619760,0.296938,0.125026,0.000000,461.000000,423.000000,38.000000,16.000000,0.000000,0.000000,0.514618,0.619760,0.296938,0.125026,0.000000,461.000000,423.000000,38.000000,16.000000,0.000000,0.000000:
1000
0000
1000
0000
,
1000
0010
0100
1001
,
0001
0000
0001
0000
,
0001
0100
0010
1001
,
1000
1000
0001
0010
,
0100
0100
1000
0001
,
0010
0000
0000
0100
0000
0000
0010
0000
,
1001
0000
1000
0100
0002
0000
0103
0000
,
0011
0001
1000
0001
0000
1000
0001
1000
,
0000
0001
1000
0001
0100
0000
1010
0000
,
1000
0010
0100
0010
0000
0100
0010
0100
,
0000
0010
0100
0010
1000
0000
0101
0000
,
0001
0000
1000
0000
0001
1000
0100
0000
,
0010
0100
0010
0001
1000
0010
1000
0000
,
0001
1000
0010
0001
0010
1000
0001
0000
,
0201
0000
0320
0000
2030
0100
3100
0000
,
0010
0001
0100
0001
,
1000
0000
0100
0000
0010
0000
0100
1000
,
0100
1000
0001
0010
,
0001
1000
0001
0110
,
1000
0010
0100
0001
,
0010
0000
0100
0000
0010
0000
0001
0100
,
0001
0010
0001
1000
,
0100
1000
0020
0000
0130
0000
1001
0000
,
0001
0100
0010
1000
0001
0010
0100
0010
,
0001
1000
0010
1000
,
0001
1000
0100
1000
0001
0010
0100
0010
,
0001
1000
0010
0100
0000
0100
0010
1000
,
1001
0000
0001
0000
0010
0100
1000
0010
,
0100
0000
0001
0000
0010
0100
1000
0001
,
0100
0000
0100
0000
0100
0000
0100
0100
,
0010
0000
1000
1000
0020
0000
0031
0000
,
1000
0001
0010
0001
,
1000
0010
1000
0000
0001
0000
0100
0000
,
0010
1000
0100
1000
,
0001
0010
1000
0010
,
0100
0100
1000
0001
,
0010
0100
0010
0000
0001
0000
1000
0000
,
0001
0000
0100
0000
0001
1000
0100
0000
,
0010
0000
0001
0000
0010
0100
1000
0000
,
1001
0011
1001
1010
,
1001
0000
1000
0001
0010
0001
1000
0001
,
1001
1100
1001
0101
,
1001
0000
1000
0001
0010
0001
1000
0001
,
0101
0101
1010
1010
,
1001
0000
0001
0010
0100
1000
0001
1000
,
1100
0000
1100
0000
1000
0100
0001
0000
,
0101
0000
0101
0000
0001
0100
1000
0000
,
1001
0000
0000
0000
,
0000
0000
0000
0000
0000
0000
1000
0010
,
0200
0000
0000
0310
2000
0000
0000
0000
,
0002
0000
3003
0000
,
0000
1000
0000
0010
,
0000
0100
0000
0001
,
0020
0000
0000
0000
0130
2000
0000
0000
,
3010
0000
0100
0100
0001
0000
0010
0000
,
0100
0000
0000
0100
0000
0000
0100
0000
,
1000
0000
0010
0100
0001
0000
0010
0000
,
0001
0000
0000
0001
0000
0000
0001
0000
,
0001
0000
0010
0100
1000
0000
0010
0000
,
1001
0000
0000
0001
0000
0000
0010
0000
,
0110
0000
0000
0100
0000
0000
1000
0000
,
1100
0000
1000
0010
0001
0000
0010
0000
,
0110
0100
0002
0000
0023
0100
0130
0000
,
1001
0001
0100
0001
,
0010
0100
0010
0000
0100
0000
1000
1000
,
1000
0000
0001
0000
0010
0001
1000
0000
,
0010
0100
0001
0010
,
0001
0001
1000
0000
0010
0000
0100
0000
,
0001
0010
0001
0000
0100
0000
0010
0000
,
1000
0000
0001
0000
0010
0100
0010
0000
,
0001
0000
1000
0000
0100
0010
0100
0000
,
1000
0010
0100
0001
,
0010
0100
0001
0000
0100
0000
0010
0010
,
0010
0100
1000
0010
,
0100
0001
0010
0001
,
1000
1000
0001
0000
0010
0000
1000
0000
,
0010
0001
0100
0000
0010
0000
1000
0000
,
0001
0000
0010
0000
0001
0010
1000
0000
,
1000
0000
0010
0000
0001
1000
0010
0000
,
1000
0001
0010
0001
1000
0100
1000
0100
,
1000
0001
0010
0001
0100
0010
1000
0100
,
1000
0001
0010
0001
1000
0100
0010
0100
,
1000
0001
0100
0010
0000
0010
0100
0000
,
0001
0000
1000
0010
0000
0100
0001
0000
,
0011
0000
0001
0010
0100
0000
1100
0000
,
1000
0100
0001
0100
0010
0001
0010
1000
,
0020
0000
0032
0000
0203
0000
0310
1000
,
1001
0100
0000
0000
0000
0000
0000
0000
;

//---------------dance-single - ----------------
#NOTES:
     dance-single:
     :
     Medium:
     6:
     0.423080,0.550897,0.250053,0.085956,0.000000,379.000000,347.000000,32.000000,11.000000,0.000000,0.000000,0.423080,0.550897,0.250053,0.085956,0.000000,379.000000,347.000000,32.000000,11.000000,0.000000,0.000000:
1000
0000
0001
0000
,
1000
0000
0001
1000
,
0010
0000
0100
0000
,
0010
0000
0100
0010
,
1000
0000
0010
0000
,
0100
0000
0001
0010
,
0100
0000
0010
0000
,
1001
0000
0100
0010
0100
0000
0010
0000
,
1001
0000
0000
0001
0000
0000
0001
0000
,
1000
0010
0100
0001
,
0010
0000
0000
0010
0000
0000
0010
0000
,
0001
1000
0100
1000
,
0010
0000
1010
0000
1000
0010
0100
0000
,
0001
0000
0101
0000
0001
0100
0010
0000
,
1001
0000
0001
1000
0010
0000
1000
0000
,
1001
0000
0000
0000
0000
0010
1001
0000
,
0001
0100
0001
0100
,
0001
0000
0100
0000
0001
0000
0100
0010
,
1000
0010
1000
0010
,
1000
0010
1000
1001
,
0001
0010
0001
0010
,
0001
0000
0010
0000
0001
0000
0010
0100
,
1000
0100
1000
0100
,
2000
3010
0200
0301
,
1000
0010
0100
0001
,
0010
0001
0100
1000
,
0100
0010
1000
0001
,
0010
0000
0100
0010
0000
0010
0100
0000
,
0010
0001
0100
1000
,
0100
0010
0001
0010
,
1000
0010
0100
0001
,
0010
0000
0100
0010
0100
0000
0010
0000
,
0001
1000
0010
1000
,
0001
0100
0001
0000
1000
0000
0100
0000
,
1000
0010
0100
0001
,
0010
0001
1000
0100
,
1001
0001
1000
0010
,
0100
0010
0100
0000
0010
0000
1000
0000
,
0001
0000
1000
0000
0010
0100
0010
0000
,
1000
0000
0001
0000
0100
0010
0100
0000
,
0101
0101
0101
0101
,
0101
0010
1000
0001
,
0011
0011
0011
0011
,
0011
0001
1000
0100
,
1100
1100
1100
1100
,
1100
1000
0010
0100
,
0101
0000
0101
0000
0001
0100
0010
0000
,
1010
0000
1010
0000
1000
0010
0100
0000
,
1001
0000
0000
0000
,
0000
0000
0000
0000
0000
0000
1000
0001
,
1000
0000
0000
0010
2000
0000
0000
0000
,
3100
0000
0000
0000
,
0000
1000
0000
0001
,
0000
0100
0010
0100
,
1002
0000
0000
0000
0100
0200
0000
0000
,
0303
0000
0000
0000
,
1000
0000
0000
1000
0000
0000
1000
0000
,
1000
0000
0001
1000
0001
0000
1000
0000
,
0001
0000
0000
0001
0000
0000
0001
0000
,
0001
0000
1000
0001
1000
0000
0001
0000
,
0100
0000
0000
0100
0000
0000
0100
0000
,
0010
0000
0000
0010
0000
0000
0010
0000
,
0100
0000
0010
0100
0010
0000
1000
0000
,
1001
0000
0001
0000
0100
0010
1000
0000
,
0100
1000
0010
0100
,
0001
0000
0010
0000
1000
0000
0010
0001
,
0100
0010
1000
0010
,
0100
0001
0010
0001
,
1000
0100
1000
0000
0010
0000
0100
0000
,
0001
0100
0010
1000
,
0001
0000
0010
0000
1000
0010
0001
0000
,
0100
0000
1000
0000
0100
0001
1000
0000
,
0010
0100
0001
0010
,
1000
0010
0001
0000
0100
0000
0010
1000
,
0001
0100
1000
0010
,
0100
0001
0010
0001
,
1000
0001
1000
0000
0010
0000
1000
0000
,
0001
1000
0100
0000
0010
0000
0100
0000
,
1000
0000
0010
0000
0001
0010
1000
0000
,
0100
0000
0001
0000
0100
1000
0010
0000
,
0200
0301
0200
0310
,
1000
0001
0010
0001
,
2000
3010
0200
0301
,
0010
0000
0100
1000
0000
1000
0001
0000
,
0100
0000
0000
0100
0000
0000
0010
0000
,
0010
0000
0100
0010
0100
0000
0010
0000
,
1000
0000
0000
1000
0000
0000
0001
0000
,
0001
0200
0320
1030
,
1001
0001
0000
0000
0000
0000
0000
0000
;

//---------------dance-single - ----------------
#NOTES:
     dance-single:
     :
     Easy:
     5:
     0.347171,0.412587,0.062513,0.000000,0.000000,311.000000,303.000000,8.000000,0.000000,0.000000,0.000000,0.347171,0.412587,0.062513,0.000000,0.000000,311.000000,303.000000,8.000000,0.000000,0.000000,0.000000:
1001
0000
1000
0000
,
1000
0000
1000
0000
,
0001
0000
0001
0000
,
0001
0000
0001
0000
,
0100
0000
0100
0000
,
0100
0000
0100
0000
,
0010
0000
0010
0000
,
0010
0100
0001
1000
,
1001
0000
0001
0000
,
0001
1000
0010
0100
,
0001
0000
0001
0000
,
0001
0100
0010
0100
,
0010
0000
0000
1000
0000
0000
0010
0000
,
1000
0000
0000
0001
0000
0000
0010
0000
,
0001
1000
0100
1000
,
1001
0000
0000
0000
0000
0010
0100
0000
,
0010
0010
1000
1000
,
0001
0001
0010
0001
,
1000
1000
0001
0001
,
0100
0100
0010
0000
,
0100
0100
0010
0010
,
1000
1000
0001
1000
,
0100
0100
0010
0010
,
0001
0010
0100
0000
,
0010
0001
0100
0100
,
0001
1000
0100
0100
,
1000
0001
0010
0001
,
1000
0100
0001
0100
,
1000
0010
1000
1000
,
0001
0010
0001
0001
,
0010
0001
0100
0010
,
1000
0001
0100
1000
,
0100
0010
1000
0010
,
0100
0001
0010
0001
,
1000
0100
1000
0010
,
1000
0001
0100
0001
,
0010
0001
1000
0100
,
1000
0010
1000
0001
,
1000
0000
1000
0000
0001
1000
0001
0000
,
1000
0000
1000
0000
0001
1000
0001
0000
,
1000
1000
1000
1000
,
1000
0001
0100
0010
,
0100
0100
0100
0100
,
0100
0010
1000
0100
,
0010
0010
0010
0010
,
0010
0100
1000
0001
,
0100
0000
0100
0000
0010
0100
0010
0000
,
0100
0000
0100
0000
0010
0100
0010
0000
,
1001
0000
0000
0000
,
0000
0000
0000
0000
,
0000
0000
0000
0000
,
0000
0000
0000
0000
,
0000
1000
0000
1000
,
0000
1000
0000
1000
,
0000
0001
0000
0001
,
0110
0000
0000
0000
,
0000
0100
0000
0100
,
0000
0100
0000
0100
,
0000
0010
0000
0010
,
0000
0010
0000
0010
,
1001
0000
0000
1000
0000
0000
1000
0000
,
0001
0000
0000
0001
0000
0000
0001
0000
,
0100
0000
0010
0100
0010
0000
0100
0000
,
1001
0000
0000
0000
0000
0001
1000
0000
,
0010
1000
0010
0100
,
0001
0010
0001
1000
,
0100
1000
0100
1000
,
0010
0100
0010
0100
,
0001
0010
0001
1000
,
0100
1000
0010
0100
,
0001
0000
1000
0000
0001
0100
0001
0000
,
1000
0000
0001
0000
1000
0100
1000
0000
,
0001
1000
0010
1000
,
0001
0010
0001
1000
,
0100
0010
0100
1000
,
0010
0100
0001
0010
,
0001
0100
0010
1000
,
0010
0100
0001
0010
,
0100
0000
1000
0000
0001
1000
0001
0000
,
1000
0000
0010
0000
0100
0010
0100
0000
,
0001
0100
0010
1000
,
0100
1000
0010
0100
,
0001
0010
0100
1000
,
0100
1000
0010
0100
,
0001
0000
0000
0001
0000
0000
1000
0000
,
1000
0000
0010
0100
0010
0000
1000
0000
,
0001
0000
0000
0010
0000
0000
0001
0000
,
1000
0100
0010
0001
,
0110
0000
0000
0000
;

//---------------dance-single - ----------------
#NOTES:
     dance-single:
     :
     Beginner:
     2:
     0.133957,0.275058,0.109398,0.000000,0.000000,120.000000,106.000000,14.000000,0.000000,0.000000,0.000000,0.133957,0.275058,0.109398,0.000000,0.000000,120.000000,106.000000,14.000000,0.000000,0.000000,0.000000:
// measure 0
0010
0000
0000
0000
,  // measure 1
0000
0000
0000
0000
,  // measure 2
1000
0000
0000
0000
,  // measure 3
0000
0000
0000
0000
,  // measure 4
0001
0000
0000
0000
,  // measure 5
0000
0000
0000
0000
,  // measure 6
0100
0000
0000
0000
,  // measure 7
0010
0000
0000
0000
,  // measure 8
1001
0000
0000
0000
,  // measure 9
0000
0000
1000
1000
,  // measure 10
0000
0000
0000
0000
,  // measure 11
0000
0000
0001
0001
,  // measure 12
1000
0000
0000
0000
,  // measure 13
0010
0000
0000
0000
,  // measure 14
0100
0000
0010
0010
,  // measure 15
0010
0000
0000
0000
,  // measure 16
1001
0000
0000
0001
,  // measure 17
0000
0001
0000
0000
,  // measure 18
1000
0000
0000
1000
,  // measure 19
0000
0000
0000
0000
,  // measure 20
0010
0000
0000
0010
,  // measure 21
0000
0000
0000
0000
,  // measure 22
0100
0000
0000
0100
,  // measure 23
0000
0000
0000
0000
,  // measure 24
0010
0000
0000
0000
,  // measure 25
1000
0000
0000
0000
,  // measure 26
0001
0000
0000
0000
,  // measure 27
0010
0000
0000
0000
,  // measure 28
0001
0000
0000
0000
,  // measure 29
1000
0000
0000
0000
,  // measure 30
0010
0000
0000
0000
,  // measure 31
0100
0000
0010
0010
,  // measure 32
1000
0000
0000
0000
,  // measure 33
0100
0000
0000
0000
,  // measure 34
1000
0000
0000
0000
,  // measure 35
0001
0000
0000
0000
,  // measure 36
0010
0000
0000
0000
,  // measure 37
0001
0000
0000
0000
,  // measure 38
1000
1000
1000
0000
,  // measure 39
0001
0001
0001
0000
,  // measure 40
0110
0000
0100
0000
,  // measure 41
0100
0000
0000
0000
,  // measure 42
1001
0000
0001
0000
,  // measure 43
0001
0000
0000
0000
,  // measure 44
0110
0000
0010
0000
,  // measure 45
0010
0000
0000
0000
,  // measure 46
1001
0000
1000
1000
,  // measure 47
0000
0000
0001
0001
,  // measure 48
1001
0000
0000
0000
,  // measure 49
0000
0000
0000
0000
,  // measure 50
0000
0000
0000
0000
,  // measure 51
0000
0000
0000
0000
,  // measure 52
0000
0000
0000
0000
,  // measure 53
0000
0000
0000
0000
,  // measure 54
0000
0000
0000
0000
,  // measure 55
0110
0000
0000
0000
,  // measure 56
1000
0000
0000
0000
,  // measure 57
1000
0000
0000
0000
,  // measure 58
0001
0000
0000
0000
,  // measure 59
0001
0000
0000
0000
,  // measure 60
1001
0000
0000
0000
,  // measure 61
1001
0000
0000
0000
,  // measure 62
1001
0000
0010
0000
,  // measure 63
1001
0000
0000
0000
,  // measure 64
0100
0000
0000
0000
,  // measure 65
0010
0000
0000
0000
,  // measure 66
1000
0000
0000
0000
,  // measure 67
0001
0000
1000
0000
,  // measure 68
0001
0000
0000
0000
,  // measure 69
0010
0000
0000
0000
,  // measure 70
0001
0001
0001
0000
,  // measure 71
1000
1000
1000
0000
,  // measure 72
0010
0000
0000
0000
,  // measure 73
1000
0000
0000
0000
,  // measure 74
0100
0000
0000
0000
,  // measure 75
1000
0000
0000
0000
,  // measure 76
0001
0000
0000
0000
,  // measure 77
1000
0000
0000
0000
,  // measure 78
0010
0100
0010
0000
,  // measure 79
0100
0010
0100
0000
,  // measure 80
1001
0000
0000
0000
,  // measure 81
0010
0000
0000
0000
,  // measure 82
1000
0000
0000
0000
,  // measure 83
0001
0000
0000
0000
,  // measure 84
0100
0000
0000
0000
,  // measure 85
0010
0000
0000
0000
,  // measure 86
1000
0000
0000
0000
,  // measure 87
0001
0000
0000
0000
,  // measure 88
1001
0000
0000
0000
;
