#VERSION:0.83;
#TITLE:Orchid;
#SUBTITLE:;
#ARTIST:Thaehan;
#TITLETRANSLIT:;
#SUBTITLETRANSLIT:;
#ARTISTTRANSLIT:;
#GENRE:Electro Baroque;
#ORIGIN:;
#CREDIT:;
#BANNER:Orchid.png;
#BACKGROUND:Orchid-bg.png;
#PREVIEWVID:;
#JACKET:Orchid-jacket.png;
#CDIMAGE:;
#DISCIMAGE:;
#LYRICSPATH:;
#CDTITLE:CDtitle.png;
#MUSIC:Orchid.ogg;
#OFFSET:-0.329614;
#SAMPLESTART:0.329614;
#SAMPLELENGTH:14.545453;
#SELECTABLE:YES;
#BPMS:0.000=132.000,
192.000=264.000,
252.000=132.000;
#STOPS:;
#DELAYS:;
#WARPS:;
#TIMESIGNATURES:0.000=4=4;
#TICKCOUNTS:0.000=4;
#COMBOS:0.000=1;
#SPEEDS:0.000=1.000=0.000=0;
#SCROLLS:0.000=1.000;
#FAKES:;
#LABELS:0.000=Song Start;
#BGCHANGES:;
#KEYSOUNDS:;
#ATTACKS:
;

//---------------dance-single - ----------------
#NOTEDATA:;
#CHARTNAME:;
#STEPSTYPE:dance-single;
#DESCRIPTION:;
#CHARTSTYLE:;
#DIFFICULTY:Hard;
#METER:9;
#RADARVALUES:0.558333,0.655417,0.125000,0.308333,0.270833,469.000000,454.000000,15.000000,37.000000,0.000000,0.000000,0.000000,0.000000,0.000000,0.558333,0.655417,0.125000,0.308333,0.270833,469.000000,454.000000,15.000000,37.000000,0.000000,0.000000,0.000000,0.000000,0.000000;
#CREDIT:;
#NOTES:
0000
0000
0000
0000
,
0000
0000
0000
0000
,
0000
0000
0000
0000
,
0000
0000
0000
0000
,
1001
0000
2000
3000
0000
0000
0001
0000
0100
0000
0000
0000
0000
0010
0000
0000
,
1000
0000
0000
0000
0000
0000
0001
0000
1000
0100
1000
0000
0001
0100
0001
0000
,
0010
0000
0200
0300
0000
0000
0100
0010
0100
0000
0000
0000
0000
0010
0001
0010
,
0100
0000
0100
0000
0000
0000
0000
0000
1000
0100
1000
0001
0100
0010
0100
0001
,
1000
0000
0100
0000
0010
0000
0000
0000
0001
0000
1000
0000
0100
1000
0000
1000
,
0001
0000
1000
0000
0010
0000
0100
0000
0001
0100
0001
0000
1000
0100
1000
0000
,
0010
0000
0100
0001
0010
0000
0100
0010
,
0001
0000
0001
0000
0000
0000
0000
0000
1000
0010
1000
0001
0010
0100
0010
0001
,
1000
0010
0001
0000
0001
0010
1000
0000
,
0010
0000
1000
0000
0100
0000
0010
0000
0001
0100
0001
0000
0100
0010
0100
0000
,
0001
0000
1000
0100
0010
0000
0100
1000
,
0010
0000
0010
0000
0000
0000
0000
0000
0100
0010
0100
0001
1000
0001
0100
0010
,
1000
1001
0000
0000
0001
0000
0100
0000
,
0010
1000
0100
0010
,
0100
1000
0010
0000
0202
0000
0303
0000
0001
1000
0100
0000
0022
0000
0033
0000
,
0001
0010
1000
0010
0001
0100
0010
1000
,
0001
1001
0000
0000
0001
0000
0010
0000
,
0100
0010
0001
1000
,
0010
1000
0100
0000
0022
0000
0033
0000
0001
1000
0100
0000
2020
0000
3030
0000
,
1000
0100
0001
0100
1000
0100
0010
0001
,
1001
0000
0000
0001
0000
0000
1000
0000
0010
0000
0100
0000
0100
0010
0100
0000
,
0010
0000
0000
0000
1000
0000
0000
0000
0100
0000
0010
0000
0010
0001
0010
0000
,
0001
0000
0000
1000
0000
0000
0001
0000
0100
0000
0010
0000
0100
0010
0100
0000
,
0001
0000
1000
0000
1100
2000
0020
3030
,
0101
0000
0000
0001
0000
0000
1000
0000
0010
0000
1000
0000
1000
0001
1000
0000
,
0001
0000
0000
0000
0010
0000
0001
0000
0100
0000
0010
0000
0010
0100
0010
0000
,
1000
0001
0100
0001
1000
0001
0100
0001
0010
0000
0001
0000
1000
0100
1000
0000
,
0001
0000
0010
0000
1100
2000
0020
3030
,
1000
0000
0000
0010
0000
0000
0100
0000
0010
0000
1000
0000
0100
0000
0001
0000
,
0100
0010
0001
0000
2000
3200
0320
0230
,
1300
0001
0010
0001
1000
0100
1000
0010
,
0200
0300
0200
0300
0020
0000
2030
0000
0002
0000
3003
0000
0001
1000
0001
0000
,
1000
0100
0001
0100
0020
0000
0031
0001
,
0100
0010
1000
0100
0020
0000
0130
0010
,
0001
1000
0100
1000
0001
0100
0001
1000
0001
0000
0010
0000
0001
1000
0001
0000
,
1010
0011
1001
0000
,
0001
0001
1000
1000
,
0100
0100
0010
0010
,
0100
0100
1000
1000
,
0001
0001
0100
0100
,
0020
1030
0020
0130
,
0002
0013
0002
1003
,
0200
0310
0002
1003
,
0020
0130
0002
2003
,
3100
0000
0010
0000
0001
0100
0001
0000
,
0100
0000
0010
0000
1000
0010
1000
0000
,
0001
0000
0010
0000
0100
0010
0100
0000
,
1000
0000
0010
0000
0100
0001
0100
0000
,
0001
0000
1000
0000
0010
1000
0010
0000
,
0100
0000
0001
0000
0010
0100
0010
0000
,
0100
0000
1000
0000
0010
0100
0010
0000
,
0100
0001
0010
0100
0010
0001
1000
0010
,
0100
0000
0001
0000
0010
0100
0010
0000
,
0100
0000
1000
0000
0010
0100
0010
0000
,
0100
0000
0001
0000
1000
0001
1000
0000
,
0001
0000
0010
0000
0001
1000
0001
0000
,
1000
0000
0010
0000
0100
0001
0100
0000
,
0001
0000
0010
0000
0100
1000
0100
0000
,
1000
0000
0001
0000
0010
0100
0010
0000
,
0200
0000
0000
0000
0000
0000
0300
0000
1001
0000
2000
3000
0001
0100
0001
0000
,
0010
0000
0100
0000
0000
0010
0000
0000
0001
0000
1000
0000
0010
0000
0100
0000
,
0010
1000
0100
0000
0010
0001
0100
0000
0010
0000
0200
0300
0001
0000
1000
0010
,
1000
0000
0000
0000
0000
1000
0010
0100
0001
0000
1000
0000
0000
0000
0000
0000
,
0001
0010
0001
0100
0010
0100
0010
1000
0010
0000
0001
0000
0010
0000
0100
0000
,
0001
0010
1000
0010
0100
1000
0001
0100
,
0010
1000
0100
0000
0010
0001
0100
0000
0010
0000
1000
0000
0100
0000
1000
0000
,
0001
0010
1000
0010
0100
0010
0001
1000
,
0010
0100
0001
1000
0100
0010
0001
1000
0001
0000
0000
0000
0000
0000
0000
0000
;

//---------------dance-single - ----------------
#NOTEDATA:;
#CHARTNAME:;
#STEPSTYPE:dance-single;
#DESCRIPTION:;
#CHARTSTYLE:;
#DIFFICULTY:Medium;
#METER:6;
#RADARVALUES:0.377381,0.446875,0.150000,0.091667,0.029167,317.000000,299.000000,18.000000,11.000000,0.000000,0.000000,0.000000,0.000000,0.000000,0.377381,0.446875,0.150000,0.091667,0.029167,317.000000,299.000000,18.000000,11.000000,0.000000,0.000000,0.000000,0.000000,0.000000;
#CREDIT:;
#NOTES:
0000
0000
0000
0000
,
0000
0000
0000
0000
,
0000
0000
0000
0000
,
0000
0000
0000
0000
,
1000
0000
0000
0000
0000
0000
0001
0000
0100
0000
0000
0000
0000
0010
0000
0000
,
0010
0000
0000
0100
0010
0000
1000
0000
,
0100
0000
0000
1000
0001
0000
0000
1000
,
0001
0001
0000
0000
0100
0010
1000
0001
,
0100
0000
0000
0000
0000
0000
0010
0000
1000
0000
0000
0000
0000
0100
0000
0000
,
1000
0000
0000
0100
1000
0010
0100
0001
,
1000
0001
0100
0000
0001
1000
0100
0000
,
1001
1001
0000
0000
0001
0010
0100
1000
,
0100
1000
0010
0000
0100
0010
1000
0000
,
0001
0000
0000
0001
1000
0001
0100
0001
,
0010
0100
1000
0000
0100
0010
0001
0000
,
0010
0010
0000
0000
0100
0010
0001
1000
,
1001
1001
0000
0000
0001
0000
0000
0000
,
0100
0010
1000
0010
,
1000
0101
0001
1100
,
0100
0010
0001
0010
,
1001
1001
0000
0000
1000
0000
0001
0000
,
0100
0100
0010
0010
,
1000
0101
0001
1100
,
1000
0100
0010
0100
1000
0100
0010
0001
,
1000
0000
0000
1000
0000
0000
0001
0000
0100
0000
0000
0000
0000
0000
0000
0000
,
0010
0001
1001
0000
,
0001
0000
0000
1000
0000
0000
0100
0000
1000
0000
0010
0000
0100
0000
0001
0000
,
1000
0001
0100
0000
,
0001
0000
0000
0001
0000
0000
1000
0000
0001
0000
0000
0000
0000
0000
0000
0000
,
0010
0000
0100
0010
0001
0000
0000
0000
,
0001
1000
0010
0100
0001
1000
0001
0100
,
0101
1010
1001
0000
,
1000
0000
0000
1000
0000
0000
1000
0000
0001
0000
0000
0000
0100
0000
0000
0000
,
0010
1000
0100
0000
1000
0100
0010
0001
,
0010
0100
0010
0001
,
2000
0000
3002
0000
0103
0000
0001
1000
,
0010
1000
0010
0100
0010
0000
0100
0000
,
0001
0100
0001
1000
0001
0000
0010
0000
,
0100
0000
0010
0000
0001
0010
0100
0000
,
1001
0110
1001
0000
,
0001
0000
0001
0000
,
1000
0000
1000
0000
,
0010
0000
0010
0000
,
0100
0000
0100
0000
,
0020
0000
2030
0000
,
3002
0000
0203
0000
,
0320
0000
2030
0000
,
3002
0000
0203
0000
,
0301
0000
1000
0000
0000
0010
1000
0000
,
0001
0000
0010
0000
0000
0001
1000
0000
,
0010
0000
1000
0000
0000
0100
1000
0000
,
0100
0000
0010
0000
0000
0001
0010
0000
,
0100
0000
0010
0000
0000
0100
1000
0000
,
0001
0000
0100
0000
0000
0010
1000
0000
,
0100
0000
0010
0000
0000
0100
0010
0000
,
0001
0100
0010
1000
,
0001
0100
0001
0100
,
0010
0100
0010
0100
,
0010
1000
0010
1000
,
0010
0100
0001
1000
,
0001
0010
0001
0010
,
0100
0010
0100
0010
,
0100
1000
0100
1000
,
0020
0000
0000
0000
0130
0000
0000
0010
,
1000
0000
0000
0000
0000
0010
0000
0000
0010
0000
0000
0000
0000
0000
0100
0000
,
0001
0100
0010
1000
0010
0000
0000
0100
,
0010
0000
0000
1000
0001
0001
0000
0000
,
0010
0100
1000
0100
0010
0100
1000
0000
,
0100
1000
0010
0000
0100
0010
1000
0000
,
0001
1000
0010
1000
0001
0010
1000
0000
,
1000
0010
0001
0000
0010
0010
0000
0000
,
0001
0010
0100
1000
1001
0000
0000
0000
;

//---------------dance-single - ----------------
#NOTEDATA:;
#CHARTNAME:;
#STEPSTYPE:dance-single;
#DESCRIPTION:;
#CHARTSTYLE:;
#DIFFICULTY:Easy;
#METER:3;
#RADARVALUES:0.200000,0.357500,0.083333,0.125000,0.000000,168.000000,158.000000,10.000000,15.000000,0.000000,0.000000,0.000000,0.000000,0.000000,0.200000,0.357500,0.083333,0.125000,0.000000,168.000000,158.000000,10.000000,15.000000,0.000000,0.000000,0.000000,0.000000,0.000000;
#CREDIT:;
#NOTES:
0000
0000
0000
0000
,
0000
0000
0000
0000
,
0000
0000
0000
0000
,
0000
0000
0000
0000
,
1000
0000
0001
0000
,
0100
0000
0010
0100
,
0010
0000
1000
0000
,
0100
0000
1000
0100
,
0010
0000
0100
0000
,
1000
0000
0001
0100
,
0001
0000
0010
0000
,
0001
0000
1000
0001
,
1000
0000
0010
0000
,
0100
0000
0001
0100
,
0001
0000
1000
0000
,
0100
0000
1000
0001
,
0100
0100
0000
0000
0010
0000
0000
0000
,
1000
0000
0001
0000
,
1000
0101
0001
1100
,
2000
0000
0000
0000
,
3010
0010
0000
0000
0100
0000
0000
0000
,
0001
0000
1000
0000
,
0010
0101
0010
1100
,
2002
0000
0000
0000
0000
0000
0000
3003
,
0001
1000
0010
0000
,
0100
0100
0100
0000
,
0010
1000
0100
1000
,
0001
0001
0001
0000
,
0100
0001
0010
0000
,
0001
1000
0100
0000
,
1000
0100
0010
0100
,
1000
0001
1001
0000
,
0001
0010
0001
1000
,
0100
1000
0020
0000
,
0130
0001
0010
0001
,
2000
0000
3000
0001
,
0100
0010
2000
3010
,
0100
0001
0020
0031
,
1000
0001
0100
0001
,
0011
1100
0011
0000
,
0000
0000
0000
0000
,
0000
0000
0000
0000
,
0000
0000
0000
0000
,
0000
0000
0000
0000
,
0001
0000
0100
0000
,
0010
0000
1000
0000
,
0001
0000
0100
0000
,
0010
0000
0100
0000
,
0001
0000
0000
0000
,
1000
0000
0000
0000
,
0010
0000
0000
0000
,
0100
0000
0000
0000
,
0010
0000
0000
0000
,
1000
0000
0000
0000
,
0001
0000
0000
0000
,
0010
0000
0001
0000
,
0100
0000
0000
0000
,
0010
0000
0000
0000
,
1000
0000
0010
0000
,
0100
0000
0001
0000
,
1000
0000
0000
0000
,
0001
0000
0000
0000
,
0010
0000
0000
0000
,
0200
0000
1300
0000
,
0010
0000
0100
0000
,
0001
1000
0001
0000
,
0100
0000
0010
0000
,
1000
0010
0200
0301
,
0020
0130
0020
0031
,
2000
3002
0203
0301
,
0200
0000
0310
0000
0100
0100
0000
0000
,
0010
0100
1001
0000
;

//---------------dance-single - ----------------
#NOTEDATA:;
#CHARTNAME:;
#STEPSTYPE:dance-single;
#DESCRIPTION:;
#CHARTSTYLE:;
#DIFFICULTY:Beginner;
#METER:2;
#RADARVALUES:0.130952,0.208542,0.050000,0.000000,0.000000,110.000000,104.000000,6.000000,0.000000,0.000000,0.000000,0.000000,0.000000,0.000000,0.130952,0.208542,0.050000,0.000000,0.000000,110.000000,104.000000,6.000000,0.000000,0.000000,0.000000,0.000000,0.000000,0.000000;
#CREDIT:;
#NOTES:
0000
0000
0000
0000
,
0000
0000
0000
0000
,
0000
0000
0000
0000
,
0000
0000
0000
0000
,
1000
0000
0000
0000
,
0001
0000
0000
0000
,
0100
0000
0000
0000
,
0001
0000
0000
0000
,
1001
0000
1000
0000
,
0001
0000
0000
0000
,
0100
0000
0010
0000
,
0010
0000
0000
0000
,
1000
0000
0001
0000
,
0100
0000
0000
0000
,
0001
0000
1000
0000
,
0001
0000
0000
0000
,
0110
0000
0100
0000
,
0100
0000
0000
0000
,
0010
0000
1000
0000
,
0001
0000
0000
0000
,
1001
0000
0000
0000
,
0010
0000
0000
0000
,
0100
0000
0001
0000
,
0010
0000
0000
0000
,
0100
0000
0000
0000
,
1000
1000
1000
0000
,
0001
0000
0000
0000
,
0100
0100
0100
0000
,
0010
0000
0000
0000
,
1000
0001
1000
0000
,
0010
0000
0000
0000
,
0100
0001
0100
0000
,
0010
0000
0000
0000
,
1000
0000
0001
1000
,
0100
0000
1000
0000
,
0010
0010
0100
0000
,
0001
0000
0000
0000
,
1000
0000
0000
0000
,
0010
0000
0100
0000
,
0001
1000
0001
0000
,
0000
0000
0000
0000
,
0000
0000
0000
0000
,
0000
0000
0000
0000
,
0000
0000
0000
0000
,
1000
0000
0100
0000
,
0010
0000
0001
0000
,
1000
0000
0100
0000
,
0010
0000
0001
0000
,
1000
0000
0000
0000
,
1000
0000
0000
0000
,
0001
0000
0000
0000
,
0001
0000
0000
0000
,
0100
0000
0000
0000
,
0100
0000
0000
0000
,
0010
0000
0000
0000
,
0010
0000
0000
0000
,
1000
0000
0000
0000
,
1000
0000
0000
0000
,
0001
0000
0000
0000
,
0001
0000
0000
0000
,
0100
0000
0000
0000
,
0100
0000
0000
0000
,
0010
0000
0000
0000
,
0010
0000
1001
0000
,
1000
0000
0001
0000
,
0100
0100
0100
0000
,
0010
0000
1000
0000
,
0001
0001
1001
0000
,
1000
0000
0010
0000
,
0100
0100
0010
0000
,
1000
0000
0001
0000
,
1000
0001
0110
0000
;

//---------------dance-single - ----------------
#NOTEDATA:;
#CHARTNAME:;
#STEPSTYPE:dance-single;
#DESCRIPTION:;
#CHARTSTYLE:;
#DIFFICULTY:Challenge;
#METER:11;
#RADARVALUES:0.766667,0.893750,0.166667,0.208333,0.754167,644.000000,624.000000,20.000000,25.000000,0.000000,0.000000,4.000000,0.000000,0.000000,0.766667,0.893750,0.166667,0.208333,0.754167,644.000000,624.000000,20.000000,25.000000,0.000000,0.000000,4.000000,0.000000,0.000000;
#CREDIT:;
#NOTES:
// measure 0
0000
0000
0000
0000
,  // measure 1
0000
0000
0000
0000
,  // measure 2
0000
0000
0000
0000
,  // measure 3
0000
0000
0000
0000
,  // measure 4
1010
0000
0200
0000
0301
0010
0001
0000
1000
0000
0001
0100
0001
0100
0000
0000
,  // measure 5
0010
0000
0100
0010
0100
0000
0010
0000
1000
0010
1000
0000
0001
0100
0001
0000
,  // measure 6
0010
0000
0200
0000
1300
0001
1000
0010
0100
0000
0001
0100
0001
0100
0010
1000
,  // measure 7
0001
0000
0010
0000
0100
1000
0100
0000
1000
0010
0100
0001
0010
0100
0010
0001
,  // measure 8
1000
0100
0010
0001
0010
0000
0100
0000
0010
0001
0100
0010
1000
0001
0000
0000
,  // measure 9
1000
0100
1000
0010
0100
0000
0001
0000
1000
0010
1000
0000
0001
0010
0001
0000
,  // measure 10
0010
0001
0100
0010
1000
0000
0001
1000
0001
0010
0100
1000
0001
1000
0010
0100
,  // measure 11
0001
0000
0001
0000
0010
0100
0010
0000
0100
0010
0001
0100
0010
1000
0100
0010
,  // measure 12
0100
0010
0001
0100
0010
0000
0100
0000
0010
1000
0001
0010
0000
0001
0000
0000
,  // measure 13
1000
0001
0100
0001
0010
0000
0100
0000
0010
0001
0010
0000
0010
1000
0010
0000
,  // measure 14
0010
0001
0100
0010
1000
0000
0001
1000
0100
0010
0100
1000
0001
0010
0100
1000
,  // measure 15
0001
0000
0001
0000
1000
0010
1000
0000
0001
0100
0010
1000
0001
0010
0100
0010
,  // measure 16
0001
0201
0000
0000
0010
0000
0001
0000
,  // measure 17
0310
1000
0010
0100
0010
1000
0010
0100
0010
1000
0001
0010
0001
1000
0001
0010
,  // measure 18
0100
0010
0001
0000
0202
0000
0303
0000
0001
0100
0010
0000
2020
0000
3030
0000
,  // measure 19
1000
0000
0001
0000
1000
0000
0001
0000
0000
0100
0000
0000
0001
0000
0000
1000
0000
0000
0100
0000
0000
1000
0000
0000
0100
0000
0000
0010
0000
0000
0100
0000
0000
0010
0000
0000
0001
0000
0000
0010
0000
0000
0001
0000
0000
1000
0000
0000
,  // measure 20
0100
1200
0000
0000
0010
0000
1000
0000
,  // measure 21
0310
0001
0010
0100
0010
0001
0100
0010
0100
0001
1000
0100
1000
0010
0100
0001
,  // measure 22
0010
0001
0100
0000
2020
0000
3030
0000
1000
0010
0100
0000
0202
0000
0303
0000
,  // measure 23
0001
0000
0010
0000
0001
0000
0010
0000
0000
0100
0000
0000
1000
0000
0000
0010
0000
0000
0100
0000
0000
0001
0000
0000
0010
0000
0000
0100
0000
0000
0010
0000
0000
0001
0000
0000
1000
0000
0000
0100
0000
0000
0010
0000
0000
0100
0000
0000
,  // measure 24
1000
0000
0000
1000
0000
0000
0001
0000
0100
0000
0010
0000
1000
0010
1000
0000
,  // measure 25
0011
0000
0000
0000
1010
0000
0000
0000
1100
0000
0100
0000
0100
0010
0100
0000
,  // measure 26
0010
0000
0000
0001
0000
0000
0100
0000
1000
0000
0100
0000
0010
1000
0001
0000
,  // measure 27
1100
0000
0011
0000
0101
0100
0020
0000
,  // measure 28
1030
0000
1000
0001
0000
0001
0010
0000
0100
0000
0010
0000
0001
1000
0001
0000
,  // measure 29
0100
0000
0000
0000
0010
0000
1000
0000
0100
0000
0010
0000
0010
0100
0010
0000
,  // measure 30
0100
0010
0001
0100
0010
1000
0001
0010
0100
0000
0010
0000
0001
0100
0001
0000
,  // measure 31
0101
0000
1010
0000
1001
0001
0020
0000
,  // measure 32
0031
0000
0001
0010
0000
0100
1000
0000
0001
0000
0100
0000
0010
1000
0100
0000
,  // measure 33
0010
0000
0000
0000
0000
0000
0100
0000
0000
0010
0000
0000
0001
0000
0000
0000
0000
0000
0000
0000
0000
0000
0000
0000
4000
0000
0004
0000
0000
0000
0000
0000
0000
0000
0000
0000
0000
0000
0000
0000
0000
0000
0000
0000
0000
3003
0000
0000
,  // measure 34
0001
0100
0001
0100
0010
1000
0001
0000
1000
0001
0100
0010
0100
0001
0010
0000
,  // measure 35
0400
0000
4000
0000
0000
0000
0000
0000
0000
0000
0000
0000
0000
0000
0000
0000
0000
0000
0000
0000
0000
0000
0000
0000
3300
0000
0000
0000
0000
0000
0000
0000
0000
0000
0000
0000
1000
0000
0000
0100
0000
0000
0010
0000
0000
0000
0000
0000
,  // measure 36
0100
0000
0010
0000
0001
0000
0100
0000
0020
0000
0000
0000
0031
1000
0001
1000
,  // measure 37
0001
0000
0010
0000
0100
0000
1000
0000
0002
0000
0000
0000
1003
0100
0010
0001
,  // measure 38
1000
0010
1000
0001
0100
0001
1000
0100
1000
0000
0001
0100
0010
1000
0010
0000
,  // measure 39
1010
0011
1001
0000
,  // measure 40
1000
0100
0010
0001
,  // measure 41
0010
0100
1000
0001
,  // measure 42
0100
0010
1000
0001
,  // measure 43
0100
0010
1000
0001
,  // measure 44
1020
0000
0230
0000
,  // measure 45
0302
0000
0023
0000
,  // measure 46
0032
0000
0203
0000
,  // measure 47
2300
0000
0000
0000
0000
0000
0000
0000
3010
0001
0100
0010
1000
0001
0010
0100
,  // measure 48
1000
0100
1000
0000
0001
0100
0001
0000
,  // measure 49
0100
0010
0100
0000
0010
1000
0010
0000
,  // measure 50
1000
0100
1000
0000
0100
0010
0100
0000
,  // measure 51
0010
0001
0010
0001
0100
0001
0010
0100
,  // measure 52
1000
0100
0010
0000
0100
0010
0001
0000
,  // measure 53
0010
0001
0100
0000
0010
1000
0100
0000
,  // measure 54
0010
0001
1000
0000
0001
1000
0100
0000
,  // measure 55
1000
0010
0100
0001
0010
1000
0010
0001
,  // measure 56
1000
0010
1000
0010
1000
0010
1000
0010
,  // measure 57
0100
0001
0100
0001
0100
0001
0100
0001
,  // measure 58
0010
0100
0010
0100
1000
0001
1000
0001
,  // measure 59
0100
0001
0100
0010
0100
0001
0010
0001
,  // measure 60
1000
0001
0100
0001
0010
0001
0100
0010
,  // measure 61
1000
0001
0010
0001
1000
0010
0100
0001
,  // measure 62
1000
0100
0010
0100
1000
0010
0100
0001
,  // measure 63
1000
0001
0010
0001
1000
0100
0010
0001
0100
0000
0020
0000
1030
0001
1000
0100
,  // measure 64
1000
0000
0100
0010
0001
0010
0000
0010
0100
0000
0010
0001
1000
0000
0001
0000
,  // measure 65
0100
0010
1000
0000
0010
0100
0001
0000
1000
0000
0200
0000
0310
0000
0100
1000
,  // measure 66
0010
0000
0100
0001
1000
0001
0100
0010
0100
0000
0010
0000
1000
0001
1000
0000
,  // measure 67
0001
0100
0010
1000
0100
0010
0100
1000
0001
1000
0010
1000
0100
0000
0010
0100
,  // measure 68
1000
0010
0100
0001
1000
0100
0000
0100
1000
0010
0100
0001
1000
0000
0001
0000
,  // measure 69
1000
0010
1000
0000
0001
0100
0001
0000
1000
0100
1000
0100
0010
0000
0100
0010
,  // measure 70
0001
0010
0001
0010
0100
1000
0010
0100
0001
0000
1000
0000
0001
0100
0001
0000
,  // measure 71
0100
0100
0010
1000
0001
0001
0010
0010
0001
0000
0000
0000
0000
0000
0000
0000
;
