#VERSION:0.83;
#TITLE:ONIGIRI FREEWAY;
#SUBTITLE:;
#ARTIST:OISHII;
#TITLETRANSLIT:;
#SUBTITLETRANSLIT:;
#ARTISTTRANSLIT:;
#GENRE:;
#ORIGIN:;
#CREDIT:;
#BANNER:ONIGIRI FREEWAY.png;
#BACKGROUND:ONIGIRI FREEWAY-bg.png;
#PREVIEWVID:;
#JACKET:ONIGIRI FREEWAY-jacket.png;
#CDIMAGE:;
#DISCIMAGE:;
#LYRICSPATH:;
#CDTITLE:;
#MUSIC:ONIGIRI FREEWAY.mp3;
#OFFSET:-0.281000;
#SAMPLESTART:41.262001;
#SAMPLELENGTH:18.428570;
#SELECTABLE:YES;
#BPMS:0.000=210.000;
#STOPS:;
#DELAYS:;
#WARPS:;
#TIMESIGNATURES:0.000=4=4;
#TICKCOUNTS:0.000=4;
#COMBOS:0.000=1;
#SPEEDS:0.000=1.000=0.000=0;
#SCROLLS:0.000=1.000;
#FAKES:;
#LABELS:0.000=Song Start;
#BGCHANGES:;
#KEYSOUNDS:;
#ATTACKS:
;

//---------------dance-single - ----------------
#NOTEDATA:;
#CHARTNAME:;
#STEPSTYPE:dance-single;
#DESCRIPTION:;
#CHARTSTYLE:;
#DIFFICULTY:Hard;
#METER:10;
#RADARVALUES:0.687607,1.037255,0.096265,0.449236,0.084232,600.000000,588.000000,12.000000,56.000000,0.000000,0.000000,0.000000,0.000000,0.000000,0.687607,1.037255,0.096265,0.449236,0.084232,600.000000,588.000000,12.000000,56.000000,0.000000,0.000000,0.000000,0.000000,0.000000;
#CREDIT:;
#NOTES:
0000
0000
0000
0000
,
0000
0000
0000
0000
,
0000
0000
0000
0000
,
0000
0000
0000
0000
,
0000
0000
0000
0000
,
0000
0000
0000
0000
,
0000
0000
0000
0000
,
0000
0000
0000
0000
,
0001
0100
0010
0100
0001
1000
0100
0000
,
0010
0001
1000
0100
1000
0010
0100
0000
,
0001
1000
0010
1000
0001
0010
0100
0010
,
0001
1000
0010
1000
0010
1000
0100
1000
,
0010
1000
0001
1000
0010
1000
0100
0000
,
0010
0001
0010
0001
1000
0010
1000
0100
,
1000
0001
0100
0001
1000
0001
0010
0001
,
1000
0001
0100
0001
1000
0100
0010
0001
,
1000
0001
0100
0001
0010
0100
0010
0001
,
1000
0010
1000
0100
1000
0001
1000
0000
,
0001
0010
0001
1000
0010
0100
0010
0100
,
0001
1000
0010
1000
0001
0010
0100
1000
,
0001
1000
0010
1000
0001
0010
0100
0010
,
0001
1000
0010
0100
0001
0010
0100
0010
,
0001
0000
0000
1000
0000
0000
0010
0000
,
1000
0000
0000
0100
0000
0000
0010
0001
,
2000
0000
0000
0000
0000
3001
0100
0001
,
0020
0000
0000
0000
0000
0031
1000
0010
,
1000
0100
1000
0010
0100
0001
0010
0100
,
0010
0001
1000
0200
0000
0000
1300
0001
,
1000
0000
0000
0001
0000
0000
0100
0000
,
0000
0001
0000
0000
0010
0001
0100
0020
,
0000
0000
0000
0130
0000
0000
0010
0000
,
0000
1000
0000
0000
0010
0100
0010
1000
,
0200
0000
0000
1300
1000
0000
0001
0001
,
0000
0100
0100
0000
0010
0100
0001
1000
,
0001
0000
0010
0001
0010
0000
0100
0000
1000
0100
1000
0000
0100
0000
0010
0001
,
0010
0000
0100
0000
1000
0100
1000
0000
0100
0000
0010
0001
0010
0000
0001
1000
,
0001
0000
0010
0001
0000
1000
0100
1000
,
0001
0100
0001
0010
0001
0000
1001
0000
,
0011
0000
1000
0010
0000
1000
0100
1000
,
0010
1000
0001
1000
0200
0000
0000
0000
,
0310
0001
1000
0010
0200
0000
0000
0000
,
0310
1000
0001
1000
0200
0000
0000
0000
,
0310
0002
0000
0000
1003
0001
0100
0001
,
0010
0010
0100
0020
0002
0000
0000
0033
,
1000
0000
0000
0100
0000
0000
1000
0000
0000
0000
0001
0000
1000
0000
0010
0000
,
0100
0000
0000
0001
0000
0000
0010
0000
0000
0000
0100
0000
1000
0000
0001
0000
,
0100
0000
0000
0001
0000
0000
1000
0000
0000
0100
0000
0000
1000
0000
0001
0000
,
0100
0001
0010
0001
0020
0000
0000
0000
,
0130
1000
0001
0100
0001
1000
0100
1000
,
0100
1000
0001
0100
0001
1000
0100
0010
,
0001
0010
0001
1000
0010
1000
0001
0010
,
0001
1000
0001
0200
0000
0000
0000
0300
,
2002
0000
0000
0000
0000
0000
0000
3003
,
0110
1001
0110
1001
,
0001
0000
0000
0100
0000
0000
0001
0000
,
1000
0000
0000
0100
0000
0000
1000
0000
,
0002
0013
0200
1300
,
0200
1300
0020
0130
,
0002
0000
0003
0200
0000
0300
0020
0000
,
2030
0000
3000
0002
0000
0003
0010
0100
,
1000
0001
0100
0001
1000
0001
0010
0001
,
0100
0001
1000
0010
0100
0001
0010
0100
,
1000
0000
0001
0010
0000
0001
0100
0010
,
1000
0000
0001
0100
0000
0010
1000
0100
,
0020
0000
0031
0200
0000
0310
2000
0000
,
3001
0020
0000
0031
0200
0000
0320
0000
,
2030
3010
0100
0002
1003
0100
0020
0032
,
2003
3010
1000
0200
0310
0001
2000
3002
,
0013
0100
1000
0100
1000
0010
1000
0010
,
0100
0010
0100
0001
0100
0001
0010
0000
,
2200
0000
0000
0000
3300
1000
0001
0010
,
0220
0000
0000
0000
0330
0100
0010
0001
,
1000
0010
1000
0001
0100
0001
1000
0100
,
0010
0100
1000
0002
0000
0000
1003
0001
,
1000
0000
0000
0010
0000
0000
0100
0000
,
0000
0001
0000
0000
0010
0001
0100
0020
,
0000
0000
0000
0130
0000
0000
0010
0000
,
0000
1000
0000
0000
0001
1000
0010
1000
,
0001
0000
0000
1000
0010
0000
0010
0100
,
0000
0100
0001
0000
1000
0100
1000
0001
,
1000
0000
0001
0010
0001
0000
0100
0000
0010
1000
0010
0000
1000
0000
0001
0010
,
0001
0000
1000
0000
0001
0100
0001
0000
0100
0000
0010
0100
0010
0100
0010
0100
,
0010
0000
0100
0001
0000
1000
0001
0100
,
0001
1000
0001
1000
0001
0000
1000
0000
,
0010
0000
1000
0001
0000
1000
0001
1000
,
0001
0100
0001
1000
0000
0000
0000
0000
,
0001
0010
0001
1000
0000
0000
0000
0000
,
1000
0010
1000
0001
0000
0000
0000
0000
,
0100
0000
0000
0000
0010
0100
0010
1000
,
0001
0010
0100
0010
0000
0100
0010
0001
,
1000
0000
0001
1000
0000
0100
1000
0010
,
0100
0001
0010
0001
1000
0000
1001
0000
,
0101
0000
0001
0100
0000
0001
1000
0100
,
1000
0001
1000
0010
0200
0000
0000
0000
,
0310
1000
0001
0100
0002
0000
0000
0000
,
1003
0001
0010
0001
0200
0000
0000
0000
,
0310
2000
0000
0000
3001
0010
0001
1000
,
0010
0010
0100
0002
0020
0000
0000
0033
,
0001
0000
0000
1000
0000
0000
0100
0000
0000
0000
0010
0000
0100
0000
1000
0000
,
0010
0000
0000
0100
0000
0000
0001
0000
0000
0000
1000
0000
0010
0000
0100
0000
,
0001
0000
0000
0010
0000
0000
0001
0000
0000
1000
0000
0000
0001
0000
0100
0000
,
0001
0010
0001
1000
0020
0000
0000
0000
,
0130
0001
1000
0100
1000
0001
0100
0001
,
0010
0001
1000
0010
0100
0001
0010
0100
,
1000
0001
0100
0001
0010
0001
1000
0010
,
1000
0001
1000
0200
0000
0000
0000
0300
,
2002
0000
0000
3003
,
0001
0001
2000
0020
0000
3000
0030
0000
;

//---------------dance-single - ----------------
#NOTEDATA:;
#CHARTNAME:;
#STEPSTYPE:dance-single;
#DESCRIPTION:;
#CHARTSTYLE:;
#DIFFICULTY:Medium;
#METER:7;
#RADARVALUES:0.427462,0.734722,0.104287,0.176486,0.032088,373.000000,360.000000,13.000000,22.000000,0.000000,0.000000,0.000000,0.000000,0.000000,0.427462,0.734722,0.104287,0.176486,0.032088,373.000000,360.000000,13.000000,22.000000,0.000000,0.000000,0.000000,0.000000,0.000000;
#CREDIT:;
#NOTES:
0000
0000
0000
0000
,
0000
0000
0000
0000
,
0000
0000
0000
0000
,
0000
0000
0000
0000
,
0000
0000
0000
0000
,
0000
0000
0000
0000
,
0000
0000
0000
0000
,
0000
0000
0000
0000
,
1000
0001
0010
0001
,
1000
0000
0010
0000
0100
0010
0100
0000
,
0010
1000
0001
0010
,
0001
1000
0100
0010
,
0001
0010
0001
1000
,
0010
0000
0100
0000
0001
0100
0001
0000
,
1000
0100
1000
0000
0100
0010
0100
0000
,
0010
0001
0010
0000
0001
0010
0100
1000
,
1001
0000
0000
0000
0000
1010
0000
0000
,
0101
0000
0000
0000
,
0011
0000
0000
0000
0000
1100
0000
0000
,
1010
0000
0000
0000
,
0110
0000
0000
0000
0000
1001
0000
0000
,
1010
0000
0000
0000
,
1000
0000
0000
0100
0000
0000
0001
0000
,
0100
0000
0000
0010
0000
0000
0001
0000
,
0200
0000
0300
0010
,
2000
0000
3000
0010
,
1000
0100
0010
0100
,
0010
0001
1000
0020
0000
0000
0030
0000
,
0100
0000
0000
0010
0000
0000
1000
0000
,
0000
0001
0000
0000
1000
0001
1000
0020
,
0000
0000
0000
1030
0000
0000
0100
0000
,
0000
1000
0000
0000
0100
0010
0001
2000
,
0000
0000
0000
0000
,
3000
0000
0000
0000
,
0001
1000
0010
1000
0001
0010
0001
1000
,
0010
1000
0001
0010
0001
1000
0010
0100
,
0001
1000
0010
1000
,
0100
0010
0100
0100
,
0010
0001
0100
0010
,
1000
0001
0100
0000
,
0001
0100
0010
1000
0000
0000
0000
0000
,
1000
0010
0100
0001
0000
0000
0000
0000
,
1000
0000
0000
0000
0010
0100
0001
1000
,
0001
0010
0100
2000
0000
0000
0000
0000
,
3100
0000
0000
1000
0000
0000
0010
0000
0000
0000
0000
0000
0000
0000
0000
0000
,
0100
0000
0000
0010
0000
0000
1000
0000
0000
0000
0000
0000
0000
0000
0000
0000
,
0010
0000
0000
0100
0000
0000
0001
0000
0000
1000
0000
0000
0010
0000
0100
0000
,
0001
1000
0010
1000
0000
0000
0000
0000
,
0100
0000
0000
0010
0000
0000
0001
0000
,
0100
0000
0000
0010
0000
0000
0100
0010
,
1000
0001
0010
0100
,
0010
0000
0001
1000
0000
0000
0000
0000
,
0220
0000
0000
0330
,
0010
0010
0100
0100
,
0001
0000
0000
1000
0000
0000
0001
0000
,
0010
0000
0000
0001
0000
0000
1000
0000
,
0100
1000
0010
0100
,
0001
0010
0100
0010
,
0001
0000
0000
0010
0000
0000
0001
0000
,
1000
0000
0000
0100
0000
0000
1000
0000
,
0010
0100
0001
1000
,
0010
0000
0100
0000
0001
0010
0100
1000
,
0100
0000
0000
1000
0000
0000
0010
0000
,
0100
0000
0000
0001
0000
0000
0100
0000
,
0010
0000
0000
1000
0000
0000
0010
0000
,
0000
0100
0000
0000
0001
0000
0000
0000
,
1000
0000
0000
0001
0000
0000
0010
0000
,
0001
0000
0000
0010
0000
0000
0100
0000
,
1000
0000
0000
0100
0000
0000
0001
0000
,
0100
0000
0000
0010
0000
0000
0000
0000
,
0022
0000
0033
0000
,
2200
0000
3300
0000
,
1000
0001
0100
0010
,
0100
0010
1000
0001
0000
0000
0000
0000
,
1000
0000
0000
0010
0000
0000
0100
0000
,
0000
0010
0000
0000
0100
0010
1000
0002
,
0000
0000
0000
0013
0000
0000
0001
0000
,
0000
1000
0000
0000
0001
0010
0100
0020
,
0000
0000
0000
0000
,
0030
0000
0000
0000
,
0001
1000
0100
1000
0001
0100
0001
1000
,
0100
1000
0001
0100
0001
1000
0100
0010
,
0001
0000
1000
0000
,
0010
0100
0001
1000
,
0100
0000
1000
0000
,
0010
0100
0000
0000
,
0010
0100
0001
1000
0000
0000
0000
0000
,
1000
0001
0100
0010
0000
0000
0000
0000
,
0100
0000
0000
0000
0010
0100
0001
1000
,
0001
0010
0100
0010
0000
0000
0000
0000
,
0100
0010
0001
0100
,
0010
1000
0010
0010
,
0100
0001
1000
0100
,
1000
0010
0200
0000
,
0310
1000
0001
0020
0000
0000
0000
0000
,
0130
0001
1000
0200
0000
0000
0000
0000
,
0310
0002
0000
0000
1003
0000
0001
0000
,
0100
0010
1000
0001
0020
0000
0000
0000
,
0130
0000
0000
0010
0000
0000
0001
0000
0000
0000
1000
0000
0010
0000
0000
0000
,
0100
0000
0000
0001
0000
0000
1000
0000
0000
0000
0100
0000
0010
0000
0000
0000
,
0100
0000
0000
1000
0000
0000
0010
0000
0000
0100
0000
0000
0010
0000
1000
0000
,
0001
0010
0100
0010
0000
0000
0000
0000
,
0100
0000
0000
0010
0000
0000
0001
0000
,
1000
0000
0000
0010
0000
0000
0100
0001
,
0010
0100
0010
0001
1000
0010
0100
0001
,
0010
0001
1000
0100
0000
0000
0000
0000
,
2002
0000
0000
3003
,
0001
1000
0010
2000
0000
0000
3000
0000
;

//---------------dance-single - ----------------
#NOTEDATA:;
#CHARTNAME:;
#STEPSTYPE:dance-single;
#DESCRIPTION:;
#CHARTSTYLE:;
#DIFFICULTY:Easy;
#METER:5;
#RADARVALUES:0.326613,0.388970,0.024066,0.080221,0.000000,285.000000,282.000000,3.000000,10.000000,0.000000,0.000000,0.000000,0.000000,0.000000,0.326613,0.388970,0.024066,0.080221,0.000000,285.000000,282.000000,3.000000,10.000000,0.000000,0.000000,0.000000,0.000000,0.000000;
#CREDIT:;
#NOTES:
0000
0000
0000
0000
,
0000
0000
0000
0000
,
0000
0000
0000
0000
,
0000
0000
0000
0000
,
0000
0000
0000
0000
,
0000
0000
0000
0000
,
0000
0000
0000
0000
,
0000
0000
0000
0000
,
1000
0010
0000
1000
,
0010
0100
0000
0010
,
0100
0001
0000
1000
,
0001
0010
0001
1000
,
0100
1000
0000
0100
,
1000
0010
0000
0100
,
0010
0010
1000
1000
,
0001
0001
0100
0010
,
1000
0000
0000
0000
0000
0010
0000
0000
,
1000
0000
0000
0000
,
0100
0000
0000
0000
0000
0010
0000
0000
,
0001
0000
0000
0000
,
1000
0000
0000
0000
0000
0001
0000
0000
,
0100
0000
0000
0000
,
0010
0000
0000
1000
0000
0000
0010
0000
,
0100
0000
0000
0001
0000
0000
0000
0000
,
2000
0000
3000
0000
,
0020
0000
0030
0000
,
0100
0000
0001
0000
,
0010
0001
1000
0000
,
0001
0000
0000
0001
0000
0000
1000
0000
,
0000
1000
0000
0000
0010
0000
1000
0000
,
0100
0000
0000
1000
0000
0000
0010
0000
,
0000
0100
0000
0000
0010
0000
1000
0000
,
0002
0000
0000
0000
,
0003
0000
0000
0000
,
1000
0000
0000
0001
0000
0000
0100
0000
,
0000
0010
0000
0000
1000
0000
0000
0000
,
0010
1000
0010
0100
,
0001
0010
0100
0100
,
0010
0001
0100
0010
,
1000
0001
0000
0000
,
1000
0100
1000
0001
0000
0000
0000
0000
,
1000
0010
1000
0001
0000
0000
0000
0000
,
1000
0000
0010
1000
,
1000
0100
1000
0002
0000
0000
0000
0000
,
0013
0001
0100
0000
,
0010
1000
0100
0000
,
0010
0001
0100
0010
,
1000
0100
0010
0000
,
0100
0000
0000
1000
0000
0000
0010
0000
,
0100
0000
0000
0001
0000
0000
1000
0000
,
0001
0100
0001
0010
,
0100
0010
0001
1000
,
0020
0000
0000
0000
,
0130
0010
1000
0001
,
1000
0000
0000
1000
0000
0000
0000
0000
,
0001
0000
0000
0001
0000
0000
0000
0000
,
1000
0010
0100
0001
,
0100
0010
1000
0001
,
1000
0000
0000
0100
0000
0000
0010
0000
,
0001
0000
0000
0010
0000
0000
0100
0000
,
1000
0100
1000
0010
,
0100
0001
0010
0100
,
1000
0000
0000
0100
0000
0000
1000
0000
,
0010
0000
0000
0100
0000
0000
0001
0000
,
1000
0000
0000
0100
0000
0000
0010
0000
,
0000
0001
0000
0000
0010
0000
0000
0000
,
0001
0000
0000
0100
0000
0000
0010
0000
,
1000
0000
0000
0010
0000
0000
0100
0000
,
0010
0000
0000
0010
0000
0000
0010
0000
,
1000
0000
0000
1000
0000
0000
0000
0000
,
1001
0000
0000
0000
,
0110
0000
0000
0000
,
0100
0000
0010
0000
,
1000
0010
0100
0000
,
0001
0000
0000
1000
0000
0000
0010
0000
,
0000
1000
0000
0000
0100
0000
1000
0000
,
0000
0000
0000
0010
0000
0000
0100
0000
,
0000
0001
0000
0000
0010
0000
0000
0000
,
0002
0000
0000
0000
,
0003
0000
0000
0000
,
1000
0000
0000
0010
0000
0000
0100
0000
,
0000
0001
0000
0000
0100
0000
0010
0000
,
1000
0000
0001
0000
,
0010
0000
0001
0000
,
1000
0000
0100
0000
,
1000
0000
0000
0000
,
0001
0100
0010
1000
0000
0000
0000
0000
,
1000
0010
0100
0001
0000
0000
0000
0000
,
0100
0000
0010
0100
,
0001
1000
0001
1000
0000
0000
0000
0000
,
0001
0100
0010
1000
,
0010
0100
0001
0001
,
1000
0001
0010
0001
,
0100
0010
1000
0000
,
0010
0100
0001
1000
0000
0000
0000
0000
,
0100
0010
0001
1000
0000
0000
0000
0000
,
0001
0000
1000
0010
,
0100
0010
1000
0002
0000
0000
0000
0000
,
1003
0001
0100
0000
,
0001
1000
0100
0000
,
1000
0001
0100
0001
,
1000
0100
0010
0100
,
1000
0000
0000
0010
0000
0000
0100
0000
,
0001
0000
0000
0010
0000
0000
0100
0000
,
0010
0001
0100
0010
,
1000
0001
0000
0000
,
2002
0000
0000
3003
,
0001
0100
0010
2000
0000
0000
3000
0000
;

//---------------dance-single - ----------------
#NOTEDATA:;
#CHARTNAME:;
#STEPSTYPE:dance-single;
#DESCRIPTION:;
#CHARTSTYLE:;
#DIFFICULTY:Beginner;
#METER:3;
#RADARVALUES:0.163880,0.300427,0.072199,0.000000,0.000000,143.000000,134.000000,9.000000,0.000000,0.000000,0.000000,0.000000,0.000000,0.000000,0.163880,0.300427,0.072199,0.000000,0.000000,143.000000,134.000000,9.000000,0.000000,0.000000,0.000000,0.000000,0.000000,0.000000;
#CREDIT:;
#NOTES:
0000
0000
0000
0000
,
0000
0000
0000
0000
,
0000
0000
0000
0000
,
0000
0000
0000
0000
,
0000
0000
0000
0000
,
0000
0000
0000
0000
,
0000
0000
0000
0000
,
0000
0000
0000
0000
,
1000
0000
0000
0000
,
0001
0000
0000
0000
,
1000
0000
0000
0000
,
0010
0000
0000
0000
,
1000
0000
0000
0000
,
0001
0000
0000
0000
,
1000
0000
0001
0000
,
1000
0000
0010
0000
,
0110
0000
0000
0000
,
0010
0000
0000
0000
,
1001
0000
0000
0000
,
1000
0000
0000
0000
,
0110
0000
0000
0000
,
0010
0000
0000
0000
,
1000
0000
0000
0000
,
0001
0000
0000
0000
,
0100
0000
0000
0000
,
0010
0000
0000
0000
,
1000
0000
0001
0000
,
0100
0000
0000
0000
,
0010
0000
0000
1000
,
0000
0000
0001
1000
,
0000
0000
0000
0001
,
0000
0000
0010
0000
,
1001
0000
0000
0000
,
0000
0000
0000
0000
,
0100
0000
0000
0000
,
0000
0000
0000
0000
,
0010
0000
0000
0000
,
1000
0000
0000
0000
,
0001
0000
0000
0000
,
1000
0000
0000
0000
,
0001
0100
0000
0000
,
0010
1000
0000
0000
,
0001
0000
1000
0001
,
0100
0010
0000
0000
,
0100
0000
0000
0000
,
0010
0000
0000
0000
,
1000
0000
0001
0000
,
1000
0001
0000
0000
,
0100
0000
0000
0000
,
0010
0000
0000
0000
,
1000
0000
0010
0000
,
0100
0000
0001
0000
,
1001
0000
0000
0000
,
1000
1000
0001
0001
,
1000
0000
0000
0000
,
1000
0000
0000
0000
,
0010
0000
0000
0000
,
0100
0000
0000
0000
,
0001
0000
0000
0000
,
0001
0000
0000
0000
,
1000
0000
0001
0000
,
0100
0000
0010
0000
,
1000
0000
0000
0000
,
0010
0000
0000
0000
,
0100
0000
0000
0000
,
0001
0000
0000
0000
,
0010
0000
0000
0000
,
0001
0000
0000
0000
,
1000
0000
0000
0000
,
0010
0000
0000
0000
,
1001
0000
0000
0000
,
0110
0000
0000
0000
,
0010
0000
1000
0000
,
0001
0000
0000
0000
,
1000
0000
0000
0001
,
0000
0000
0010
0001
,
0000
0000
0000
0100
,
0000
0000
0010
0000
,
1001
0000
0000
0000
,
0000
0000
0000
0000
,
0010
0000
0000
0000
,
0000
0000
0000
0000
,
1000
0000
0000
0000
,
0001
0000
0000
0000
,
1000
0000
0000
0000
,
0001
0000
0000
0000
,
1000
1000
0000
0000
,
0001
0001
0000
0000
,
1000
0000
0001
1000
,
0001
0001
0000
0000
,
0100
0000
0000
0000
,
0010
0000
1000
0010
,
0100
0000
0000
0000
,
0010
0000
0000
0000
,
1000
0001
0000
0000
,
0010
0001
0000
0000
,
0100
0000
0010
0100
,
0001
1000
0000
0000
,
0100
0000
0000
0000
,
1000
0000
0000
0000
,
0010
0000
0100
0000
,
0001
1000
0000
0000
,
0001
0000
0000
0000
,
0100
0000
0000
0000
,
0010
0000
1000
0000
,
0001
0000
0100
0000
,
1001
0000
0000
0000
,
0010
0000
0000
0000
;

//---------------dance-single - ----------------
#NOTEDATA:;
#CHARTNAME:;
#STEPSTYPE:dance-single;
#DESCRIPTION:;
#CHARTSTYLE:;
#DIFFICULTY:Challenge;
#METER:12;
#RADARVALUES:0.893889,1.210130,0.200552,0.352971,0.489347,780.000000,755.000000,25.000000,44.000000,0.000000,0.000000,2.000000,0.000000,0.000000,0.893889,1.210130,0.200552,0.352971,0.489347,780.000000,755.000000,25.000000,44.000000,0.000000,0.000000,2.000000,0.000000,0.000000;
#CREDIT:;
#NOTES:
// measure 0
0000
0000
0000
0000
,  // measure 1
0000
0000
0000
0000
,  // measure 2
0000
0000
0000
0000
,  // measure 3
0000
0000
0000
0000
,  // measure 4
0000
0000
0000
0000
,  // measure 5
0040
0400
0000
0000
0000
0000
0000
0000
0000
0000
0000
0000
0000
0000
0000
0000
,  // measure 6
0000
0330
0000
0000
,  // measure 7
0000
0000
0000
0000
2002
3003
0000
0000
,  // measure 8
1000
0000
0010
0000
1000
0000
0001
0000
0010
0000
0001
0000
1000
0000
0001
1000
,  // measure 9
0001
0010
0001
0100
0010
1000
0001
0000
,  // measure 10
0001
0000
0100
0000
0001
0000
1000
0000
0100
0000
1000
0000
0001
1000
0001
1000
,  // measure 11
0001
0100
0010
1000
0100
1000
0010
1000
,  // measure 12
0001
0000
0010
0000
0001
0000
1000
0000
0010
0000
0100
0000
0001
0000
1000
0001
,  // measure 13
1000
0010
1000
0001
0010
0001
1000
0100
,  // measure 14
0010
0000
0010
0000
0001
0000
0100
0000
0010
0000
1000
0001
1000
0000
0001
0000
,  // measure 15
0100
0000
0010
1000
0010
0000
1000
0000
0100
0010
0100
0010
0001
1000
0001
1000
,  // measure 16
0010
0000
1000
0000
1000
0000
0001
0000
0010
0000
1000
0000
0010
0000
0001
0010
,  // measure 17
0001
0010
0010
0100
1000
0001
0100
0000
,  // measure 18
0010
0000
1000
0000
1000
0000
0001
0000
0010
0000
0100
0000
0010
0001
0010
0001
,  // measure 19
0010
0001
0001
1000
0001
0010
1000
0010
,  // measure 20
0001
0000
1000
0000
1000
0000
0010
0000
0100
0000
0001
0000
1000
0000
0001
1000
,  // measure 21
0001
0000
0010
0000
0010
0000
0100
0000
0010
0000
0001
0000
1000
0000
0010
0100
,  // measure 22
0002
0000
0000
2003
0000
0000
3200
0000
,  // measure 23
2300
0000
0000
3020
0000
0000
0230
0000
,  // measure 24
0320
0000
0000
0000
0030
0100
0001
1000
,  // measure 25
0200
0000
0000
0000
0300
0010
0100
1000
,  // measure 26
0001
0100
0001
1000
0100
1000
0001
1000
,  // measure 27
0010
0000
1000
0000
0001
0000
0020
0000
0000
0000
0000
0000
0130
0010
0100
0010
,  // measure 28
0001
0000
0000
1010
0000
0000
0101
0000
,  // measure 29
0000
0011
0000
0000
0001
0010
1000
1020
,  // measure 30
0000
0000
0030
0011
0000
0000
1100
0000
,  // measure 31
0000
0101
0000
0000
0001
0100
1000
0200
,  // measure 32
0000
0000
0000
0010
0010
0000
0001
0001
,  // measure 33
0000
0010
0010
0000
0301
0010
0100
1000
,  // measure 34
0001
0000
1000
0010
1000
0000
0010
0000
0100
0010
0100
0000
0010
0000
0100
0001
,  // measure 35
0100
0000
0001
0000
0010
0001
0010
0000
0001
0000
1000
0001
1000
0000
0010
0100
,  // measure 36
0010
0000
1000
0100
0000
0100
1000
0010
,  // measure 37
0100
0001
0010
0100
0010
0000
1001
0000
,  // measure 38
0101
0000
0001
0010
0000
0100
0010
0001
,  // measure 39
0100
0000
0010
0000
1000
0000
0001
0000
0010
0100
0010
0100
0010
0100
0010
0100
,  // measure 40
0010
0000
0001
0000
1000
0000
0010
0000
0100
0001
0100
0001
0100
0001
0100
0001
,  // measure 41
0100
0000
0010
0000
1000
0000
0100
0000
0010
0001
0010
0001
0010
0001
0010
0001
,  // measure 42
0010
0000
0100
1000
0100
1000
0100
1000
0100
0000
0010
0000
0001
0000
1000
0000
,  // measure 43
1001
0010
1001
0100
0020
0000
0000
0000
,  // measure 44
1030
0000
0010
1000
0000
0001
0100
0000
0000
0000
0001
0000
0010
0000
0100
0000
,  // measure 45
0010
0000
0001
0010
0000
0100
1000
0000
0000
0000
0001
0000
0010
0000
0100
0000
,  // measure 46
0010
0000
0001
0010
0000
0100
1000
0000
0001
0100
0000
0010
1000
0000
0001
0000
,  // measure 47
1000
0000
0100
0000
1000
0000
0010
0000
0100
0001
0100
0001
0100
0001
0100
0001
,  // measure 48
0100
0000
0010
1000
0001
0000
0010
0000
0100
0010
0001
0000
1000
0000
0001
0100
,  // measure 49
0010
0000
0100
0010
1000
0000
0100
0000
0010
0001
1000
0000
0001
0100
0001
0100
,  // measure 50
0001
0010
1000
0010
0001
0100
1000
0100
,  // measure 51
0010
0000
1000
0000
0001
0000
1000
0000
0000
0000
0000
0000
0010
0100
0001
2000
,  // measure 52
0002
0000
0000
3003
,  // measure 53
1001
0110
1001
0110
,  // measure 54
0001
0000
0000
0000
1000
0100
1000
0000
0000
0000
0001
0100
0001
0000
0100
0010
,  // measure 55
0100
0000
0000
0000
0001
1000
0001
0000
0000
0000
1000
0100
1000
0000
0100
0010
,  // measure 56
0200
0320
0032
0203
,  // measure 57
0320
2030
3002
0023
,  // measure 58
0032
0000
0103
0020
0000
0130
0001
1000
,  // measure 59
0200
0000
0301
0200
0000
0310
0001
1000
,  // measure 60
0010
1000
0001
0010
0100
0010
0001
0100
,  // measure 61
0010
0000
1000
0000
0001
0000
0020
0000
0000
0000
0031
1000
0001
1000
0001
1000
,  // measure 62
0001
0000
0000
0000
1000
0001
0100
0000
0000
0000
0100
0010
1000
0000
0100
0010
,  // measure 63
0001
0000
0000
0000
0010
0100
1000
0000
0000
0000
0100
0010
0001
0000
0010
0001
,  // measure 64
1000
0100
0010
0001
1000
0100
0010
0100
,  // measure 65
1000
0100
0010
0001
0010
0100
0010
0001
,  // measure 66
2000
0000
3010
0200
0000
0310
1000
0001
,  // measure 67
0020
0000
0130
0002
0000
0103
0010
1000
,  // measure 68
0001
0000
1000
0010
0000
0100
0001
0000
,  // measure 69
0010
0000
0001
0010
0000
0100
0010
0000
,  // measure 70
2002
0000
0000
0000
3003
0001
0100
1000
,  // measure 71
2200
0000
0000
0000
3300
1000
0100
0010
,  // measure 72
1000
0001
0010
1000
0010
0001
0100
0010
,  // measure 73
0100
0000
0001
0000
0010
0000
0200
0000
0000
0000
0000
0000
0310
0001
0010
0001
,  // measure 74
1000
0010
0010
0100
0001
0001
0010
0100
,  // measure 75
0100
0010
0001
0001
1000
0010
0100
0001
,  // measure 76
1000
1000
0100
0010
0010
0100
1000
1000
,  // measure 77
0001
0100
0100
0010
1000
0001
1000
0020
,  // measure 78
0000
0000
0000
1000
1000
0000
0100
0100
,  // measure 79
0000
1000
1000
0000
0130
0010
1000
0001
,  // measure 80
1000
0000
0100
0001
1000
0000
0100
0000
0010
0001
1000
0000
0010
0000
0100
1000
,  // measure 81
0001
0000
0010
0000
0100
0010
0001
0000
1000
0001
0100
0001
1000
0100
1000
0001
,  // measure 82
0100
0000
0010
0100
0000
0100
0010
1000
,  // measure 83
0001
0010
0100
1000
0100
0000
0010
0000
,  // measure 84
0100
0000
1000
0100
0000
0100
1000
0010
,  // measure 85
0100
0001
1000
0010
0000
0000
0000
0000
,  // measure 86
1000
0001
0010
0100
0000
0000
0000
0000
,  // measure 87
0100
0010
0001
1000
0000
0000
0000
0000
,  // measure 88
0100
0000
0000
0000
0010
0001
0010
0100
,  // measure 89
0010
0001
0100
0010
0000
0100
0010
1000
,  // measure 90
0001
0000
1000
0001
0000
0010
0001
0100
,  // measure 91
0010
1000
0001
0010
0100
0000
0110
0000
,  // measure 92
0011
0000
0001
0100
0000
0001
1000
0100
,  // measure 93
0010
0000
0100
0000
1000
0000
0010
0000
0100
0001
0100
0001
0100
0001
0100
0001
,  // measure 94
0100
0000
0010
0000
1000
0000
0100
0000
0010
0001
0010
0001
0010
0001
0010
0001
,  // measure 95
0010
0000
0100
0000
1000
0000
0001
0000
0100
0010
0100
0010
0100
0010
0100
0010
,  // measure 96
0100
0000
0001
1000
0001
1000
0001
1000
0001
0000
0010
0000
0001
0000
0100
0000
,  // measure 97
1001
0010
0100
1002
0200
0000
0000
0303
,  // measure 98
0001
0000
1000
0010
0000
0100
0001
0000
0000
0000
0010
0000
0100
0000
1000
0000
,  // measure 99
0001
0000
1000
0010
0000
0100
0001
0000
0000
0000
0010
0000
0001
0000
0100
0000
,  // measure 100
0010
0000
1000
0010
0000
0100
0001
0000
0010
0100
0000
1000
0001
0000
0100
0000
,  // measure 101
0001
0000
0010
0000
0100
0000
0010
0000
0001
1000
0001
1000
0001
1000
0001
1000
,  // measure 102
0001
0000
1000
0001
0100
0000
0010
0100
0001
0000
1000
0001
0100
0000
0000
0000
,  // measure 103
0010
0000
0100
0001
1000
0000
0100
0010
0001
0000
0010
0100
1000
0010
0100
0001
,  // measure 104
1000
0100
0001
0100
1000
0010
0001
0010
,  // measure 105
0100
0000
0001
0000
1000
0000
0001
0000
0000
0000
0000
0000
0100
0010
1000
0002
,  // measure 106
2000
0000
0000
3003
,  // measure 107
1001
0010
1001
0210
0000
0010
0310
0000
;
