#VERSION:0.83;
#TITLE:Nutmeg;
#SUBTITLE:;
#ARTIST:Infected Mushroom;
#TITLETRANSLIT:;
#SUBTITLETRANSLIT:;
#ARTISTTRANSLIT:;
#GENRE:;
#ORIGIN:;
#CREDIT:;
#BANNER:Nutmeg.png;
#BACKGROUND:Nutmeg-bg.png;
#PREVIEWVID:;
#JACKET:Nutmeg-jacket.png;
#CDIMAGE:;
#DISCIMAGE:;
#LYRICSPATH:;
#CDTITLE:;
#MUSIC:Nutmeg.ogg;
#OFFSET:-1.719000;
#SAMPLESTART:82.290436;
#SAMPLELENGTH:13.714287;
#SELECTABLE:YES;
#BPMS:0.000=140.000;
#STOPS:;
#DELAYS:;
#WARPS:;
#TIMESIGNATURES:0.000=4=4;
#TICKCOUNTS:0.000=4;
#COMBOS:0.000=1;
#SPEEDS:0.000=1.000=0.000=0;
#SCROLLS:0.000=1.000;
#FAKES:;
#LABELS:0.000=Song Start;
#BGCHANGES:;
#KEYSOUNDS:;
#ATTACKS:
;

//---------------dance-single - ----------------
#NOTEDATA:;
#CHARTNAME:;
#STEPSTYPE:dance-single;
#DESCRIPTION:;
#CHARTSTYLE:;
#DIFFICULTY:Hard;
#METER:8;
#RADARVALUES:0.485237,0.503871,0.339666,0.150085,0.118488,430.000000,387.000000,43.000000,19.000000,0.000000,0.000000,6.000000,0.000000,0.000000,0.485237,0.503871,0.339666,0.150085,0.118488,430.000000,387.000000,43.000000,19.000000,0.000000,0.000000,6.000000,0.000000,0.000000;
#CREDIT:;
#NOTES:
0000
0000
0000
0000
,
0000
0000
0000
0000
,
0000
0000
0000
0000
,
0001
0010
0001
0100
,
0010
1000
0010
0000
0100
0000
0001
0000
,
1000
0100
1000
0010
,
0100
0001
0100
0000
0001
0000
1000
0000
,
0100
0010
0001
0100
,
1000
0100
0010
0000
1000
0000
0001
0000
,
0010
0001
1000
0010
,
1000
0001
1000
0000
0100
0000
1001
0000
,
0101
0000
0010
0000
1000
0000
0100
1000
,
0010
0100
0020
0000
1030
0200
0010
0300
,
1100
0000
0101
0000
1001
0000
0001
0010
,
0001
0100
0020
0000
1030
0100
0001
0100
,
0110
0000
0011
0000
1100
0000
0100
0010
,
0001
1000
0010
0000
0100
0001
1000
0100
,
0110
0000
1100
0000
1010
0000
0010
0100
,
0001
1000
0000
1000
0200
0000
0000
0000
0310
0000
0001
0000
0010
0000
0100
0000
,
1001
0000
0000
0000
1000
0000
0010
0000
0100
0000
0001
0000
0010
0000
0100
1000
,
0000
0000
0000
0000
0100
0000
1000
0000
0010
0000
0000
0000
0100
0000
0000
0001
,
0000
0000
0100
0001
0010
1000
0010
0001
,
1000
0020
0000
0000
0130
0000
0001
0000
1000
0000
0100
0000
1000
0000
0001
0000
,
0000
0000
0000
0000
0001
0000
1000
0000
0010
0000
1000
0000
0001
0000
1000
0010
,
0000
0000
0000
0000
0100
0000
0001
0000
0010
0000
0000
0000
0100
0000
0000
0001
,
0000
0000
0100
1000
0001
0100
0001
0010
,
0001
0000
0000
1000
0010
0000
1000
0000
0001
0000
0000
1000
0100
0000
0010
0000
,
0200
0300
0000
0000
0010
0000
0001
0000
0100
0000
0010
0000
1000
0000
0100
0000
,
1000
0000
0001
0010
0001
1000
0100
1000
,
0002
0000
0103
1000
0100
0010
1000
0001
,
0010
0200
0000
0300
0010
0000
0100
0000
1000
0000
0001
0000
0100
0000
0010
0000
,
2000
3000
0000
0000
0001
0000
0010
0000
1000
0000
0010
0000
0100
0000
0010
0000
,
0001
0000
1000
0100
0001
0100
1000
0010
,
1001
0000
0001
1000
0100
1000
0010
0100
,
0001
0000
0000
0100
1000
0000
0010
0000
0100
0000
0000
0001
0100
0000
0010
0000
,
1001
0000
0000
0110
0000
0000
0000
0000
,
0000
0000
0000
0000
,
1001
0000
0000
0110
0000
0000
0000
0000
,
0000
0000
0000
0000
,
0102
0100
0100
0103
,
2010
0010
0010
3010
,
0210
0010
0010
0310
,
1002
1000
1000
1003
,
1001
0002
0400
0303
1001
2000
0400
3300
,
1001
0002
0040
0033
1001
2000
0040
3030
,
4004
0000
0000
0000
,
3003
0000
0000
0000
,
1001
0001
0010
0001
1000
0100
0001
0100
,
0000
0010
1000
0100
0010
0001
0010
1000
,
0000
0010
0001
0010
0100
1000
0100
1000
,
0000
0001
1000
0001
0010
1000
0010
0001
,
1000
0000
0001
0100
0000
0000
0001
1000
0000
0000
0001
0010
0000
0000
0001
1000
,
0000
0000
1000
0001
0000
0000
1000
0010
0000
0000
1000
0001
0000
0000
1000
0100
,
0000
0010
0001
0010
0100
1000
0010
0100
,
0000
0010
0100
0001
1000
0100
0010
0001
,
1000
0001
0010
0001
0100
1000
0100
0001
,
0000
0001
0100
0010
1000
0010
0001
0010
,
0000
1000
0010
0100
0001
0010
0001
0010
,
0000
0100
1000
0001
1000
0100
0001
0100
,
1000
0000
0010
1000
0000
0000
0001
0100
0000
0000
1000
0001
0000
0000
0001
1000
,
0000
0000
0001
0010
0000
0000
0100
1000
0000
0000
1000
0001
0000
0000
0001
1000
,
0000
0001
0010
0100
1000
0100
0001
0100
,
0000
0010
0001
0010
1000
0010
0100
0001
,
1001
0001
1001
1000
,
0110
0010
0110
0100
,
0001
0200
1000
0300
1000
0200
0001
0300
,
0001
0010
0001
0010
0001
0010
0001
0010
,
1001
0101
0011
0110
,
1100
1010
0101
0011
,
1001
0110
1001
0110
,
0000
0000
1000
0000
0000
1000
0000
0000
0001
0000
0000
0001
0000
0000
0100
0000
;

//---------------dance-single - ----------------
#NOTEDATA:;
#CHARTNAME:;
#STEPSTYPE:dance-single;
#DESCRIPTION:;
#CHARTSTYLE:;
#DIFFICULTY:Medium;
#METER:6;
#RADARVALUES:0.382547,0.447885,0.308069,0.229077,0.007899,339.000000,300.000000,39.000000,29.000000,0.000000,0.000000,0.000000,0.000000,0.000000,0.382547,0.447885,0.308069,0.229077,0.007899,339.000000,300.000000,39.000000,29.000000,0.000000,0.000000,0.000000,0.000000,0.000000;
#CREDIT:;
#NOTES:
0000
0000
0000
0000
,
0000
0000
0000
0000
,
0000
0000
0000
0000
,
0001
0100
0010
1000
,
0100
1000
0100
0000
1000
0000
0001
0000
,
0010
0001
0100
0010
,
1000
0010
1000
0000
0001
0000
1000
0000
,
0001
0010
0100
0010
,
0001
0010
0100
0000
1000
0000
0100
0000
,
1000
0100
0010
0100
,
1000
0100
0010
0000
0100
0000
1001
0000
,
0001
0100
0010
1000
,
0010
0100
0002
0000
0013
0100
2000
0000
,
3100
1000
0010
0100
,
0001
0010
0002
0000
1003
0100
1000
0000
,
1001
0101
1001
1000
,
0001
0010
0200
0000
0310
0001
2000
0000
,
3001
0200
0302
0013
,
0010
0100
0010
0000
0100
0000
1000
0000
,
1001
0000
0001
0000
0100
0000
0010
1000
,
0100
0000
1000
0000
0020
0000
1030
0100
,
0001
0000
0100
0000
0010
0000
0001
0100
,
0010
0000
1000
0000
0001
0001
1000
0001
,
0000
0000
1000
0100
1000
0000
0010
0000
,
0100
0000
0001
0010
0200
0000
1300
0000
,
0010
0000
0100
0010
1000
0000
0001
0000
,
0011
0000
0100
1000
0020
0000
0130
0000
,
1001
0001
0100
0010
,
1010
1000
0010
0100
,
0012
0103
0100
0001
,
0020
0130
1000
1000
,
1100
0110
0001
0010
,
0110
0100
1000
0001
,
1020
1030
0100
1000
,
1001
0000
0001
0100
1000
0000
1000
0100
,
0110
0000
0000
0110
0000
0000
0000
0000
,
0000
0000
0000
0000
,
1001
0000
0000
1001
0000
0000
0000
0000
,
0000
0000
0000
0000
,
0002
0000
0203
0000
,
0320
0000
2030
0000
,
3200
0000
0320
0000
,
0032
0000
2003
0000
,
3010
1000
0200
0000
0310
0001
0200
0000
,
0310
1000
0200
0000
0310
0001
0200
0000
,
0310
0100
0010
0100
0010
0100
0010
0100
,
0010
0000
0000
0000
,
1001
0000
0001
0000
0010
0000
0100
1000
,
0010
0000
0100
0000
0001
0000
0010
0100
,
0010
0000
0001
0000
1000
0100
0010
0001
,
1000
0000
0001
0000
1000
0100
0010
0100
,
1000
1010
0010
0110
,
0100
0101
0001
0011
,
0001
0000
1000
0000
0010
0000
0100
0010
,
1000
0000
0001
0000
0010
0100
1000
0001
,
0100
0000
0010
0000
1000
0000
0100
0010
,
0001
0000
0010
0000
0001
0000
1000
0010
,
0100
0000
0001
0000
1000
0100
0010
0001
,
1000
0000
0010
0000
1000
0100
0010
0001
,
0010
0011
0001
1001
,
1000
1010
0010
0110
,
0100
0000
0010
0000
1000
0001
1000
0100
,
0010
0000
0001
0000
1000
0001
1000
0001
,
0011
1000
1010
0001
,
0011
1000
1010
1000
,
0010
0100
0001
0000
0001
0100
0010
0000
,
2000
3020
0230
0302
,
1003
1100
0100
0110
,
0010
0011
0001
1001
,
1010
0101
0011
1100
,
0000
0000
0100
0000
0000
0100
0000
0000
0010
0000
0000
0010
0000
0000
0001
0000
;

//---------------dance-single - ----------------
#NOTEDATA:;
#CHARTNAME:;
#STEPSTYPE:dance-single;
#DESCRIPTION:;
#CHARTSTYLE:;
#DIFFICULTY:Easy;
#METER:4;
#RADARVALUES:0.291142,0.391899,0.244875,0.371263,0.000000,258.000000,227.000000,31.000000,47.000000,0.000000,0.000000,0.000000,0.000000,0.000000,0.291142,0.391899,0.244875,0.371263,0.000000,258.000000,227.000000,31.000000,47.000000,0.000000,0.000000,0.000000,0.000000,0.000000;
#CREDIT:;
#NOTES:
0000
0000
0000
0000
,
0000
0000
0000
0000
,
0000
0000
0000
0000
,
0001
1000
0001
1000
,
0010
0010
0100
0010
,
1000
0001
1000
0001
,
0100
0100
0010
0100
,
0001
0100
0010
1000
,
0100
1000
0010
0100
,
0001
0010
0001
1000
,
0000
0000
0000
0110
,
1001
0001
0010
0001
,
1000
1000
0001
0100
,
0001
0010
0100
0010
,
0001
1000
0010
0100
,
1001
0110
1001
0001
,
0010
0010
0001
1000
,
1001
0110
1001
1000
,
0001
0100
0010
1000
,
0101
0001
0010
0010
,
0000
0001
1000
0100
,
1000
0010
1000
1000
,
0001
0010
0001
0001
,
0000
0100
0010
1000
,
0100
1000
0001
0100
,
0001
0010
0001
0100
,
0002
0013
0002
1003
,
0100
1000
0010
0100
,
0002
0013
0100
1000
,
0200
1300
0010
0100
,
0002
1003
0100
1000
,
0020
1030
0010
0100
,
0002
0013
0001
0100
,
0020
0130
0010
1000
,
1001
0010
1001
0100
,
1001
0000
0000
0000
,
0000
0000
0000
0000
,
0110
0000
0000
0000
,
0000
0000
0000
0000
,
2000
0000
0000
0000
,
3200
0000
0000
0000
,
0320
0000
0000
0000
,
0032
0000
0000
0003
,
2002
3003
0220
0330
,
2002
3003
0220
0330
,
1001
0110
1001
0110
,
1001
0000
0000
0000
,
0001
0100
0010
2000
,
3100
1000
0010
0200
,
0301
0010
0200
0320
,
0031
1000
0020
1030
,
0100
1000
0010
0010
,
0100
0001
0010
0010
,
0100
0010
0001
0010
,
0001
0010
0100
1000
,
1001
0001
0010
0200
,
0310
0001
1000
0020
,
0130
0001
2000
3200
,
0310
0100
0020
0032
,
0103
0001
2000
3010
,
0100
0001
2000
3100
,
1000
0001
2000
3100
,
1000
0010
0200
0301
,
1001
0000
0110
0000
,
1010
0000
0101
0000
,
0000
0001
1000
0000
0000
0001
1000
0000
,
0020
2030
3020
0230
,
0302
0023
0230
2300
,
3200
0320
0032
1003
,
0101
1010
1100
0011
,
0200
0000
0000
0000
0000
0000
0000
0300
;

//---------------dance-single - ----------------
#NOTEDATA:;
#CHARTNAME:;
#STEPSTYPE:dance-single;
#DESCRIPTION:;
#CHARTSTYLE:;
#DIFFICULTY:Beginner;
#METER:1;
#RADARVALUES:0.103818,0.192839,0.086891,0.000000,0.000000,92.000000,81.000000,11.000000,0.000000,0.000000,0.000000,0.000000,0.000000,0.000000,0.103818,0.192839,0.086891,0.000000,0.000000,92.000000,81.000000,11.000000,0.000000,0.000000,0.000000,0.000000,0.000000,0.000000;
#CREDIT:;
#NOTES:
0000
0000
0000
0000
,
0000
0000
0000
0000
,
0000
0000
0000
0000
,
1000
0000
0000
0000
,
1000
0000
0000
0000
,
0001
0000
0000
0000
,
0001
0000
0000
0000
,
0010
0000
0000
0000
,
0010
0000
0000
0000
,
0100
0000
0000
0000
,
0000
0000
0000
0100
,
1001
0000
0000
0000
,
1000
0000
0000
0000
,
0001
0000
0000
0000
,
0010
0000
0000
0000
,
0100
0100
0100
0000
,
0010
0000
0000
0000
,
1000
1000
1000
0000
,
0001
0000
1000
0000
,
0110
0000
0000
0000
,
0100
0000
0000
0000
,
0010
0000
0000
0000
,
1000
0000
0000
0000
,
0001
0000
0000
0000
,
1000
0000
0000
0000
,
0010
0000
0000
0000
,
1001
0000
0110
0000
,
1001
0000
0000
0000
,
1000
0000
0000
0000
,
0110
0000
0000
0000
,
0100
0000
0000
0000
,
0001
0000
0000
0000
,
1000
0000
0000
0000
,
0010
0000
0000
0000
,
0100
0000
0010
0000
,
1001
0000
0000
0000
,
0000
0000
0000
0000
,
1001
0000
0000
0000
,
0000
0000
0000
0000
,
0010
0000
0000
0000
,
0010
0000
0000
0000
,
0010
0000
0000
0000
,
0010
0000
0000
0000
,
1000
0000
0001
0000
,
0100
0000
0010
0000
,
1001
0000
0010
0000
,
0000
0000
0000
0000
,
0110
0000
0000
0000
,
1000
0000
0000
0000
,
0001
0000
0000
0000
,
0100
0000
0000
0000
,
0010
0000
0000
0000
,
0010
0000
0000
0000
,
0100
0000
0000
0000
,
0001
0000
0000
0000
,
0110
0000
0000
0000
,
1000
0000
0000
0000
,
0100
0000
0000
0000
,
1000
0000
0000
0000
,
0001
0000
0000
0000
,
0001
0000
0000
0000
,
0010
0000
0000
0000
,
0001
0000
0000
0000
,
0100
0000
0100
0000
,
0100
0000
0100
0000
,
0010
0000
0000
0000
,
0010
0000
0000
0000
,
1000
0000
1000
0000
,
0001
0000
0001
0000
,
0100
0100
0100
0100
;

//---------------dance-single - ----------------
#NOTEDATA:;
#CHARTNAME:;
#STEPSTYPE:dance-single;
#DESCRIPTION:;
#CHARTSTYLE:;
#DIFFICULTY:Challenge;
#METER:12;
#RADARVALUES:0.836187,0.867777,0.213279,0.442356,1.176982,741.000000,714.000000,27.000000,56.000000,0.000000,0.000000,4.000000,0.000000,0.000000,0.836187,0.867777,0.213279,0.442356,1.176982,741.000000,714.000000,27.000000,56.000000,0.000000,0.000000,4.000000,0.000000,0.000000;
#CREDIT:;
#NOTES:
// measure 0
0000
0000
0000
0000
,  // measure 1
0000
0000
0000
0000
,  // measure 2
0000
0000
0000
0000
,  // measure 3
1001
0001
0010
0001
,  // measure 4
1000
0010
0100
0000
0001
0000
0010
0000
,  // measure 5
0110
0100
1000
0010
,  // measure 6
0100
0001
0010
0000
0001
0000
1000
0000
,  // measure 7
0001
0100
0010
1000
0100
1000
0001
0010
,  // measure 8
0001
0100
0010
1000
0100
0010
0100
1000
,  // measure 9
0001
0100
0010
1000
0001
0010
0001
0100
0010
1000
0100
0010
0100
1000
0010
0100
,  // measure 10
0001
1000
0001
0000
0100
0000
1001
0000
,  // measure 11
0101
0000
2010
0000
3200
0000
0310
0100
,  // measure 12
1000
0000
0010
0000
0002
0000
0000
0000
0013
0000
0100
0010
0000
0100
0010
0100
,  // measure 13
0020
0000
0000
0000
2030
0000
0000
0000
3200
0000
0000
0310
0100
1000
0001
0100
,  // measure 14
0001
0000
0000
0000
0000
0000
0010
0000
0000
0000
0000
0000
0001
0000
0100
0000
0001
0000
0100
0000
0001
0000
0100
0000
0020
0000
0000
0000
0000
0000
1030
0000
0000
0010
0000
0000
0000
0000
0000
0010
0000
0000
1000
0000
0000
0010
0000
0000
,  // measure 15
1000
0000
0000
0000
0020
0000
0000
0000
0000
0000
0000
0000
0000
0000
0000
0000
0000
0000
0030
0000
0000
0000
0000
0000
0000
0000
0000
0000
0000
0000
0000
0000
0000
0000
0000
0000
0000
0000
0000
0000
0000
0000
0000
0000
0000
0000
0000
0000
0100
0000
0000
0000
0002
0000
0000
0000
0000
0000
0000
0000
0000
0000
0000
0000
0000
0000
0000
0000
0000
0000
0000
0000
0003
0000
0000
0000
0000
0000
0000
0000
0000
0000
0000
0000
0000
0000
0000
0000
0000
0000
0000
0000
0000
0000
0000
0000
0001
0000
0000
0000
0020
0000
0000
0000
0000
0000
0000
0000
0000
0000
0000
0000
0000
0000
0000
0000
0000
0000
0000
0000
0030
0000
0000
0000
0000
0000
0000
0000
0000
0000
0000
0000
0000
0000
0000
0000
0000
0000
0000
0000
0000
0000
0000
0000
0100
0000
0000
0000
0000
0000
0000
0000
0000
0000
0000
0000
0000
0000
0000
0000
0000
0000
0000
0000
0000
0000
0000
0000
1000
0000
0000
0000
0000
0000
0000
0000
0000
0000
0000
0000
0000
0000
0000
0000
0000
0000
0000
0000
0000
0000
0000
0000
,  // measure 16
0001
1000
0001
1000
0001
0010
0100
1000
0200
0000
2300
0000
3020
0000
0230
0000
,  // measure 17
0301
0010
0000
0000
0000
0000
0000
0000
0000
0000
0000
0000
0200
0000
0000
0000
0000
0000
0000
0000
0000
0000
0000
0000
0310
0000
0000
0001
0000
0000
0000
0000
0000
0000
0000
0000
2000
0000
0000
0000
0000
0000
3002
0000
0000
0000
0000
0000
,  // measure 18
0103
0010
0000
0010
0100
0001
1000
0100
0010
0000
1002
0000
0103
0001
0010
0100
,  // measure 19
1000
0000
0000
0000
0001
0100
0001
1000
0001
0000
0010
0000
0001
0000
1000
0010
,  // measure 20
0000
0000
0000
0000
0100
0010
1000
0010
0200
0000
0000
0000
0302
0000
0000
0013
,  // measure 21
0000
0000
0000
0000
0100
0010
0001
1000
0010
0100
0010
0100
0001
1000
0001
1000
,  // measure 22
0001
0020
0000
0000
0130
0010
0001
1000
0001
0000
0010
0000
0001
0000
1000
0000
,  // measure 23
0000
0000
0000
0000
0001
1000
0100
1000
0001
0000
0010
0000
0100
0000
1000
0010
,  // measure 24
0000
0000
0000
0000
0100
0010
1000
0001
0020
0000
0000
0000
0230
0000
0000
1300
,  // measure 25
0000
0000
0000
0000
0100
0010
0001
1000
0010
0100
0001
0010
0001
0100
0010
1000
,  // measure 26
0200
0000
0000
0310
1000
0000
0001
0000
0201
0000
0000
0310
1000
0000
0100
0000
,  // measure 27
2002
3003
0000
0000
0000
0000
0000
0000
0001
0000
0100
0000
0010
0000
1000
0000
0100
0000
0010
0000
0100
0000
1000
0000
0010
0000
0100
0000
0001
0000
0010
0000
,  // measure 28
0200
0000
0000
0310
0100
1000
0010
0100
0001
0010
0001
0100
0010
1000
0001
0010
,  // measure 29
0400
4000
0000
3300
0001
0100
0001
0010
0100
1000
0010
0100
0001
0010
0001
1000
,  // measure 30
0100
0040
0000
0000
0130
1000
0001
0100
0001
0100
0010
1000
0010
1000
0001
0010
,  // measure 31
0100
0000
0000
0000
0010
0001
0100
0010
1000
0001
0010
0001
0100
0010
1000
0100
,  // measure 32
0010
0000
0000
0000
0100
0010
0001
1000
0010
0100
0001
0010
0001
1000
0100
0020
,  // measure 33
0100
0000
0030
0000
0100
0010
0001
1000
0010
1000
0001
0100
0001
0010
0100
0010
,  // measure 34
0002
0000
0000
0103
0010
0000
1000
0000
0021
0000
0000
0130
1000
0000
0010
0000
,  // measure 35
1001
0000
0000
0110
0000
0000
0000
0000
,  // measure 36
0100
0100
0100
0000
0010
0000
1000
0000
,  // measure 37
0101
0000
0000
1010
0000
0000
0000
0000
,  // measure 38
0001
0001
0001
0000
0010
0000
0100
0000
,  // measure 39
1000
0000
0001
0100
0010
0100
0001
0010
0100
1000
0100
0010
0100
1000
0001
1000
,  // measure 40
0000
0000
0001
0100
0010
1000
0100
1000
0010
0100
0001
0010
0001
1000
0100
1000
,  // measure 41
0000
0000
0001
1000
0010
1000
0001
0010
0100
0010
0001
1000
0010
0100
0001
0100
,  // measure 42
0000
0000
0100
0001
0100
0010
1000
0001
0010
0001
1000
0100
0010
0100
1000
0100
,  // measure 43
1100
0000
1000
0100
0001
0100
0000
0000
1100
0000
1000
0010
0001
0010
0000
0000
,  // measure 44
0101
0000
0001
0100
1000
0100
0000
0000
1001
0000
0001
0010
1000
0010
0000
0000
,  // measure 45
0200
0000
0000
0000
0000
0000
0000
0000
0000
0000
0000
0000
0000
0000
0000
0000
0020
0000
0000
0000
0000
0000
0000
0000
0000
0000
0000
0000
0000
0000
0300
0000
2000
0000
0000
0000
0000
0000
0000
0000
0000
0000
0000
0000
0030
0000
0000
0000
0200
0000
0000
0000
0000
0000
0000
0000
0000
0000
0000
0000
3000
0000
0000
0000
0002
0000
0000
0000
0000
0000
0000
0000
0000
0000
0000
0000
0300
0000
0000
0000
0200
0000
0000
0000
0000
0000
0000
0000
0000
0000
0000
0000
0003
0000
0000
0000
0020
0000
0000
0000
0000
0000
0000
0000
0000
0000
0000
0000
0300
0000
0000
0000
0002
0000
0000
0000
0000
0000
0000
0000
0000
0000
0000
0000
0030
0000
0000
0000
0200
0000
0000
0000
0000
0000
0000
0000
0000
0000
0000
0000
0003
0000
0000
0000
0020
0000
0000
0000
0000
0000
0000
0000
0000
0000
0000
0000
0300
0000
0000
0000
2000
0000
0000
0000
0000
0000
0000
0000
0000
0000
0000
0000
0030
0000
0000
0000
0002
0000
0000
0000
0000
0000
0000
0000
0000
0000
0000
0000
3000
0000
0000
0000
,  // measure 46
2000
0000
0000
0003
0000
0000
0400
0000
0000
0000
0000
0000
0000
0000
0000
0000
0000
0000
0000
0000
0000
0000
0000
0000
0000
0000
0000
0000
0000
0000
0000
0000
0000
0000
0000
0000
0000
0000
0000
0000
0000
0000
0000
0000
3300
0000
0000
0000
,  // measure 47
1001
0000
0001
0100
0010
1000
0001
0100
0010
1000
0010
0100
0001
0100
0001
1000
,  // measure 48
0000
0000
0001
1000
0010
1000
0100
1000
0001
0010
0100
0010
0001
1000
0001
0100
,  // measure 49
0000
0000
0010
1000
0010
0100
0001
0010
0100
0010
0100
0010
0100
1000
0001
1000
,  // measure 50
0000
0000
0001
0010
0001
1000
0100
1000
0010
0100
0010
0100
0001
0010
0001
1000
,  // measure 51
0000
0001
1000
0010
0000
1000
0001
0010
0000
0001
1000
0010
0000
1000
0001
0010
,  // measure 52
0000
0001
1000
0100
0000
1000
0001
0100
0000
0001
1000
0100
0000
1000
0001
0100
,  // measure 53
0000
0000
0010
1000
0010
0100
0001
0100
0001
0010
0001
1000
0100
0010
0100
1000
,  // measure 54
0000
0000
0001
0010
0001
0010
0100
1000
0100
1000
0100
0010
0001
0100
0010
1000
,  // measure 55
0001
0000
0001
0100
0010
1000
0001
0010
0001
0010
0100
1000
0001
1000
0010
0200
,  // measure 56
0000
0000
0301
0100
0010
1000
0100
1000
0100
1000
0010
0100
0001
0010
0100
0020
,  // measure 57
0000
0000
0130
0010
0001
1000
0010
0100
0001
0100
0001
0100
0001
0100
0010
2000
,  // measure 58
0000
0000
3100
0010
0001
1000
0010
0100
0001
0010
0001
0010
0001
0010
0100
1000
,  // measure 59
0000
0001
0100
0010
0000
0100
0010
1000
0000
1000
0001
0010
0000
0100
0010
0001
,  // measure 60
0000
0010
0100
1000
0000
0100
1000
0010
0000
0100
0001
0010
0000
0100
1000
0001
,  // measure 61
0000
0000
1000
0010
0100
0001
0010
0001
0100
0010
1000
0100
1000
0001
0010
0001
,  // measure 62
0000
0000
1000
0100
1000
0100
0010
0100
0010
0001
0010
0100
1000
0010
0100
0001
,  // measure 63
0011
0000
1000
0010
0100
0000
0001
0000
1001
0000
0001
1000
0010
0000
1000
0000
,  // measure 64
1100
0000
0100
0010
0001
0000
0100
0000
1010
0000
0010
0100
0001
0000
1000
0000
,  // measure 65
1001
0000
0001
0200
1000
0000
1300
0000
0100
0000
0001
0020
1000
0000
1030
0000
,  // measure 66
0010
0001
0000
0001
0100
0000
0100
0010
0000
0010
1000
0000
1000
0001
0000
0001
,  // measure 67
0010
0000
0100
0001
2000
0000
3010
0100
0002
0000
0013
0100
2000
0000
3100
1000
,  // measure 68
0020
0000
0130
0001
2000
0000
3001
1000
0200
0000
0310
0001
2000
0000
3001
0010
,  // measure 69
0011
0000
0001
1000
1001
0000
1000
0010
1010
0000
0010
0100
0110
0000
0100
0001
,  // measure 70
1000
0000
0001
0000
0000
0001
0000
0000
1000
0000
0000
1000
0000
0000
0100
0000
;
