#TITLE:Nuclear Tactics;
#SUBTITLE:;
#ARTIST:Nush vs. Tanchiky;
#TITLETRANSLIT:;
#SUBTITLETRANSLIT:;
#ARTISTTRANSLIT:;
#GENRE:;
#CREDIT:;
#BANNER:Nuclear Tactics.png;
#BACKGROUND:Nuclear Tactics-bg.png;
#LYRICSPATH:;
#CDTITLE:CDtitle.png;
#MUSIC:Nuclear Tactics.ogg;
#OFFSET:-8.110000;
#SAMPLESTART:58.510002;
#SAMPLELENGTH:19.199993;
#SELECTABLE:YES;
#BPMS:0.000000=100.000000
;
#STOPS:
;
#BGCHANGES:;
#KEYSOUNDS:;
#ATTACKS:;

//---------------dance-single - ----------------
#NOTES:
     dance-single:
     :
     Hard:
     8:
     0.486182,0.520955,0.491757,0.257587,0.569814,436.000000,373.000000,63.000000,33.000000,0.000000,0.000000,0.486182,0.520955,0.491757,0.257587,0.569814,436.000000,373.000000,63.000000,33.000000,0.000000,0.000000:
0000
0000
0000
0000
,
1000
0000
0001
0000
0100
0000
0010
1000
0000
1000
0000
0000
0001
0000
0000
0000
,
1000
0000
0001
0000
0010
0000
0100
0010
0000
0010
0000
0100
0010
0001
0100
0010
,
1000
0000
0001
0000
0100
0000
0001
0010
0000
0010
0000
0000
0100
0000
0000
0000
,
0010
0000
0001
0000
1000
0000
0100
1000
0000
0010
0000
0100
0010
1000
0001
0010
,
0100
0100
0000
0000
1100
0000
0000
0011
0000
0000
0201
0000
0000
0320
0000
0000
,
1030
1000
0000
0000
1010
0000
0000
0011
0000
0000
2100
0000
0000
3020
0000
0000
,
0130
0100
0000
0000
0101
0000
0000
0011
0000
0000
2010
0000
0000
3200
0000
0000
,
0310
0010
0000
0000
0011
0000
0000
1100
0000
0000
1002
0000
0000
0203
0000
0000
,
0310
0010
0000
0000
1010
0000
0000
1100
0000
0000
1020
0000
0000
0230
0000
0000
,
0301
0001
0000
0000
0101
0000
0000
1100
0000
0000
0012
0000
0000
0203
0000
0000
,
0310
0010
0000
0000
1010
0000
0000
1100
0000
0000
0102
0000
0000
0023
0000
0000
,
0130
0100
0000
0000
1100
0000
0000
0011
0000
0001
0010
0001
1000
0001
0000
0000
,
1000
1000
0001
0001
,
0100
0000
0100
0000
0010
0100
0010
1000
,
0001
0001
1000
1000
,
0010
0000
0010
0000
0100
0010
1000
0001
,
1000
0000
0000
1000
0000
0000
0000
0000
0001
0000
0000
1000
0000
0000
0001
0000
,
0100
0000
0000
0100
0000
0000
0000
0000
0010
0000
0000
1000
0000
0000
0010
0000
,
1000
0000
0001
1000
0000
0001
0100
0010
1000
0000
0000
0100
0010
0001
0010
0100
,
0010
0000
0001
0000
1000
0001
0100
0001
1000
0100
0001
0100
1000
0010
0100
0000
,
0101
0000
0000
0000
0011
0000
0000
0110
0000
0000
1100
0000
0000
1000
0001
0100
,
0020
0000
0000
0000
2030
0000
3001
0100
0000
0000
0020
0000
0000
1030
0000
0000
,
1100
0000
0000
0000
0011
0000
0000
0110
0000
0000
1100
0000
0000
0200
0000
0000
,
2300
0000
0000
0000
3001
0000
0000
0100
0001
0010
1000
0020
0000
0000
0000
0031
,
1000
0000
0010
0000
0100
0001
0010
0000
0100
0000
1000
0000
0001
1000
0100
0000
,
1000
0000
0010
0000
0100
0001
0010
0000
0100
0010
0001
0100
0010
1000
0001
0000
,
1100
0000
0000
0000
1010
0000
0000
0101
0000
0000
0011
0000
0000
0110
0000
0000
,
1100
0000
0000
0000
1001
0000
0000
0000
1000
0010
1000
0100
0000
0010
0001
1000
,
0001
0000
0001
0000
0001
0000
1000
0001
0000
0100
0000
0001
0010
0000
0001
0000
,
0100
0000
0100
0000
0100
0000
0010
1000
0000
0100
0010
0100
1000
0001
0100
0000
,
0010
0000
0010
0000
0010
0000
0100
0001
0000
0010
0000
0100
0010
0000
0001
0000
,
1000
0000
1000
0000
1000
0000
0001
0100
0000
0010
1000
0100
1000
0010
0100
0000
,
0001
0001
0000
0000
0011
0000
0000
1100
0000
0000
2010
0000
0000
3002
0000
0000
,
0103
0100
0000
0000
0101
0000
0000
0011
0000
0000
0210
0000
0000
2300
0000
0000
,
3100
0100
0000
0000
1100
0000
0000
0110
0000
0000
0012
0000
0000
2003
0000
0000
,
3010
0010
0000
0000
0110
0000
0000
1010
0000
1000
0100
0010
0100
1000
0000
0000
,
0001
0000
0000
0001
0000
0000
0000
0000
1000
0000
0000
1000
0000
0000
1000
0000
,
0010
0000
0000
0010
0000
0000
0000
0000
0100
0000
0000
0100
0000
0000
0100
0000
,
0010
0000
1000
0010
0000
0100
0001
0000
0010
0000
0001
0010
0001
1000
0001
0000
,
1000
0000
0001
0000
0100
0010
0100
0001
0010
1000
0010
0100
1000
0001
0100
0000
,
1002
0000
0000
0000
0000
0000
0000
0100
0000
0000
0000
0000
0000
0000
0100
0000
0000
0000
0000
0000
0100
0000
0000
0000
0003
0000
1000
0000
0001
0000
0010
0000
,
0200
0000
0000
0000
0310
0000
0001
0200
0000
0000
0302
0000
0000
1003
0000
0000
,
1100
0000
0000
0000
1010
0000
0000
0101
0000
0000
0011
0000
0000
0020
0000
0000
,
0230
0000
0000
0000
1300
0000
1000
0100
1000
0001
0100
0020
0000
0000
0000
1030
,
0010
0000
0100
0000
0001
0100
0010
0000
1000
0000
0001
0000
0010
0100
1000
0000
,
0100
0000
1000
0000
0010
0100
0001
0000
1000
0010
1000
0001
0010
0100
0010
0001
,
1000
0000
0000
0000
0101
0000
0000
0011
0000
0000
0101
0000
0000
1000
0000
0000
,
1100
0000
0000
0000
1010
0000
0000
0000
1000
0010
0100
0001
0000
0010
0100
1000
,
1001
1001
0000
0000
0110
0000
0000
1001
0000
0000
0000
0000
0000
0000
0000
0000
;

//---------------dance-single - ----------------
#NOTES:
     dance-single:
     :
     Medium:
     6:
     0.347910,0.366598,0.124891,0.023417,0.300518,312.000000,296.000000,16.000000,3.000000,0.000000,0.000000,0.347910,0.366598,0.124891,0.023417,0.300518,312.000000,296.000000,16.000000,3.000000,0.000000,0.000000:
0000
0000
0000
0000
,
1000
0010
0100
0000
0001
0100
0010
0000
,
1000
0001
0010
0000
0100
0010
0001
1000
,
0001
0100
0010
0000
0100
0010
1000
0000
,
0100
1000
0010
0000
0100
0010
1000
0001
,
1000
0001
0000
0000
0100
0000
0000
0001
0000
0000
0010
0000
0000
0100
0000
0000
,
1000
0100
0000
0000
1000
0000
0000
0010
0000
0000
0100
0000
0000
0001
0000
0000
,
1000
0001
0000
0000
0010
0000
0000
0001
0000
0000
0100
0000
0000
0010
0000
0000
,
1000
0010
0000
0000
0100
0000
0000
0010
0000
0000
1000
0000
0000
0001
0000
0000
,
1000
0100
0000
0000
0010
0000
0000
0100
0000
0000
1000
0000
0000
0001
0000
0000
,
0100
0001
0000
0000
0010
0000
0000
0001
0000
0000
1000
0000
0000
0100
0000
0000
,
1000
0100
0000
0000
1000
0000
0000
0010
0000
0000
0100
0000
0000
0001
0000
0000
,
1000
0001
0000
0000
0100
0000
0000
0010
0000
0100
0010
1000
0001
0100
0000
0000
,
0001
0001
0001
0001
,
1000
1000
1000
1000
,
0110
0010
0010
0010
,
0100
0100
0100
0100
,
0010
1000
0100
0000
0010
0001
0100
0010
,
1000
0100
0010
0000
0100
0010
0001
1000
,
0001
0000
0000
1000
0000
0000
0010
0000
1000
0000
0000
0000
0100
0000
1000
0000
,
0010
0100
0001
1000
0010
0000
0000
0000
,
1001
0000
0000
0000
1100
0000
0000
1000
0000
0000
0010
0000
0000
0000
0100
0000
,
0010
0000
0000
0000
1000
0000
0001
1000
0000
0000
0001
0000
0000
0100
0000
0000
,
1010
0000
0000
0000
0101
0000
0000
0001
0000
0000
0001
0000
0000
0010
0000
0000
,
0100
0000
0000
0000
1000
0000
0000
0100
1000
0010
0100
0010
0000
0000
0000
0000
,
0100
0010
1000
0010
0100
0010
1000
1000
,
0001
0000
0001
0000
0010
0000
0100
0000
1000
0100
0010
0001
1000
0000
0000
0000
,
0101
0000
0000
0000
0010
0000
0000
1000
0000
0000
0100
0000
0000
1000
0000
0000
,
0001
0000
0000
0000
1000
0000
0000
0000
0010
1000
0010
0100
0000
0010
1000
0001
,
0010
0001
0100
0000
0010
1000
0100
0000
,
0010
0001
0100
0000
0010
1000
0100
0010
,
0001
1000
0100
0000
1000
0001
0100
0000
,
0001
1000
0100
0000
1000
0001
0100
0010
,
1000
0010
0000
0000
0100
0000
0000
0001
0000
0000
0010
0000
0000
1000
0000
0000
,
0010
0100
0000
0000
1000
0000
0000
0100
0000
0000
0001
0000
0000
0100
0000
0000
,
0010
0001
0000
0000
0010
0000
0000
0100
0000
0000
1000
0000
0000
0010
0000
0000
,
0001
0010
0000
0000
0100
0000
0000
0010
0000
0100
0010
1000
0001
1000
0000
0000
,
0001
0001
1000
1000
,
0010
0010
0100
0100
,
0001
0000
0000
0100
0000
0000
0010
0000
1000
0000
0000
0000
0010
0000
1000
0000
,
0001
0010
0100
1000
1001
0000
0000
0000
,
0220
0000
0000
0000
0000
0000
0000
0000
0000
0000
0330
0000
0000
0100
0010
0100
,
0001
0000
0000
0000
1000
0000
0000
0001
0000
0000
0100
0000
0000
0010
0000
0000
,
1100
0000
0000
0000
1010
0000
0000
0001
0000
0000
1000
0000
0000
0100
0000
0000
,
1000
0000
0000
0000
0010
0000
0000
0100
0010
1000
0001
1000
0000
0000
0000
0000
,
0001
0100
0020
0000
0000
0000
0000
0000
0000
0000
0000
0000
0130
0000
0010
0000
,
1000
0000
0001
0000
0010
0000
0100
0000
0010
0100
0010
1000
0001
0000
0000
0000
,
0101
0000
0000
0000
1010
0000
0000
0001
0000
0000
1000
0000
0000
0100
0000
0000
,
1100
0000
0000
0000
1010
0000
0000
0000
0010
0100
0010
1000
0000
0000
0010
0100
,
0001
0010
0000
0000
1010
0000
0000
0011
0000
0000
0000
0000
0000
0000
0000
0000
;

//---------------dance-single - ----------------
#NOTES:
     dance-single:
     :
     Easy:
     2:
     0.147193,0.173652,0.132696,0.117085,0.003903,132.000000,115.000000,17.000000,15.000000,0.000000,0.000000,0.147193,0.173652,0.132696,0.117085,0.003903,132.000000,115.000000,17.000000,15.000000,0.000000,0.000000:
0000
0000
0000
0000
,
1000
0000
1000
0000
,
0001
0000
0001
0000
,
0100
0000
0100
0000
,
0010
0000
0010
0000
,
1001
0000
0000
0000
,
0110
0000
0000
0000
,
0110
0000
0000
0000
,
1001
0000
0000
0000
,
1100
0000
0000
0000
,
0011
0000
0000
0000
,
0101
0000
0000
0000
,
1010
0000
1000
0000
,
0001
0000
0001
0000
,
1000
0000
1000
0001
,
1000
0000
0010
0000
,
0100
0000
0001
0100
,
0010
0000
1000
0000
,
0100
0000
1000
0001
,
0100
0010
1000
0001
,
1000
0000
0010
0000
0200
0000
0000
0300
,
2002
0000
0000
0000
0000
0000
3003
0001
,
1000
0010
1000
0100
,
0220
0000
0000
0330
,
0001
0000
1000
0000
0010
0100
0010
0000
,
2000
0000
0000
3001
,
1000
0100
0010
0001
,
2000
0000
0000
0000
,
3002
0000
0100
0000
,
1003
0001
0000
0100
,
0001
0010
0000
0100
,
0010
0001
0000
1000
,
0010
0100
0000
0010
,
1001
0000
0000
0000
,
0101
0000
0000
0000
,
0011
0000
0000
0000
,
1100
0000
0100
0000
,
1000
0000
0001
0000
,
0100
0000
0010
0000
,
1000
0010
0100
0001
,
1000
0000
0001
0000
0200
0000
0000
0300
,
2002
0000
0000
0000
0000
0000
3003
1000
,
0010
0100
0001
0010
,
2200
0000
0000
3300
,
0100
0000
1000
0000
0010
1000
0001
0000
,
1000
0002
0000
0000
0000
0000
0103
0000
,
0001
0000
0010
0000
0100
1000
0100
0000
,
2000
0000
0000
0000
,
0000
0000
0000
0000
3001
1000
0001
0000
,
0101
0000
0000
0000
1000
0000
0000
1000
0000
0000
0000
0000
0000
0000
0000
0000
;

//---------------dance-single - ----------------
#NOTES:
     dance-single:
     :
     Beginner:
     1:
     0.080287,0.152991,0.039028,0.000000,0.000000,72.000000,67.000000,5.000000,0.000000,0.000000,0.000000,0.080287,0.152991,0.039028,0.000000,0.000000,72.000000,67.000000,5.000000,0.000000,0.000000,0.000000:
0000
0000
0000
0000
,
0001
0000
0000
0000
,
0001
0000
0000
0000
,
1000
0000
0000
0000
,
1000
0000
0000
0000
,
1000
0000
0000
0000
,
0001
0000
0000
0000
,
0100
0000
0000
0000
,
0010
0000
0000
0000
,
1000
0000
0000
0000
,
0100
0000
0000
0000
,
1000
0000
0000
0000
,
0001
0000
0000
0000
,
0100
0000
0000
0000
,
0100
0000
0000
0000
,
0010
0000
0000
0000
,
0010
0000
0000
0000
,
1000
0000
1000
0000
,
0001
0000
0001
0000
,
0001
0000
0100
0000
,
0010
0010
0010
0000
,
1001
0000
0000
0000
,
1000
0000
0000
0000
,
0110
0000
0000
0000
,
0100
0000
0001
0000
,
1000
0000
0000
0001
,
1000
0010
0100
0001
,
1001
0000
0000
0000
,
0000
0000
1000
0000
,
0010
0000
0000
0000
,
0100
0000
0000
0000
,
0001
0000
0000
0000
,
1000
0000
0000
0000
,
0001
0000
0000
0100
,
0100
0000
0000
0010
,
0010
0000
0000
1000
,
1000
0000
0000
0000
,
0001
0000
0000
0000
,
1000
0000
0000
0000
,
0010
0000
0000
0000
,
0100
0000
0010
0000
,
1001
0000
0000
0000
,
0001
0000
0000
0000
,
1000
0000
0000
0000
,
0010
0000
0000
0000
,
0100
0000
0000
0010
,
1000
1000
0001
0001
,
0100
0000
0000
0000
,
0000
0000
0010
0000
,
1001
0000
0000
0000
;

//---------------dance-single - ----------------
#NOTES:
     dance-single:
     :
     Challenge:
     10:
     0.648986,0.694607,0.671288,0.530786,0.901555,582.000000,496.000000,86.000000,68.000000,0.000000,0.000000,0.648986,0.694607,0.671288,0.530786,0.901555,582.000000,496.000000,86.000000,68.000000,0.000000,0.000000:
// measure 0
0000
0000
0000
0000
0000
0000
0000
0000
0000
0000
0000
0000
0000
0000
0000
0000
0000
0000
0000
0000
0000
0000
0000
0000
2000
0002
3003
0000
0002
2000
3003
0000
,  // measure 1
0001
0100
0010
0100
0001
1000
0100
0010
0000
0010
0100
1000
0001
1000
0001
1000
,  // measure 2
0100
0000
1000
0000
0010
0000
0100
0000
0001
0000
0010
0000
0100
0000
0010
0000
0000
0000
0100
0000
0010
0000
0001
1000
0001
0000
0100
0000
0010
0000
0000
0000
,  // measure 3
1000
0010
1000
0001
1000
0100
0010
0100
0000
1000
0100
1000
0010
0100
0001
0010
,  // measure 4
0100
0000
1000
0000
0100
0000
0010
0000
0100
0000
1000
0000
0001
0000
0100
0000
0000
0000
0100
0000
0010
0000
1000
0001
1000
0000
0001
0000
0010
0000
0001
0000
,  // measure 5
0011
1100
0000
0000
1010
0000
0000
0011
0000
0000
1200
0000
0300
0102
0000
0003
,  // measure 6
1001
1010
0000
0000
0011
0000
0000
1100
0000
0000
2010
0000
3000
0102
0000
0003
,  // measure 7
1001
0101
0000
0000
1010
0000
0000
1001
0000
0000
1200
0000
0300
0021
0000
0030
,  // measure 8
1100
0110
0000
0000
0110
0000
0000
0011
0000
0000
0210
0000
0300
2100
0000
3000
,  // measure 9
1100
0011
0000
0000
1100
0000
0000
0110
0000
0000
0012
0000
0003
0201
0000
0300
,  // measure 10
1001
1010
0000
0000
1001
0000
0000
0011
0000
0000
0210
0000
0300
2100
0000
3000
,  // measure 11
0110
0011
0000
0000
1001
0000
0000
0110
0000
0000
1020
0000
0030
0201
0000
0300
,  // measure 12
1001
1010
0000
0000
1001
0000
0000
0101
0000
0001
0100
1000
0100
0001
0000
0000
,  // measure 13
1000
0010
1000
0100
1000
0001
0100
0001
,  // measure 14
1000
0000
0010
0000
1000
0000
0001
0000
1000
0100
0010
0001
0010
0100
0010
0001
,  // measure 15
1000
0001
0010
0001
1000
0010
1000
0001
,  // measure 16
1000
0000
0100
0000
1000
0000
0001
0000
0100
0001
0010
0001
0010
0100
1000
0001
,  // measure 17
1001
0000
0001
0100
0000
0000
0000
0000
0011
0000
0001
1000
0000
0001
0100
0000
,  // measure 18
0011
0000
0001
0010
0000
0000
0000
0000
0110
0000
0100
1000
0000
1000
0001
0000
,  // measure 19
0001
0000
1000
0000
0010
0000
0100
0000
0001
0000
0010
0000
0100
0000
0010
0000
0001
0000
1000
0000
0010
1000
0100
0000
1000
0100
0010
0000
0001
0000
0010
0000
,  // measure 20
0100
0000
0010
0000
0001
0000
1000
0000
0010
0001
0100
0000
0010
0000
1000
0000
0001
0000
2000
0000
3200
0000
0320
0000
0230
0000
0320
0000
0032
0000
0003
0000
,  // measure 21
1100
0000
0000
0000
0000
0000
0000
0000
0000
0000
0000
0000
1000
0000
0001
0000
0200
0000
0000
0000
0000
0000
0000
0000
0000
0000
0000
0300
0200
0000
0000
0000
0000
0000
0000
0000
0000
0000
0000
0300
0200
0000
0000
0000
0000
0000
0000
0000
0000
0000
0000
0300
0100
0000
0000
0000
0010
0000
0000
0000
1000
0000
0000
0000
,  // measure 22
0002
0000
0000
0000
0000
0000
0000
0000
0013
0000
0000
0000
0100
1000
0001
0000
0000
0000
0000
0000
2000
0000
0000
0000
0000
0000
3002
0000
0000
0000
0000
0000
,  // measure 23
0203
0000
0000
0000
0000
0000
0000
0000
0320
0000
0000
0000
0000
0030
0020
0000
0000
0000
0000
0030
0020
0000
0000
0000
0000
0000
0200
0000
0000
0000
0030
0000
,  // measure 24
0302
0000
0000
0000
0000
0000
0000
0000
0000
0000
0000
0000
0023
0000
0000
0000
0000
0000
0130
0000
0010
0000
0001
0000
0100
0000
0010
0000
1000
0000
0001
0000
0000
0020
0000
0000
0000
0000
0000
0000
0000
0000
0000
0000
0000
0130
0000
0000
,  // measure 25
1000
0001
0200
0000
0310
1000
0100
0000
0010
0100
1000
0000
0100
0010
0001
1000
,  // measure 26
0010
0100
0001
0010
0001
0100
0010
1000
0100
1000
0001
0100
0002
0000
0000
0000
,  // measure 27
0013
0000
0000
0000
0011
0000
0000
1010
0000
0000
0011
0000
0000
1100
0000
0000
,  // measure 28
0101
0000
0000
0000
0000
0000
0000
0000
1001
0000
0000
0000
0000
0000
0000
0000
0001
0000
0100
0000
1000
0000
0100
0000
0000
0000
0010
0100
0010
0000
1000
0000
,  // measure 29
0001
0010
0001
0100
0010
1000
0001
0010
0000
0100
0010
0001
0100
0010
1000
0001
,  // measure 30
0000
1000
0100
1000
0010
0100
0001
0010
0000
0100
0010
0001
1000
0100
0020
0000
,  // measure 31
0130
0010
0001
0100
1000
0100
0010
1000
0000
1000
0010
0100
0001
0010
1000
0010
,  // measure 32
0000
0100
0010
0001
0100
1000
0100
0010
0000
0100
0010
1000
0001
0010
0100
0000
,  // measure 33
1100
0011
0000
0000
0101
0000
0000
1010
0000
0000
2001
0000
3000
1200
0000
0300
,  // measure 34
1100
1001
0000
0000
0011
0000
0000
0110
0000
0000
1200
0000
0300
0120
0000
0030
,  // measure 35
1001
1010
0000
0000
0101
0000
0000
0011
0000
0000
0120
0000
0030
2100
0000
3000
,  // measure 36
0110
0011
0000
0000
0110
0000
0000
1001
0000
0001
0100
1000
0100
0001
0000
0000
,  // measure 37
1000
0001
0010
0001
1000
0100
1000
0010
,  // measure 38
0100
0000
0001
0000
0010
0000
0001
0000
0100
0010
1000
0100
0010
0100
1000
0001
,  // measure 39
0100
0000
0000
0000
0001
0000
0100
0000
0000
0000
0100
0000
0010
0000
1000
0000
0100
0000
0000
0000
0010
0001
1000
0000
0001
1000
0100
0000
0010
0000
0001
0000
,  // measure 40
1000
0000
0010
0000
0100
0000
0001
0000
0010
0001
0010
0000
0001
0000
1000
0000
0010
0000
2000
0000
3020
0000
0032
0000
0023
0000
0230
0000
2300
0000
3000
0000
,  // measure 41
2002
0000
0000
0000
0003
0000
0000
0002
0000
0000
0000
0000
0003
0000
0002
0000
0000
0000
0003
0000
3002
0000
0000
0000
0003
0000
0010
0000
0001
0000
1000
0000
,  // measure 42
0200
0000
0000
0000
0000
0000
0000
0000
1300
0000
0000
0000
0010
1000
0100
0000
0000
0000
0000
0000
0020
0000
0000
0000
0000
0000
0032
0000
0000
0000
0000
0000
,  // measure 43
0103
0000
0000
0000
0000
0000
0000
0000
2010
0000
0000
0000
0000
3000
2000
0000
0000
0000
0000
3000
2000
0000
0000
0000
0000
0000
0002
0000
0000
0000
3000
0000
,  // measure 44
0203
0000
0000
0000
0000
0000
0000
0000
0000
0000
0000
0000
0000
0000
0000
0000
0000
0000
0000
0000
0000
0000
0000
0000
0000
0000
0000
0000
0000
0000
0000
0000
0000
0000
0000
0000
0000
0000
0000
0000
0000
0000
0000
0000
0000
0000
0000
0000
0310
0000
0000
0000
0000
0000
0000
0000
0000
0000
0000
0000
0100
0000
0000
0000
0000
0000
0000
0000
0000
0000
0000
0000
0001
0000
0000
0000
0000
0000
0000
0000
0100
0000
0000
0000
0000
0000
0000
0000
0010
0000
0000
0000
0000
0000
0000
0000
1000
0000
0000
0000
0000
0000
0000
0000
0100
0000
0000
0000
0000
0000
0000
0000
0010
0000
0000
0000
0000
0000
0000
0000
0100
0000
0000
0000
0000
0000
0000
0000
0000
0000
0000
0000
2000
0000
0000
0000
0000
0000
0000
0000
0000
0000
0000
0000
0000
0000
0000
0000
0000
0000
0000
0000
0000
0000
0000
0000
0000
0000
0000
0000
0000
0000
0000
0000
0000
0000
0000
0000
3001
0000
0000
0000
0000
0000
1000
0000
0000
0000
0000
0000
0001
0000
0000
0000
0000
0000
0000
0000
0000
0000
0000
0000
,  // measure 45
1000
0000
0000
0000
0101
0000
0000
0000
0001
0000
1000
0000
0100
0000
0000
0000
0010
0000
0001
0000
0100
0000
0010
0000
1000
0000
0001
0100
0001
0000
0100
0000
,  // measure 46
0001
0000
0001
0000
1000
0000
0010
0000
0010
0000
1000
0000
0001
0000
0010
0000
0001
0000
1000
0000
0100
0000
0010
0000
0100
0000
0010
0001
1000
0000
0000
0000
,  // measure 47
0001
0100
0020
0000
0100
0000
0000
0100
0000
0000
0100
0000
0000
0100
0000
0000
,  // measure 48
1000
0000
0000
0000
1030
0000
0000
0000
0100
0010
1000
0001
0000
0010
0100
1000
,  // measure 49
1100
0011
0000
0000
1010
0000
0000
1001
0000
0000
0000
0000
0000
0000
0000
0000
;
