#TITLE:Nu Era;
#SUBTITLE:;
#ARTIST:SPARKER;
#TITLETRANSLIT:;
#SUBTITLETRANSLIT:;
#ARTISTTRANSLIT:;
#GENRE:;
#CREDIT:;
#BANNER:Nu Era.png;
#BACKGROUND:Nu Era-bg.png;
#LYRICSPATH:;
#CDTITLE:;
#MUSIC:Nu Era.mp3;
#OFFSET:-0.169000;
#SAMPLESTART:23.454054;
#SAMPLELENGTH:12.000000;
#SELECTABLE:YES;
#BPMS:0.000000=175.000000
;
#STOPS:7.500000=1.371000,
11.500000=1.371000,
15.500000=1.371000,
19.500000=1.028000,
24.500000=1.028000,
29.500000=1.028000,
34.500000=1.028000,
39.500000=1.028000
;
#BGCHANGES:;
#KEYSOUNDS:;
#ATTACKS:;

//---------------dance-single - ----------------
#NOTES:
     dance-single:
     :
     Hard:
     9:
     0.573853,0.678845,0.217351,0.152951,0.410552,453.000000,27.000000,19.000000,0.000000,0.000000,0.000000,0.573853,0.678845,0.217351,0.152951,0.410552,453.000000,27.000000,19.000000,0.000000,0.000000,0.000000:
// measure 0
0000
0000
0000
0000
,  // measure 1
0001
0100
0001
0100
0001
0100
0001
0100
,  // measure 2
1000
0100
1000
0100
1000
0100
1000
0100
,  // measure 3
0010
0100
0010
0100
0010
0100
0010
0100
,  // measure 4
0001
1000
0001
1000
0001
1000
0001
1000
,  // measure 5
0000
0000
0101
0001
0100
0110
0010
1000
,  // measure 6
1001
0001
2000
3000
0101
0001
0100
0110
,  // measure 7
0010
1000
1001
0001
2000
3000
1100
0100
,  // measure 8
0010
0011
0010
0100
1100
1000
0020
0030
,  // measure 9
0110
0010
1000
1001
0001
0010
0110
0100
,  // measure 10
0020
0000
0031
1000
0001
1000
0001
1000
,  // measure 11
0001
1000
0001
1000
0001
1000
0001
1000
,  // measure 12
0001
1000
0100
0010
0100
0010
0100
0010
,  // measure 13
0100
0010
0100
0010
0100
0010
0100
0010
,  // measure 14
0100
0010
0001
0010
0001
0010
0001
0010
,  // measure 15
0001
0010
0001
0010
0001
0010
0001
0010
,  // measure 16
0001
0010
0001
0010
0100
1000
0100
0010
,  // measure 17
0001
0000
0010
0000
0010
0001
0000
0010
0000
0100
1000
0000
0100
0000
1000
0001
,  // measure 18
0100
0010
1001
0000
0000
0000
0000
0000
,  // measure 19
0000
0000
0000
0101
0000
0000
0100
0000
0010
0000
1000
0000
,  // measure 20
0001
0000
0000
0010
0000
0000
0100
0000
1000
0000
0010
0000
,  // measure 21
0100
0000
0000
0001
0000
0000
1000
0000
0000
0000
0000
0000
0001
0000
0000
0000
0010
0000
0000
0000
0100
0000
0000
0000
,  // measure 22
0010
0000
0000
0001
0000
0000
1000
0000
0000
0000
0000
0000
0010
0000
0000
0000
0100
0000
0000
0000
0010
0000
0000
0000
,  // measure 23
1000
0000
0000
0100
0000
0000
0010
0000
0000
0000
0000
0000
0100
0000
0000
0000
0010
0000
0000
0000
0001
0000
0000
0000
,  // measure 24
0010
0000
0000
0100
0000
0000
1000
0000
0000
0000
0000
0000
0010
0000
0000
0000
0100
0000
0000
0000
0010
0000
0000
0000
,  // measure 25
1000
0000
0100
0000
0010
0001
0000
1000
0000
0001
1000
0001
0000
1000
0000
0001
,  // measure 26
1000
0000
0000
0010
0000
0000
0100
0000
0000
0000
0000
0000
0010
0000
0000
0000
1000
0000
0000
0000
0001
0000
0000
0000
,  // measure 27
0010
0000
0000
0100
0000
0000
0010
0000
0000
0000
0000
0000
0001
0000
0000
0000
0100
0000
0000
0000
1000
0000
0000
0000
,  // measure 28
0100
0000
0000
0010
0000
0000
1000
0000
0000
0000
0000
0000
0001
0000
0000
0000
0010
0000
0000
0000
0100
0000
0000
0000
,  // measure 29
0010
0000
0000
0001
0000
0000
1000
0000
0000
0000
0000
0000
0010
0000
0000
0000
0001
0000
0000
0000
0010
0000
0000
0000
,  // measure 30
0100
0000
0000
0001
0000
0000
0010
0000
0000
0000
0000
0000
0100
0000
0000
0000
0010
0000
0000
0000
0100
0000
0000
0000
,  // measure 31
1000
0000
0000
0010
0000
0000
1000
0000
0000
0000
0000
0000
0001
0000
0000
0000
0010
0000
0000
0000
0100
0000
0000
0000
,  // measure 32
1000
0000
0000
0010
0000
0000
0100
0000
0000
0000
0000
0000
0010
0000
0000
0000
1000
0000
0000
0000
0010
0000
0000
0000
,  // measure 33
0100
0000
0001
0000
1000
0100
0000
0010
0000
0001
0010
0100
0000
1000
0000
0100
,  // measure 34
0010
0000
0001
0000
1000
0000
0000
0000
0101
0000
0000
0100
0000
0000
0110
0000
,  // measure 35
0000
0110
0000
0000
0010
0000
1000
0000
0100
0000
0000
0000
0010
0000
0001
0000
,  // measure 36
1000
0000
0000
0000
0001
0000
0000
0000
1000
0000
0000
0010
0000
0000
1010
0000
,  // measure 37
0000
0101
0000
0000
0001
0000
0000
0000
0010
0000
0000
0100
0000
0000
1100
0000
,  // measure 38
0000
1001
0000
0000
0001
0000
0000
0000
1000
0000
0000
0001
0000
0000
0011
0000
,  // measure 39
0000
1001
0000
0000
0001
0000
0100
0000
0010
0000
0000
0000
0100
0000
0010
0000
,  // measure 40
1000
0010
1002
0000
,  // measure 41
0100
0000
1000
0000
,  // measure 42
0103
0000
0001
0100
0010
1000
0000
0100
,  // measure 43
0000
0010
0000
0001
1000
0000
0001
0000
1000
0000
0100
0000
0000
0000
0010
0000
,  // measure 44
0000
0010
0000
0001
1000
0000
0001
0000
0100
0000
0010
0000
0000
0000
1000
0000
,  // measure 45
0000
1000
0000
0001
0100
0000
0000
0010
0000
0100
0010
0000
1000
0000
0001
1000
,  // measure 46
0001
0010
0200
0000
0000
0000
0000
0000
,  // measure 47
0000
0000
0000
0000
,  // measure 48
0300
0002
0000
0000
,  // measure 49
0000
0000
0000
0000
,  // measure 50
0003
2000
0000
0000
,  // measure 51
0000
0000
0000
0000
,  // measure 52
0000
0000
0000
0000
,  // measure 53
0000
0000
0000
0000
,  // measure 54
3000
0000
0000
0000
2000
0000
0000
0000
0001
0000
0000
0001
0000
0000
0000
0000
,  // measure 55
0001
0000
0000
0001
0000
0000
0000
0000
0001
0000
0000
0001
0000
0000
0000
0000
,  // measure 56
0001
0000
0000
0000
3020
0000
0000
0000
0100
0000
0000
0100
0000
0000
0000
0000
,  // measure 57
0100
0000
0000
0100
0000
0000
0000
0000
0100
0000
0000
0100
0000
0000
0000
0000
,  // measure 58
0130
0000
0000
0000
0200
0000
0000
0000
0010
0000
0000
0010
0000
0000
0000
0000
,  // measure 59
0010
0000
0000
0010
0000
0000
0000
0000
0010
0000
0000
0010
0000
0000
0000
0000
,  // measure 60
0310
2002
0000
0000
,  // measure 61
0000
0000
0000
0000
0000
0000
0000
0000
0000
0000
0000
0000
0000
0000
0000
3003
,  // measure 62
0110
0000
0010
1000
0001
0000
1000
0000
0001
1000
0000
1000
0000
0000
0000
0000
,  // measure 63
0010
0000
0100
0000
0001
0000
0010
0000
0100
1000
0000
1000
0000
0000
0000
0000
,  // measure 64
0100
0000
0010
0000
0100
0000
1000
0000
0010
0100
0000
0100
0000
0000
0000
0000
,  // measure 65
0010
0000
0100
0000
0001
0000
0010
0000
0100
1000
0000
1000
0000
0000
0000
0000
,  // measure 66
0100
0000
0010
0000
0001
0000
1000
0000
0010
0100
0000
0100
0000
0000
0000
0000
,  // measure 67
0010
0000
1000
0000
0100
0000
0010
0000
0001
0010
0000
0010
0000
0000
0000
0000
,  // measure 68
0001
0000
0100
0000
0001
0000
0010
0000
0100
1000
0000
1000
0000
0000
0000
0000
,  // measure 69
0100
0000
1000
0000
0001
0000
0100
0000
0010
1000
0000
1000
0001
0000
0000
0000
,  // measure 70
1000
0000
0010
0000
0200
0000
0010
0000
0310
1000
0000
1000
0000
0000
0100
0000
,  // measure 71
0010
0000
0001
0000
0100
0000
0010
0000
1000
0100
0000
0100
0000
0000
0010
0000
,  // measure 72
0001
0000
0100
0000
0020
0000
0100
0000
0130
0001
0000
0001
0000
0000
1000
0000
,  // measure 73
0100
0000
0010
0000
0100
0000
1000
0000
0001
0100
0000
0100
0000
0000
0010
0000
,  // measure 74
0100
0000
0001
0000
2000
0000
0001
0000
3001
0100
0000
0100
0000
0000
0010
0000
,  // measure 75
0100
0000
0001
0000
0010
0000
0100
0000
0010
0001
0000
0001
0000
0000
0010
0000
,  // measure 76
0001
0000
0100
0000
0020
0000
1000
0000
1030
0100
0000
0100
0000
0000
0010
0000
,  // measure 77
0100
0000
1000
0000
0001
0000
0100
0000
0010
1000
0000
1000
0000
0000
0000
0000
,  // measure 78
0101
0000
0001
1000
0200
0000
0000
0000
0000
0000
0000
0000
0000
0000
0000
0000
,  // measure 79
0000
0000
0000
0000
,  // measure 80
0000
0000
0000
0000
0020
0330
0000
0000
0000
0000
0000
0000
0000
0000
0000
0000
;

//---------------dance-single - ----------------
#NOTES:
     dance-single:
     :
     Medium:
     5:
     0.326602,0.388213,0.241501,0.209301,0.000000,228.000000,30.000000,26.000000,0.000000,0.000000,0.000000,0.326602,0.388213,0.241501,0.209301,0.000000,228.000000,30.000000,26.000000,0.000000,0.000000,0.000000:
// measure 0
0000
0000
0000
0000
,  // measure 1
0001
0001
0001
0001
,  // measure 2
1000
0000
0010
1000
0000
0010
0100
0000
,  // measure 3
0010
0010
0010
0010
,  // measure 4
0100
0000
0010
1000
0000
0010
0100
0000
,  // measure 5
0000
0000
0110
0000
0000
1001
0000
0000
,  // measure 6
1010
0000
0001
0000
1100
0000
0000
0011
,  // measure 7
0000
0101
0010
1010
,  // measure 8
0000
0101
0000
0000
1001
0000
0100
0000
,  // measure 9
1010
0000
0000
0101
0000
0000
1001
0000
,  // measure 10
0000
0000
0001
0000
0100
0010
0000
1000
,  // measure 11
0000
0000
0010
0000
0100
0001
0000
1000
,  // measure 12
0000
0000
0100
0000
1000
0010
0000
0100
,  // measure 13
0000
0000
0001
0000
0010
1000
0000
0010
,  // measure 14
0000
0100
0100
0010
,  // measure 15
0010
0001
0001
1000
,  // measure 16
1000
0000
0001
0100
0001
0100
0001
0100
,  // measure 17
0001
0100
0001
0000
0000
0100
0000
0000
,  // measure 18
0010
1000
0000
0000
,  // measure 19
0000
0010
0110
0000
,  // measure 20
0100
0000
0010
0000
1000
0000
0010
0100
,  // measure 21
0010
0000
1000
0000
0001
0000
0010
0100
,  // measure 22
0010
0000
0100
0000
1000
0000
0010
1000
,  // measure 23
0010
0000
0100
0000
0001
0000
0010
0001
,  // measure 24
0010
0000
0100
0000
1000
0000
0100
1000
,  // measure 25
0100
1100
0000
0011
,  // measure 26
0000
0000
0001
0000
1001
0000
0001
0100
,  // measure 27
0010
0000
1000
0000
0010
0000
0100
0001
,  // measure 28
1000
0000
0100
0000
0010
0000
0001
0010
,  // measure 29
1000
0000
0010
0000
0100
0000
1000
0100
,  // measure 30
0001
0000
0100
0000
0010
0000
0001
0100
,  // measure 31
1000
0000
0100
0000
0010
0000
1000
0010
,  // measure 32
0100
0000
0010
0000
1000
0000
0001
0010
,  // measure 33
0100
0000
0110
0000
0000
1001
0000
0000
,  // measure 34
0110
0000
0100
0000
0101
0000
0001
0100
,  // measure 35
0010
1000
0010
0100
,  // measure 36
0001
0000
1000
0000
1100
0000
0100
0010
,  // measure 37
0001
0000
0010
0000
0110
0000
0100
1000
,  // measure 38
0010
0000
0100
0000
0101
0000
0001
1000
,  // measure 39
0010
0100
0001
1000
,  // measure 40
0010
0100
2002
0000
,  // measure 41
0000
0000
0000
0000
,  // measure 42
3003
0002
0100
0000
,  // measure 43
0100
0000
1000
0000
,  // measure 44
1000
0000
0010
0000
,  // measure 45
0010
0000
0013
0000
0000
1100
0000
0000
,  // measure 46
0010
1002
0000
0000
,  // measure 47
0000
0000
0000
0000
,  // measure 48
0003
2000
0000
0000
,  // measure 49
0000
0000
0000
0000
,  // measure 50
3000
0200
0000
0000
,  // measure 51
0000
0000
0000
0000
,  // measure 52
0000
0000
0000
0000
,  // measure 53
0000
0000
0000
0000
,  // measure 54
0300
2200
0000
0000
,  // measure 55
0000
0000
0000
0000
,  // measure 56
3300
2020
0000
0000
,  // measure 57
0000
0000
0000
0000
,  // measure 58
3030
0220
0000
0000
,  // measure 59
0000
0000
0000
0000
,  // measure 60
0330
0202
0000
0000
,  // measure 61
0000
0000
0000
0303
,  // measure 62
0001
1000
0020
0000
1000
0000
0000
0000
,  // measure 63
0100
0000
0001
0000
,  // measure 64
0100
0230
1000
0000
,  // measure 65
0010
0000
0001
0000
,  // measure 66
0010
0320
1000
0000
,  // measure 67
0100
0000
0001
0000
,  // measure 68
0100
0230
0001
0000
,  // measure 69
0010
0000
1000
0310
,  // measure 70
0100
0010
2000
0000
0010
0000
0000
0000
,  // measure 71
0100
0000
0010
0000
,  // measure 72
0100
3002
0100
0000
,  // measure 73
0010
0000
0100
0000
,  // measure 74
0010
2003
0100
0000
,  // measure 75
0010
0000
0100
0000
,  // measure 76
3010
0200
0000
0000
,  // measure 77
0000
0320
0000
2030
,  // measure 78
0000
3002
0000
0000
,  // measure 79
0000
0000
0000
0000
,  // measure 80
0000
0000
0020
0033
0000
0000
0000
0000
;

//---------------dance-single - ----------------
#NOTES:
     dance-single:
     :
     Easy:
     3:
     0.198951,0.258406,0.064400,0.257601,0.000000,133.000000,8.000000,32.000000,0.000000,0.000000,0.000000,0.198951,0.258406,0.064400,0.257601,0.000000,133.000000,8.000000,32.000000,0.000000,0.000000,0.000000:
// measure 0
0000
0000
0000
0000
,  // measure 1
0020
0000
0000
0000
0000
0000
0000
0030
,  // measure 2
0200
0000
0000
0000
0000
0000
0000
0300
,  // measure 3
0002
0000
0000
0000
0000
0000
0000
0003
,  // measure 4
2000
0000
0000
0000
0000
0000
0000
3000
,  // measure 5
0000
0000
0001
0000
0000
1000
0000
0000
,  // measure 6
0010
0000
0000
0000
0100
0000
0000
0010
,  // measure 7
0000
1000
0000
0010
,  // measure 8
0000
0100
0000
0000
0001
0000
0000
0000
,  // measure 9
1000
0000
0000
0001
0000
0000
0100
0000
,  // measure 10
0000
0100
0001
0100
,  // measure 11
0001
0100
0001
0100
,  // measure 12
0001
0100
0010
0100
,  // measure 13
0010
0100
0010
0100
,  // measure 14
0010
1000
0010
1000
,  // measure 15
0010
1000
0010
1000
,  // measure 16
0010
1000
0001
1000
,  // measure 17
0001
1000
0001
1000
,  // measure 18
0001
2002
0000
0000
,  // measure 19
3003
0001
0000
1000
,  // measure 20
0000
0100
1000
0000
,  // measure 21
0100
1000
0010
0000
,  // measure 22
0100
0001
0010
0000
,  // measure 23
0100
0010
0001
0000
,  // measure 24
0010
0100
1000
0000
,  // measure 25
0100
1000
0000
0001
,  // measure 26
0000
0100
0010
0000
,  // measure 27
0100
0000
0001
0100
,  // measure 28
0010
0000
1000
0010
,  // measure 29
1000
0000
0010
0100
,  // measure 30
0010
0000
0100
0001
,  // measure 31
0100
0000
0001
0010
,  // measure 32
0001
0000
0010
0100
,  // measure 33
0010
0100
0000
1000
,  // measure 34
0000
0010
0000
0100
,  // measure 35
0000
0001
0000
1000
,  // measure 36
0000
0010
1000
0001
,  // measure 37
0000
1000
0001
0100
,  // measure 38
0000
0001
1000
0001
,  // measure 39
0000
1000
0000
0010
,  // measure 40
0000
0100
2002
0000
,  // measure 41
0000
0000
0000
0000
,  // measure 42
3003
0002
0000
0000
,  // measure 43
0000
0203
0000
0000
,  // measure 44
0000
0320
0000
0000
,  // measure 45
0000
1030
0000
0010
,  // measure 46
0000
0200
0000
0000
,  // measure 47
0000
0000
0000
0000
,  // measure 48
0300
0002
0000
0000
,  // measure 49
0000
0000
0000
0000
,  // measure 50
0003
0020
0000
0000
,  // measure 51
0000
0000
0000
0000
,  // measure 52
0000
0000
0000
0000
,  // measure 53
0000
0000
0000
0000
,  // measure 54
0030
0200
0000
0000
,  // measure 55
0000
0000
0000
0000
,  // measure 56
0300
2000
0000
0000
,  // measure 57
0000
0000
0000
0000
,  // measure 58
3000
0020
0000
0000
,  // measure 59
0000
0000
0000
0000
,  // measure 60
0000
0200
0000
0000
,  // measure 61
0000
0000
0000
0000
0000
0000
0000
0330
,  // measure 62
0000
0202
0000
0000
,  // measure 63
0000
0000
0000
0000
,  // measure 64
0303
2020
0000
0000
,  // measure 65
0000
0000
0000
0000
,  // measure 66
3030
2200
0000
0000
,  // measure 67
0000
0000
0000
0000
,  // measure 68
3300
2002
0000
0000
,  // measure 69
0000
0000
3003
1000
,  // measure 70
0001
0100
0020
0000
0000
0000
0000
0000
,  // measure 71
0000
0000
0000
0000
,  // measure 72
0000
2000
0000
0000
,  // measure 73
0000
0000
0000
0000
,  // measure 74
0030
0200
0000
0000
,  // measure 75
0000
0000
0000
0000
,  // measure 76
3000
0020
0000
0000
,  // measure 77
0000
0000
0000
0330
,  // measure 78
1001
0220
0000
0000
,  // measure 79
0000
0000
0000
0000
,  // measure 80
0000
0330
0000
0000
;

//---------------dance-single - ----------------
#NOTES:
     dance-single:
     :
     Beginner:
     1:
     0.103501,0.161504,0.072450,0.104651,0.000000,68.000000,9.000000,13.000000,0.000000,0.000000,0.000000,0.103501,0.161504,0.072450,0.104651,0.000000,68.000000,9.000000,13.000000,0.000000,0.000000,0.000000:
// measure 0
0000
0000
0000
0000
,  // measure 1
1000
0000
0000
0000
,  // measure 2
0001
0000
0000
0000
,  // measure 3
1000
0000
0000
0000
,  // measure 4
0001
0000
0000
0000
,  // measure 5
0000
1000
0000
0000
,  // measure 6
0000
0000
0001
0000
,  // measure 7
0000
0000
0000
1000
,  // measure 8
0000
0000
0000
0000
,  // measure 9
0001
0000
0000
0000
,  // measure 10
0000
1000
0000
0000
,  // measure 11
0000
1000
0000
0000
,  // measure 12
0000
0100
0000
0000
,  // measure 13
0000
0100
0000
0000
,  // measure 14
0000
0010
0000
0000
,  // measure 15
0000
0010
0000
0000
,  // measure 16
0000
0001
0000
0000
,  // measure 17
0000
0001
0000
1000
,  // measure 18
0000
1001
0000
0000
,  // measure 19
0000
0010
0000
0000
,  // measure 20
0000
0100
0000
0000
,  // measure 21
0000
0100
0000
0000
,  // measure 22
0000
0100
0000
0000
,  // measure 23
0000
0100
0000
0000
,  // measure 24
0000
0010
0000
0000
,  // measure 25
0000
1001
0000
0110
,  // measure 26
0000
1001
0001
0000
,  // measure 27
0000
0001
0000
0000
,  // measure 28
0000
1000
0000
0000
,  // measure 29
0000
0100
0000
0000
,  // measure 30
0000
0010
0000
0000
,  // measure 31
0000
0001
0000
0000
,  // measure 32
0000
1000
0000
0000
,  // measure 33
0000
1001
0000
0110
,  // measure 34
0000
1001
0000
0001
,  // measure 35
0000
0000
1000
0000
,  // measure 36
1000
0000
0010
0000
,  // measure 37
0000
0100
0000
0000
,  // measure 38
0000
0001
0000
0000
,  // measure 39
1000
0000
0000
0000
,  // measure 40
0000
0010
1001
0000
,  // measure 41
0000
0000
0000
0000
,  // measure 42
0000
0020
0000
0000
,  // measure 43
0000
0000
0000
0000
,  // measure 44
0000
0000
0000
0000
,  // measure 45
0030
0100
0000
0010
,  // measure 46
0000
1001
0000
0000
,  // measure 47
0000
0000
0000
0000
,  // measure 48
0000
1000
0000
0000
,  // measure 49
0000
0000
0000
0000
,  // measure 50
0000
0001
0000
0000
,  // measure 51
0000
0000
0000
0000
,  // measure 52
0000
0000
0000
0000
,  // measure 53
0000
0000
0000
0000
,  // measure 54
0000
0200
0000
0000
,  // measure 55
0000
0000
0000
0000
,  // measure 56
0300
0020
0000
0000
,  // measure 57
0000
0000
0000
0000
,  // measure 58
0030
2000
0000
0000
,  // measure 59
0000
0000
0000
0000
,  // measure 60
3000
0002
0000
0000
,  // measure 61
0000
0000
0000
0003
,  // measure 62
0000
2000
0000
0000
,  // measure 63
0000
0000
0000
0000
,  // measure 64
3000
0020
0000
0000
,  // measure 65
0000
0000
0000
0000
,  // measure 66
0030
2000
0000
0000
,  // measure 67
0000
0000
0000
0000
,  // measure 68
3000
0002
0000
0000
,  // measure 69
0000
0000
0003
1000
,  // measure 70
0001
2000
0000
0000
,  // measure 71
0000
0000
0000
0000
,  // measure 72
3000
0020
0000
0000
,  // measure 73
0000
0000
0000
0000
,  // measure 74
0030
0200
0000
0000
,  // measure 75
0000
0000
0000
0000
,  // measure 76
0300
0002
0000
0000
,  // measure 77
0000
0000
0000
0000
,  // measure 78
0003
1000
0000
0000
,  // measure 79
0000
0000
0000
0000
,  // measure 80
0000
0001
0000
0000
;
