#VERSION:0.83;
#TITLE:Nighttime Fears;
#SUBTITLE:;
#ARTIST:Noizenecio;
#TITLETRANSLIT:;
#SUBTITLETRANSLIT:;
#ARTISTTRANSLIT:;
#GENRE:;
#ORIGIN:;
#CREDIT:;
#BANNER:Nighttime Fears.png;
#BACKGROUND:Nighttime Fears-bg.png;
#PREVIEWVID:;
#JACKET:Nighttime Fears-jacket.png;
#CDIMAGE:;
#DISCIMAGE:;
#LYRICSPATH:;
#CDTITLE:;
#MUSIC:Nighttime Fears.ogg;
#OFFSET:-0.001000;
#SAMPLESTART:20.197571;
#SAMPLELENGTH:12.685287;
#SELECTABLE:YES;
#BPMS:0.000=87.500,
16.000=175.000,
196.000=87.500,
200.000=175.000,
292.000=87.500,
294.000=175.000,
326.000=87.500;
#STOPS:43.000=1.371;
#DELAYS:;
#WARPS:;
#TIMESIGNATURES:0.000=4=4;
#TICKCOUNTS:0.000=4;
#COMBOS:0.000=1;
#SPEEDS:0.000=1.000=0.000=0;
#SCROLLS:0.000=1.000;
#FAKES:;
#LABELS:0.000=Song Start;
#BGCHANGES:;
#KEYSOUNDS:;
#ATTACKS:
;

//---------------dance-single - ----------------
#NOTEDATA:;
#CHARTNAME:;
#STEPSTYPE:dance-single;
#DESCRIPTION:;
#CHARTSTYLE:;
#DIFFICULTY:Hard;
#METER:9;
#RADARVALUES:0.584686,0.768111,0.527842,0.105568,0.186775,504.000000,439.000000,65.000000,13.000000,0.000000,0.000000,0.000000,0.000000,0.000000,0.584686,0.768111,0.527842,0.105568,0.186775,504.000000,439.000000,65.000000,13.000000,0.000000,0.000000,0.000000,0.000000,0.000000;
#CREDIT:;
#NOTES:
0000
0000
0000
0000
,
0000
0000
0000
0000
,
0000
0000
0000
0000
,
0000
0000
0000
0000
0000
0000
0000
0000
0000
0000
0000
0000
0000
0001
0010
0100
,
1000
0001
0010
0100
0000
0010
0100
1000
,
0000
0100
0010
0001
1000
0000
1000
0000
,
0001
1000
0010
0100
0000
0010
0100
0001
,
0000
0100
0010
1000
0001
0000
0001
0000
,
1000
0001
0010
0001
0000
0010
0100
0010
,
0000
0100
1000
0100
0010
0000
0010
0010
,
0000
0000
0000
0000
,
1001
0001
0010
0001
0100
0010
1000
0010
,
0100
0001
1000
0001
0010
0000
0010
0100
,
1000
0010
0100
0010
1000
0100
0010
0100
,
0001
0000
0100
0000
0010
0000
0100
0000
1000
0000
0001
0000
0000
1000
0001
0000
,
0100
0001
0010
1000
0010
0100
1000
0100
,
1000
0000
0010
0000
0001
0000
0010
0000
1000
0000
0100
0000
0010
0001
0010
0001
,
0010
0001
0000
0000
0000
0000
2000
0000
,
0020
0000
0000
3030
,
0101
0101
0101
0101
,
0101
0101
1001
1001
,
1100
1100
1100
1100
,
1100
1100
1100
1100
,
0110
0110
0110
0110
,
0110
0000
0110
0000
0011
0000
0011
0001
,
1001
1001
1001
1001
,
0101
0000
1001
0000
1100
0100
0000
1000
,
1002
1000
1000
1000
,
1000
1000
0203
0010
,
0320
1000
1000
1000
,
1000
1000
1000
1030
,
1001
0000
0000
0011
0000
0000
0101
0000
,
0000
1010
0000
0000
1100
0000
0101
0000
,
2001
0000
0000
0000
,
0200
0000
0000
3300
,
1001
0000
0000
0000
,
0000
0000
0000
0000
,
0000
0000
0000
0000
0000
0000
0000
1000
,
0001
0000
0000
0000
0100
0000
0010
1000
,
0001
0000
0000
1000
0100
0000
0100
0000
,
0000
0010
0001
0001
1000
1000
1000
0001
,
0100
0000
0000
0001
0000
0000
0010
0001
,
1000
0000
0000
1000
0100
0000
1000
0000
,
0001
0001
1000
1000
,
0010
0010
0100
0100
,
0101
0101
1010
1010
,
1001
0110
0101
1010
,
0001
1000
0001
1000
0001
1000
0001
1000
,
0001
1000
0001
1000
0001
1000
0001
1000
,
0001
0000
0001
0100
0000
0010
1000
0000
0000
0000
0000
0000
0220
0000
0000
0330
,
1001
0000
0000
0000
0001
0000
0010
0000
0000
0000
0100
0000
1000
0001
0100
0000
,
0001
1000
0010
0000
0000
0000
0100
0001
1000
0000
0000
0000
0001
0000
0000
0000
,
1000
0000
0000
0000
0001
1000
0010
0000
0000
0000
0100
0000
0001
0000
0000
0000
,
1000
0001
0010
0000
0000
0000
0100
1000
0001
0000
0000
0000
0100
0000
0000
0000
,
0010
0000
1000
0010
0000
0100
0001
0000
,
0100
0001
0010
0000
0000
0000
0010
0100
1000
0000
0000
0000
0100
0000
0000
0000
,
0010
0000
0001
1000
0000
0010
0100
0000
,
0001
0000
1000
0010
0000
0010
0100
0000
0010
0000
0100
0001
0000
0001
0010
0000
,
0100
0010
0001
0010
0100
0010
0001
1000
,
0010
0000
0100
0000
0001
0000
1000
0001
0010
0000
0000
0000
1001
0000
0000
0000
,
1000
0000
0001
0100
0001
0000
0100
0000
0010
1000
0010
0000
0100
0000
0001
0000
,
1000
0001
0010
0000
0100
0000
1000
0001
0010
0000
0000
0000
1001
0000
0000
0000
,
0001
1000
0010
1000
0100
0001
0100
0010
,
0001
1000
0100
0000
0010
0000
0001
0100
0010
0000
0000
0000
1001
0000
0000
0000
,
1000
0000
0001
0100
0000
0010
0100
0000
,
0010
0000
1000
0010
0000
0010
0001
0000
0010
0000
0100
0001
0000
1000
0001
0000
,
1000
0000
0001
0100
0001
0000
0100
0000
0010
1000
0010
0000
0100
0000
0001
0000
,
1000
0001
0010
0000
0100
0000
1000
0001
0010
0000
0000
0000
1001
0000
0000
0000
,
0001
1000
0010
1000
0100
0001
0100
0010
,
0001
1000
0100
0000
0010
0000
0001
0100
0010
0100
0010
0100
0010
0100
0010
0100
,
0001
0000
0000
1000
0000
0000
0010
0000
,
1000
0010
1000
0000
0000
0000
0001
0000
1000
0000
0000
0000
1000
0000
1010
0000
,
1001
0001
0100
0010
0100
0001
1000
0001
,
1000
0000
0000
1000
0000
0000
0001
0000
0010
0000
0000
0000
0100
0000
0000
0000
1000
0000
0000
0000
0100
0000
0000
0000
0010
0000
0000
0000
0100
0000
0000
0000
,
0000
0010
0001
0100
0000
0010
1000
0001
,
1000
0000
0001
0010
0100
0010
0001
1000
,
0000
0100
1000
0001
0000
1000
0010
0100
,
0001
0000
1000
0000
0000
0010
0100
0000
0001
0000
0011
0000
0011
0000
0000
0000
,
1100
0011
1010
0101
,
1001
0000
0000
0000
0001
0100
0010
1000
0001
0000
0000
0000
0100
0000
0000
0000
,
0000
0020
0200
0000
,
0000
0330
2002
0000
,
0000
3003
0000
0000
;

//---------------dance-single - ----------------
#NOTEDATA:;
#CHARTNAME:;
#STEPSTYPE:dance-single;
#DESCRIPTION:;
#CHARTSTYLE:;
#DIFFICULTY:Medium;
#METER:7;
#RADARVALUES:0.437355,0.628741,0.479118,0.073086,0.020302,377.000000,318.000000,59.000000,9.000000,0.000000,0.000000,0.000000,0.000000,0.000000,0.437355,0.628741,0.479118,0.073086,0.020302,377.000000,318.000000,59.000000,9.000000,0.000000,0.000000,0.000000,0.000000,0.000000;
#CREDIT:;
#NOTES:
0000
0000
0000
0000
,
0000
0000
0000
0000
,
0000
0000
0000
0000
,
0000
0000
0000
0000
0000
0000
0000
0000
0000
0000
0000
0000
0000
0001
0010
0100
,
1000
1000
0100
0100
,
0010
0010
0001
0010
,
0001
0001
0010
0010
,
0100
0100
1000
0100
,
1000
1000
0010
0010
,
0100
0000
0100
0000
0001
0000
2000
0002
,
0000
0000
0000
3003
,
0000
0001
0100
0001
0000
0100
0010
0100
,
0000
0010
1000
0010
0000
1000
0010
1000
,
0000
0001
0100
0001
0000
0100
0010
0100
,
0000
0010
1000
0010
0000
1000
0001
0100
,
0000
0010
1000
0010
0000
0001
0100
0001
,
0000
1000
0100
1000
0000
0100
0010
0100
,
0010
0001
0000
0002
,
2000
0000
0000
3003
,
0101
0001
0100
0010
,
1000
0010
0110
0100
,
0101
0001
1000
0100
,
0001
0100
1000
0100
,
1100
0100
1000
0010
,
0100
0000
0001
0000
0101
0000
0001
1000
,
1001
0001
1000
0010
,
1010
0000
0010
0000
0100
0001
0000
0001
,
0101
0100
0010
1000
,
0010
0100
0110
0100
,
0101
0001
1000
0100
,
0001
0000
0100
0000
1000
0000
0100
1000
,
1010
0000
0000
0101
0000
0000
1010
0000
,
0000
0101
0000
0000
1010
0000
0001
1000
,
0010
0000
0000
0000
,
0200
0000
0000
0000
,
0301
0000
0000
0000
,
0000
0000
0000
0000
,
0000
0000
0000
0000
,
1000
0000
0001
0000
,
0100
0000
0001
1000
,
0100
0000
1000
0010
,
0100
0000
0001
0000
,
0010
0000
0001
1000
,
0010
0010
0100
0100
,
0001
0001
1000
1001
,
0001
0001
1000
1000
,
0010
0010
0100
1001
,
0001
0100
0010
1000
0001
0100
0010
1000
,
0001
0010
0100
1000
0001
0010
0100
1000
,
0001
0000
0000
1000
0000
0000
0100
0000
0000
0000
0000
0000
0020
0000
0000
0030
,
1001
0000
0001
0100
0000
0100
0010
0000
,
1000
0010
0000
0010
0100
0000
0001
0000
,
1000
0000
0100
1000
0000
1000
0010
0000
,
0010
0100
0000
0100
0001
0000
1001
0000
,
0001
0000
0001
1000
0000
1000
0010
0000
,
0010
0100
0000
0100
0010
0000
1000
0000
,
0010
0000
0010
1000
0000
1000
0010
0000
,
0100
0000
0000
0100
0000
0000
0001
0000
1000
0000
0000
0100
0000
0000
0010
0000
,
0011
0001
1001
1000
,
1010
0010
0110
0101
,
1001
0001
1001
1000
,
1100
0000
0100
0000
0110
0000
0010
0001
,
0011
0010
0110
1100
,
1001
1000
1100
1001
,
0011
0001
0101
0100
,
0110
0110
1001
1001
,
0101
1010
1100
0011
,
0101
1010
1100
1001
,
0011
1100
0101
1010
,
0101
0000
0011
0000
1100
1000
0100
0010
,
0011
0000
0000
0010
0000
0000
0001
0000
,
1000
0001
0000
0010
0100
0000
1000
1001
,
1001
0000
0000
0001
0000
0000
1000
0000
,
0001
0000
1000
0100
,
1000
0000
0010
1000
0010
0000
0100
0000
,
0001
0000
1000
0001
0100
0000
0001
0000
,
1000
0000
0010
0100
0001
0000
1000
0000
,
0100
1000
0000
1000
0100
0010
0010
0000
,
0001
0010
0001
0010
,
0100
0000
0100
0010
0001
2000
0000
0000
,
0000
3002
0200
0000
,
0000
0303
1010
0000
;

//---------------dance-single - ----------------
#NOTEDATA:;
#CHARTNAME:;
#STEPSTYPE:dance-single;
#DESCRIPTION:;
#CHARTSTYLE:;
#DIFFICULTY:Beginner;
#METER:2;
#RADARVALUES:0.168213,0.297825,0.089327,0.000000,0.000000,145.000000,134.000000,11.000000,0.000000,0.000000,0.000000,0.000000,0.000000,0.000000,0.168213,0.297825,0.089327,0.000000,0.000000,145.000000,134.000000,11.000000,0.000000,0.000000,0.000000,0.000000,0.000000,0.000000;
#CREDIT:;
#NOTES:
// measure 0
0000
0000
0000
0000
,  // measure 1
0000
0000
0000
0000
,  // measure 2
0000
0000
0000
0000
,  // measure 3
0000
0000
0000
0000
,  // measure 4
1001
0000
0001
0000
,  // measure 5
0001
0000
0000
0000
,  // measure 6
1000
0000
1000
0000
,  // measure 7
1000
0000
0000
0000
,  // measure 8
0010
0000
0010
0000
,  // measure 9
0010
0000
0100
0000
,  // measure 10
0000
0000
0000
0000
,  // measure 11
1001
0000
1000
0000
,  // measure 12
1000
0000
1000
0000
,  // measure 13
0001
0000
0001
0000
,  // measure 14
0001
0000
0001
0000
,  // measure 15
0100
0000
0100
0000
,  // measure 16
0100
0000
0100
0010
,  // measure 17
0010
0000
0000
0000
,  // measure 18
1000
0000
0000
0000
,  // measure 19
0001
0000
0000
0000
,  // measure 20
0000
0000
1000
0000
,  // measure 21
0010
0000
0000
0000
,  // measure 22
0000
0000
0000
0100
,  // measure 23
0100
0000
0000
0000
,  // measure 24
0000
0000
0010
0000
,  // measure 25
1000
0000
0000
0000
,  // measure 26
0100
0000
0000
0000
,  // measure 27
1000
0000
1000
0000
,  // measure 28
1000
0000
1000
1000
,  // measure 29
0001
0000
0001
0000
,  // measure 30
0001
0000
0001
0001
,  // measure 31
1001
0000
0000
0000
,  // measure 32
0000
0000
0010
0000
,  // measure 33
0100
0000
0000
0000
,  // measure 34
0010
0000
0000
0000
,  // measure 35
1001
0000
0000
0000
,  // measure 36
0000
0000
0000
0000
,  // measure 37
0000
0000
0000
0000
,  // measure 38
0000
0000
0000
0000
,  // measure 39
1000
0000
0001
0000
,  // measure 40
0000
0000
0001
0000
,  // measure 41
1000
0000
0000
0000
,  // measure 42
0010
0000
0100
0000
,  // measure 43
1001
0000
0000
0000
,  // measure 44
0001
0000
0000
0000
,  // measure 45
1000
0000
0000
0000
,  // measure 46
0010
0000
0000
0000
,  // measure 47
0100
0000
0100
0000
,  // measure 48
0010
0000
0010
0000
,  // measure 49
1001
0000
0000
0000
,  // measure 50
1001
0000
0001
0000
,  // measure 51
1000
0000
0010
0010
,  // measure 52
0100
0000
0010
0000
,  // measure 53
1000
0000
0100
0100
,  // measure 54
1000
0000
0001
0000
,  // measure 55
1000
0000
0010
0010
,  // measure 56
0100
0000
0010
0000
,  // measure 57
1001
0000
0110
0000
,  // measure 58
1001
0000
0001
0000
,  // measure 59
1000
0000
0001
0001
,  // measure 60
0100
0000
0010
0000
,  // measure 61
0100
0000
0010
0010
,  // measure 62
1000
0000
1000
0000
,  // measure 63
0001
0000
1000
1000
,  // measure 64
0001
0000
1000
0000
,  // measure 65
0010
0000
0100
0000
,  // measure 66
0001
0001
0001
0001
,  // measure 67
0001
0001
0001
0001
,  // measure 68
1000
1000
1000
1000
,  // measure 69
1000
1000
1000
1000
,  // measure 70
0010
0000
0000
0000
,  // measure 71
0000
0000
0000
0000
,  // measure 72
0100
0000
0000
0000
,  // measure 73
0000
0000
0010
0000
,  // measure 74
0010
0000
0010
0000
,  // measure 75
0010
0000
1000
0000
,  // measure 76
1000
0000
1000
0000
,  // measure 77
1000
0000
0001
0000
,  // measure 78
0001
0000
0001
0000
,  // measure 79
0001
0000
1000
0000
,  // measure 80
0000
0000
0010
0000
,  // measure 81
0000
0000
1001
0000
;

//---------------dance-single - ----------------
#NOTEDATA:;
#CHARTNAME:;
#STEPSTYPE:dance-single;
#DESCRIPTION:;
#CHARTSTYLE:;
#DIFFICULTY:Easy;
#METER:6;
#RADARVALUES:0.353828,0.463283,0.259860,0.073086,0.000000,305.000000,273.000000,32.000000,9.000000,0.000000,0.000000,0.000000,0.000000,0.000000,0.353828,0.463283,0.259860,0.073086,0.000000,305.000000,273.000000,32.000000,9.000000,0.000000,0.000000,0.000000,0.000000,0.000000;
#CREDIT:;
#NOTES:
// measure 0
0000
0000
0000
0000
,  // measure 1
0000
0000
0000
0000
,  // measure 2
0000
0000
0000
0000
,  // measure 3
0000
0000
0000
0000
,  // measure 4
1000
0001
0010
0001
,  // measure 5
1000
0010
0100
0100
,  // measure 6
0010
1000
0100
1000
,  // measure 7
0010
0100
0001
0001
,  // measure 8
1000
0100
1000
0010
,  // measure 9
0100
0001
0010
0010
,  // measure 10
0000
0000
0000
0000
,  // measure 11
0001
0000
0100
0000
0010
0000
1000
0010
,  // measure 12
1000
0000
0010
0000
0100
0000
0001
0100
,  // measure 13
0001
0000
1000
0000
0010
0000
0100
0010
,  // measure 14
0100
0000
0010
0000
1000
0010
0000
0010
,  // measure 15
0100
0001
0100
0000
0001
0000
1000
0000
,  // measure 16
0100
1000
0010
0100
,  // measure 17
1002
0000
0000
1000
,  // measure 18
2000
0000
0000
3003
,  // measure 19
0001
0001
1000
0010
,  // measure 20
0100
0100
0010
1000
,  // measure 21
0100
0100
1000
0010
,  // measure 22
0010
0100
0001
0010
,  // measure 23
0100
1000
0001
1000
,  // measure 24
0010
0000
0100
0000
0010
0000
1000
0001
,  // measure 25
1000
0001
0100
0001
,  // measure 26
0010
0000
0100
0000
0010
0100
0000
0100
,  // measure 27
1000
0001
0100
0001
,  // measure 28
0010
0001
0100
0010
,  // measure 29
1000
0100
0010
0001
,  // measure 30
1000
0001
0010
0100
,  // measure 31
1001
0000
0000
0110
0000
0000
1001
0000
,  // measure 32
0000
0110
0000
0000
1001
0000
0110
0000
,  // measure 33
1002
0000
0000
0000
,  // measure 34
0023
0000
0000
0000
,  // measure 35
0130
0000
0000
0000
,  // measure 36
0000
0000
0000
0000
,  // measure 37
0000
0000
0000
0000
,  // measure 38
0000
0000
0000
0000
,  // measure 39
0001
0000
1000
0000
,  // measure 40
0001
0000
0100
0000
,  // measure 41
0001
0000
0010
0000
,  // measure 42
0001
0000
1000
0000
,  // measure 43
0100
1000
0010
0100
,  // measure 44
0001
0010
0001
0001
,  // measure 45
0010
0001
0100
0010
,  // measure 46
1000
0001
1000
1000
,  // measure 47
0001
0100
0010
1000
,  // measure 48
0001
0100
0010
1000
,  // measure 49
0002
0000
0000
2003
,  // measure 50
3100
1000
0010
0100
,  // measure 51
0001
0010
0110
1001
,  // measure 52
0001
1000
0100
1000
,  // measure 53
0010
0100
0101
1100
,  // measure 54
0100
1000
0010
0100
,  // measure 55
0001
0010
0110
0011
,  // measure 56
0010
0100
1000
0100
,  // measure 57
1100
0011
0101
1010
,  // measure 58
0001
1000
0010
1000
,  // measure 59
0100
0010
0110
1100
,  // measure 60
0100
1000
0010
0100
,  // measure 61
0001
0010
0011
0110
,  // measure 62
0010
0001
0100
0010
,  // measure 63
1000
0001
0101
1001
,  // measure 64
1000
0100
1000
0010
,  // measure 65
0110
0110
1001
1001
,  // measure 66
0001
0100
0010
1000
,  // measure 67
0100
1000
1001
0110
,  // measure 68
0100
0010
1000
0001
,  // measure 69
0010
0000
0100
0000
1000
0100
1000
0100
,  // measure 70
1000
0000
0000
0010
0000
0000
0100
0000
,  // measure 71
0001
0000
0000
1000
0000
0000
0001
0100
,  // measure 72
0010
0000
0000
1000
0000
0000
0010
0000
,  // measure 73
0200
0000
0310
1000
,  // measure 74
0100
0000
0010
0100
0010
0000
0001
0000
,  // measure 75
1000
0000
0010
1000
0010
0000
0100
0000
,  // measure 76
0001
0000
1000
0001
1000
0000
0001
0000
,  // measure 77
0010
0100
0000
0100
1000
0001
1000
0000
,  // measure 78
0010
0100
0001
1000
,  // measure 79
0100
1000
2002
0000
,  // measure 80
0000
3000
0000
0000
,  // measure 81
0003
0000
0110
0000
;
