#VERSION:0.83;
#TITLE:Nightmare before oversleep;
#SUBTITLE:;
#ARTIST:猫叉Master;
#TITLETRANSLIT:;
#SUBTITLETRANSLIT:;
#ARTISTTRANSLIT:Nekomata Master;
#GENRE:;
#ORIGIN:;
#CREDIT:;
#BANNER:Nightmare before oversleep.png;
#BACKGROUND:Nightmare before oversleep-bg.png;
#PREVIEWVID:;
#JACKET:Nightmare before oversleep-jacket.png;
#CDIMAGE:;
#DISCIMAGE:;
#LYRICSPATH:;
#CDTITLE:;
#MUSIC:Nightmare before oversleep.mp3;
#OFFSET:-0.795999;
#SAMPLESTART:76.893265;
#SAMPLELENGTH:10.105263;
#SELECTABLE:YES;
#BPMS:0.000=47.500,
4.000=95.000,
34.000=190.000,
193.000=95.000,
195.000=190.000,
288.000=47.500;
#STOPS:195.000=0.316,
287.500=1.263;
#DELAYS:;
#WARPS:;
#TIMESIGNATURES:0.000=4=4;
#TICKCOUNTS:0.000=4;
#COMBOS:0.000=1;
#SPEEDS:0.000=1.000=0.000=0;
#SCROLLS:0.000=1.000;
#FAKES:;
#LABELS:0.000=Song Start;
#BGCHANGES:;
#KEYSOUNDS:;
#ATTACKS:
;

//---------------dance-single - ----------------
#NOTEDATA:;
#CHARTNAME:;
#STEPSTYPE:dance-single;
#DESCRIPTION:;
#CHARTSTYLE:;
#DIFFICULTY:Hard;
#METER:9;
#RADARVALUES:0.529808,0.526454,0.382007,0.063668,0.135294,466.000000,418.000000,48.000000,8.000000,0.000000,0.000000,0.000000,0.000000,0.000000,0.529808,0.526454,0.382007,0.063668,0.135294,466.000000,418.000000,48.000000,8.000000,0.000000,0.000000,0.000000,0.000000,0.000000;
#CREDIT:;
#NOTES:
0000
0000
0000
0000
0000
0000
0000
0000
0000
0000
0000
0000
0000
0000
0000
0000
0000
0000
0000
0000
0000
0000
0000
0000
0000
0000
0000
0000
0000
0000
1000
0100
,
0010
0001
1000
0100
,
1000
0000
0001
0000
1000
0000
0001
0010
,
0001
0000
0001
1000
0100
1000
0010
0100
,
0001
1100
1010
0001
,
1000
0001
1100
0001
,
0011
0000
0001
0100
0001
0000
0100
0010
,
1000
0100
1000
0001
0100
0000
0000
0000
,
0010
0000
0000
0000
1001
0000
0001
1000
,
0000
0100
1000
0000
1000
0010
0000
0100
,
0001
0000
0010
0000
0100
0000
0010
0001
,
0000
0001
1000
0000
0010
0100
0000
0100
,
0001
0000
1000
0000
0100
0000
0010
0100
,
0000
0100
0010
0000
0001
1000
0000
0010
,
1000
0000
0100
0000
1000
0100
0001
0100
,
1000
0010
0001
0010
0100
0001
0010
1000
,
0010
0000
0100
0000
1000
0000
0001
0010
,
0000
0001
1000
0000
0001
0100
0000
0001
,
1000
0100
0001
0100
0010
0000
0100
1000
,
0000
1000
0010
0000
0010
0100
0000
0100
,
0001
0100
1000
0100
0001
0000
1000
0100
,
0000
1000
0010
0000
0010
0100
0000
0100
,
0010
1000
0100
0001
0100
0100
0010
0001
,
0001
0100
1000
1000
0100
0010
1000
0001
,
0010
0100
0010
0001
1000
0001
0010
0001
,
1000
0010
1000
0100
1000
0001
0100
0001
,
0010
1000
0010
0001
1000
0100
0010
0001
,
0100
0001
1000
0100
1000
0010
1000
0001
,
0010
1000
0010
1000
0010
0001
0100
0001
,
0010
0001
1000
0010
1000
0100
1000
0010
,
0100
1000
0100
0001
1000
0100
0001
0100
,
1000
0010
0001
0010
0100
0001
0010
1000
,
0010
0100
1000
0100
0110
0000
0010
0000
,
0001
1000
0100
1000
,
1010
1000
0001
0011
,
0101
1001
1100
1000
,
0010
0000
0110
0000
0001
1000
0001
0100
,
0002
0203
0302
0013
,
0000
1100
0000
0000
0010
0000
0000
1001
,
0000
0000
0001
0000
0000
1010
0000
0000
,
1100
0101
0011
1001
,
1010
0000
0101
0000
0011
0000
0010
0100
,
1000
0100
1100
0000
0000
0011
0000
0000
,
0101
0000
0000
1010
0000
0000
1001
0000
,
0000
0011
0000
0000
1100
0000
0000
1010
,
0000
0000
1001
0000
0001
0101
0000
1000
,
1100
0000
0001
0101
0000
1000
1010
0000
,
0001
0011
0000
1000
1010
0000
0011
0000
,
1010
0200
0000
0300
,
1001
0001
0010
1000
,
0010
0000
0100
0010
0001
0100
1000
0100
,
0010
0000
1000
0000
0001
0000
0100
0001
,
0010
0100
0010
0001
1000
0100
0010
0001
,
1001
0000
0000
0000
0000
0001
0100
1000
,
0100
0000
1001
0000
0000
1000
0010
0001
,
0010
0100
0100
1000
0001
0001
0100
0001
,
1001
1000
0001
0010
,
0001
0000
0100
0001
0100
0010
1000
0001
,
1000
0000
0100
0000
1000
0000
0010
0100
,
0001
0010
0100
0010
0001
1000
0010
0100
,
0101
0000
0000
0000
0000
0001
0100
0010
,
1010
0000
0101
0000
0000
0001
0010
0100
,
1000
0001
0001
0100
0010
0010
1000
0001
,
0100
0000
0000
0010
0100
0000
0000
0100
0010
0000
0000
0010
0100
0000
0000
0100
,
0010
0000
0000
0100
0001
0000
0000
0001
0010
0000
0000
0010
0100
0000
0000
0100
,
1000
0000
0000
1000
0001
0000
0000
0001
0100
0000
0000
0100
0010
0000
0000
0010
,
1000
0000
0000
1000
0100
0000
0000
0100
1000
0000
0000
1000
0001
0000
0000
0001
,
0100
0000
0000
0100
0010
0000
0000
0010
0100
0000
0000
0100
0001
0000
0000
0001
,
0010
0000
0000
0010
0100
0000
0000
0100
1000
0000
0000
1000
0001
0000
0000
0001
,
0100
0000
0000
0100
0010
0000
0000
0010
1000
0000
0000
1000
0001
0000
0000
0001
,
0010
0000
0000
0010
0001
0000
0000
0001
0100
0000
0000
0100
0010
0000
0000
0010
,
1000
0001
1000
0001
1000
0001
1000
0001
,
0220
0000
0000
0000
0000
0000
0000
0000
0000
0000
0000
0000
0000
0000
0000
0000
0000
0000
0000
0000
0000
0000
0000
0000
0000
0000
0000
0000
0000
0000
0000
0000
0000
0000
0000
0000
0000
0000
0000
0000
0000
0000
0000
0000
0000
0000
0000
0000
0000
0000
0000
0000
0000
0000
0000
0000
0000
0000
0000
0000
0000
0000
0000
0000
0000
0000
0000
0000
0000
0000
0000
0000
0000
0000
0000
0000
0000
0000
0000
0000
0000
0000
0000
0000
0000
0000
0000
0000
0000
0000
0000
0000
0000
0000
0000
0000
0000
0000
0000
0000
0000
0000
0000
0000
0000
0000
0000
0000
0000
0000
0000
0000
0000
0000
0000
0000
0000
0000
0000
0000
0000
0000
0000
0000
0000
0000
0000
0000
0000
0000
0000
0000
0000
0000
0000
0000
0000
0000
0000
0000
0000
0000
0000
0330
0220
0000
0000
0000
0000
0000
0000
0000
0000
0000
0000
0000
0000
0000
0000
0000
0000
0000
0000
0000
0000
0000
0000
0000
0000
0000
0000
0000
0000
0000
0000
0000
0000
0000
0000
0000
0000
0000
0000
0000
0000
0000
0000
0000
0000
0000
0000
0000
,
0000
0000
0330
0000
;

//---------------dance-single - ----------------
#NOTEDATA:;
#CHARTNAME:;
#STEPSTYPE:dance-single;
#DESCRIPTION:;
#CHARTSTYLE:;
#DIFFICULTY:Medium;
#METER:6;
#RADARVALUES:0.416115,0.521082,0.453634,0.007958,0.007958,366.000000,309.000000,57.000000,1.000000,0.000000,0.000000,0.000000,0.000000,0.000000,0.416115,0.521082,0.453634,0.007958,0.007958,366.000000,309.000000,57.000000,1.000000,0.000000,0.000000,0.000000,0.000000,0.000000;
#CREDIT:;
#NOTES:
0000
0000
0000
0000
0000
0000
0000
0000
0000
0000
0000
0000
0000
0000
0000
0000
0000
0000
0000
0000
0000
0000
0000
0000
0000
0000
0000
0000
0000
0000
0001
1000
,
0001
0100
0001
0010
,
0001
0000
1000
0000
0001
0000
1000
0100
,
1000
0000
0100
1000
0010
0100
0001
1000
,
0100
1000
0010
0100
,
0001
0100
0010
0100
,
0010
0000
0100
0001
0010
0000
0100
0010
,
0001
1000
0100
0010
0100
0000
0000
0000
,
1000
0000
0000
0000
1001
0000
0000
0001
,
0000
1000
0010
0000
,
0100
0000
0100
0000
0010
0000
0000
1000
,
0000
0100
1000
0000
,
0001
0000
0001
0000
1000
0000
0000
0010
,
0000
1000
0100
0000
,
1000
0000
1000
0000
1001
0000
0001
0100
,
0000
0100
0010
0000
0010
1000
0000
1000
,
0010
0000
0100
0000
0001
0000
1000
0001
,
0000
0001
1000
0000
1000
0001
0000
0001
,
1000
0000
1001
0000
0001
0000
0001
0100
,
0000
0100
0010
0000
0010
1000
0000
1000
,
0010
0000
0110
0000
0100
0000
0010
0100
,
0000
0100
0010
0000
0010
0100
0000
0100
,
0010
0000
0110
0000
0110
0000
0000
0101
,
0000
0000
0011
0000
0000
0001
1000
0001
,
1000
0100
0010
0001
1000
0000
0001
0100
,
0000
0001
1000
0000
0001
0010
0000
0001
,
1000
0000
1001
0000
1000
0000
0001
1000
,
0000
1000
0010
0000
0010
0100
0000
0100
,
0001
0000
0010
0000
0100
0000
1000
0100
,
0000
1000
0010
0000
1000
0001
0000
1000
,
0100
0000
1000
0000
1010
0000
0000
0101
,
0000
0000
0011
0000
0000
0001
1000
0001
,
1000
0100
0010
0001
1000
0000
0000
0100
,
0000
0000
1000
0000
0000
0010
0000
0000
,
0001
0000
0000
0010
0000
0000
0100
0000
,
0001
0100
1000
0100
,
0010
0000
1000
0000
0001
0010
0001
0010
,
0001
0010
1000
0010
,
0000
0100
0000
0000
1000
0000
0000
0010
,
0000
0000
0001
0000
0000
0010
0000
0000
,
0100
0001
0010
0001
,
1000
0000
0100
0000
1000
0000
0010
1000
,
0010
0100
0001
0000
0000
0100
0000
0000
,
0010
0000
0000
1000
0000
0000
0100
0000
,
0000
1000
0000
0000
0001
0000
0000
0100
,
0000
0000
0101
0000
0000
1010
0000
0000
,
0101
0000
0000
1010
0000
0000
1100
0000
,
0000
0011
0000
0000
1100
0000
0011
0000
,
0101
0020
0000
0030
,
1000
0010
1000
0100
,
1000
0000
0010
1000
0010
1000
0010
0100
,
0001
0000
0100
0000
0010
0000
1000
0001
,
1000
0000
0001
0000
0010
0100
1000
0100
,
1000
0000
0000
0000
0000
0010
0100
0001
,
1000
0000
0000
0000
0000
0010
0100
0001
,
1000
0001
0010
0001
,
0100
0001
0010
0001
,
1000
0000
0001
0100
0001
1000
0001
0010
,
0001
0000
0010
0000
0100
0000
1000
0100
,
0010
0100
1000
0100
0010
0100
0001
1000
,
0001
0000
0000
0000
0000
0001
0010
0100
,
1000
0000
0000
0000
0000
1000
0100
0010
,
0001
1000
0010
0100
,
0101
1010
0101
1010
,
1001
0110
1001
0110
,
0101
1010
0101
1010
,
1100
0011
1100
0011
,
0011
0110
1100
0110
,
0101
1001
1100
1001
,
0011
1010
0011
1010
,
1001
0101
0011
0110
,
1100
0110
0011
1001
,
0010
0000
0000
0010
;

//---------------dance-single - ----------------
#NOTEDATA:;
#CHARTNAME:;
#STEPSTYPE:dance-single;
#DESCRIPTION:;
#CHARTSTYLE:;
#DIFFICULTY:Easy;
#METER:4;
#RADARVALUES:0.303559,0.405286,0.238755,0.015917,0.000000,267.000000,237.000000,30.000000,2.000000,0.000000,0.000000,0.000000,0.000000,0.000000,0.303559,0.405286,0.238755,0.015917,0.000000,267.000000,237.000000,30.000000,2.000000,0.000000,0.000000,0.000000,0.000000,0.000000;
#CREDIT:;
#NOTES:
0000
0000
0000
0000
,
1000
0010
1000
0100
,
1000
0000
0001
0000
1000
0000
0001
0100
,
0001
0100
0001
0010
,
0001
1010
0101
0001
,
0010
0001
1100
1000
,
1001
0000
0001
1000
0001
0000
1000
0000
,
0010
0000
0100
0001
0010
0000
0000
0000
,
0100
0000
1001
0000
,
0001
0000
1000
0000
,
0010
0010
1000
0000
,
0100
0000
1000
0000
,
0001
0001
1000
0000
,
0010
0000
0100
0000
,
0010
0000
1000
0000
0010
0000
0000
1000
,
0000
0000
0010
0000
0000
0100
0000
0000
,
0001
0000
0010
0000
0001
0000
0000
1000
,
0000
0000
0010
0000
0000
1000
0000
0000
,
0100
0000
1000
0000
0100
0000
0000
0010
,
0000
0000
0001
0000
0000
0100
0000
0000
,
0010
0000
0100
0000
0010
0000
0000
0100
,
0000
0000
0001
0000
0000
1000
0000
0000
,
0100
0000
1000
0000
0010
0000
0000
0100
,
0000
0000
0001
0000
0000
0010
0000
0000
,
0001
0000
1000
0000
0001
0000
0000
1000
,
0000
0000
0010
0000
0000
0100
0000
0000
,
1001
0000
0101
0000
0001
0000
0000
1000
,
0000
0000
0100
0000
0000
1000
0000
0000
,
1010
0000
0110
0000
0010
0000
0000
1000
,
0000
0000
0100
0000
0000
1000
0000
0000
,
1001
0000
0101
0000
0001
0000
0000
1100
,
0000
0000
0010
0000
0000
0110
0000
0000
,
0100
0000
0010
0000
1000
0000
0000
0001
,
0000
0000
0010
0000
0000
0001
0000
0000
,
0100
0000
0000
0010
0000
0000
1000
0000
,
0010
0100
0001
0010
,
0001
0000
1000
0000
0001
0100
0001
0100
,
0001
0100
0010
1000
,
0000
0010
0000
0000
0100
0000
0000
0001
,
0000
0000
1000
0000
0000
0100
0000
0000
,
1000
0100
0010
0100
,
1000
0000
0010
0000
0100
0000
0001
1000
,
0001
1000
0001
0000
0000
0010
0000
0000
,
0001
0000
0000
0100
0000
0000
0010
0000
,
0000
1000
0000
0000
0010
0000
0000
0100
,
0000
0000
1001
0000
0000
1001
0000
0000
,
1001
0000
0000
1001
0000
0000
0110
0000
,
0000
0110
0000
0000
0110
0000
0110
0000
,
1001
0000
0000
0000
,
0001
0010
0001
1000
,
0100
1000
0010
0011
,
0010
0100
0010
1000
,
0001
0010
0100
1000
,
1100
0000
0000
1000
,
1001
0000
0000
0001
,
1001
0001
0010
0001
,
0100
0010
1000
0010
,
0100
0001
0010
0100
,
1100
0100
0010
0001
,
1000
1000
0100
0100
,
1000
0000
0000
0010
,
0110
0000
0000
0100
,
0110
0000
0000
0010
,
1000
0001
1000
0001
,
0100
0100
0100
0100
,
0010
0010
0010
0010
,
1000
1000
1000
1000
,
0001
0010
0100
1000
,
0001
0001
0001
0001
,
1000
1000
1000
1000
,
0010
0010
0010
0010
,
0100
0010
1000
0001
,
2002
0000
0000
3003
;

//---------------dance-single - ----------------
#NOTEDATA:;
#CHARTNAME:;
#STEPSTYPE:dance-single;
#DESCRIPTION:;
#CHARTSTYLE:;
#DIFFICULTY:Beginner;
#METER:2;
#RADARVALUES:0.147800,0.231592,0.111419,0.000000,0.000000,130.000000,116.000000,14.000000,0.000000,0.000000,0.000000,0.000000,0.000000,0.000000,0.147800,0.231592,0.111419,0.000000,0.000000,130.000000,116.000000,14.000000,0.000000,0.000000,0.000000,0.000000,0.000000,0.000000;
#CREDIT:;
#NOTES:
// measure 0
0000
0000
0000
0000
,  // measure 1
0001
0000
1000
0000
,  // measure 2
0010
0000
1000
0000
,  // measure 3
0001
0000
0100
0000
,  // measure 4
0010
0010
0100
0000
,  // measure 5
0010
0000
1000
0000
,  // measure 6
0001
0000
1000
0000
,  // measure 7
0010
0000
0100
0000
,  // measure 8
0010
0000
1001
0000
,  // measure 9
0000
0000
1000
0000
,  // measure 10
0000
0000
0001
0000
,  // measure 11
0000
0000
0100
0000
,  // measure 12
0000
0000
0010
0000
,  // measure 13
0010
0000
0010
0000
,  // measure 14
0000
0000
1000
0000
,  // measure 15
0000
0001
0000
0000
,  // measure 16
0100
0100
0100
0000
,  // measure 17
0000
0000
0010
0000
,  // measure 18
1000
0000
1000
0000
,  // measure 19
0000
0000
0001
0000
,  // measure 20
0010
0000
0010
0000
,  // measure 21
0000
0000
0100
0000
,  // measure 22
0010
0000
0001
0000
,  // measure 23
0000
1000
0000
0000
,  // measure 24
0010
0000
1001
0000
,  // measure 25
0000
0000
1000
0000
,  // measure 26
0001
0001
0001
0000
,  // measure 27
0000
0000
0100
0000
,  // measure 28
0010
0010
0010
0000
,  // measure 29
0000
0000
1000
0000
,  // measure 30
0001
0001
0001
0000
,  // measure 31
0000
1000
0000
0000
,  // measure 32
0010
0000
0100
0000
,  // measure 33
0000
0100
0000
0000
,  // measure 34
0001
0000
0000
1000
,  // measure 35
1000
1000
0001
0000
,  // measure 36
0000
1000
0000
0000
,  // measure 37
0010
0010
0010
0100
,  // measure 38
0000
0000
0010
0000
,  // measure 39
0000
1000
0000
0000
,  // measure 40
0001
0001
0001
0001
,  // measure 41
0000
0000
1000
0000
,  // measure 42
0000
0010
0000
0000
,  // measure 43
0100
0000
0000
0001
,  // measure 44
0000
0000
1000
0000
,  // measure 45
0000
1001
0000
0000
,  // measure 46
1001
0000
0000
0110
,  // measure 47
0000
0000
0110
0000
,  // measure 48
0000
0000
0000
0000
,  // measure 49
0010
0000
0000
0000
,  // measure 50
1000
0000
0001
0000
,  // measure 51
1000
0000
0000
0000
,  // measure 52
0100
0000
1000
0000
,  // measure 53
1001
0000
0000
0000
,  // measure 54
0110
0000
0000
0000
,  // measure 55
1001
0000
0001
0000
,  // measure 56
0100
0000
0000
0000
,  // measure 57
0001
0000
0000
0000
,  // measure 58
0010
0000
0000
0000
,  // measure 59
0001
0000
1000
0000
,  // measure 60
0110
0000
0000
0000
,  // measure 61
1001
0000
0000
0000
,  // measure 62
0110
0000
0000
0000
,  // measure 63
0010
0000
0000
0000
,  // measure 64
1000
0000
0000
0000
,  // measure 65
0001
0000
0000
0000
,  // measure 66
0100
0000
0000
0000
,  // measure 67
0010
0010
0100
0100
,  // measure 68
0010
0000
0000
0000
,  // measure 69
1000
0000
0000
0000
,  // measure 70
0001
0000
0000
0000
,  // measure 71
1000
1000
1000
1000
,  // measure 72
1001
0000
0000
0110
;
