#TITLE:New Bibi Hendl;
#SUBTITLE:;
#ARTIST:Takeo Ischi;
#TITLETRANSLIT:;
#SUBTITLETRANSLIT:;
#ARTISTTRANSLIT:;
#GENRE:;
#CREDIT:;
#BANNER:;
#BACKGROUND:;
#LYRICSPATH:;
#CDTITLE:;
#MUSIC:New Bibi Hendl.ogg;
#OFFSET:1.535001;
#SAMPLESTART:14.711599;
#SAMPLELENGTH:14.436090;
#LASTBEATHINT:1.141586;
#SELECTABLE:YES;
#BPMS:0.000000=133.000000
;
#STOPS:
;
#BGCHANGES:;
#KEYSOUNDS:;
#ATTACKS:;

//---------------dance-single - ----------------
#NOTES:
     dance-single:
     :
     Hard:
     8:
     0.495375,0.591888,0.239147,0.059787,0.222065,406.000000,378.000000,28.000000,7.000000,0.000000,0.000000,0.495375,0.591888,0.239147,0.059787,0.222065,406.000000,378.000000,28.000000,7.000000,0.000000,0.000000:
// measure 0
0000
0000
0000
0000
,  // measure 1
0000
0000
0000
0000
,  // measure 2
0000
0000
0000
0000
,  // measure 3
0000
0000
0000
0000
,  // measure 4
0000
0000
0000
0000
,  // measure 5
1000
0001
0000
0100
0000
0001
0000
0010
,  // measure 6
0100
1000
0010
1000
0000
0000
0000
0000
,  // measure 7
0100
1000
0000
0001
0000
0100
0000
0010
,  // measure 8
0100
0001
1000
0001
0000
0000
0000
0000
,  // measure 9
1000
0100
0001
0100
,  // measure 10
1000
0000
0000
0010
0000
0000
0001
0000
0010
0000
0000
0000
1000
0000
0000
0000
,  // measure 11
0001
0010
1000
0010
,  // measure 12
0001
0000
0000
1000
0010
0000
0100
0000
0001
0000
0000
0000
1000
0000
0000
0000
,  // measure 13
1100
0000
0000
1000
0001
0010
0001
0100
,  // measure 14
0110
0101
0021
0030
,  // measure 15
1001
0000
0000
0001
1000
0010
0100
0001
,  // measure 16
1001
0000
0000
0000
1010
0000
0000
0000
1100
0000
0000
0000
0000
0000
1000
0001
,  // measure 17
1000
0000
0100
0000
0010
0000
0001
1000
0001
0000
0010
0000
0100
0000
1000
0001
,  // measure 18
1000
0000
0100
0000
0010
0000
0001
1000
0001
0000
0010
0000
0100
0000
0000
0000
,  // measure 19
1000
0000
0100
0000
0010
0000
0001
1000
0001
0000
0100
0000
0010
0000
1000
0001
,  // measure 20
0100
0000
0010
0000
0100
0000
0010
0000
0100
0000
0010
0000
0100
0000
0001
0100
,  // measure 21
0001
0000
0100
0000
0010
0000
1000
0010
1000
0000
0010
0000
0100
0000
0001
0100
,  // measure 22
0001
0000
0100
0000
0010
0000
1000
0010
1000
0000
0010
0000
0100
0000
0000
0000
,  // measure 23
0001
0000
0100
0000
0010
0000
1000
0010
1000
0000
0001
0000
0010
0000
0001
0000
,  // measure 24
2000
0000
0000
0000
0000
0000
0000
0000
3000
0000
0001
1000
0001
0000
1000
0000
,  // measure 25
0100
1000
0000
0010
0000
0100
0000
0001
,  // measure 26
0100
0001
1000
0001
0000
0000
0000
0000
,  // measure 27
1000
0010
0000
0100
0000
0010
0000
1000
,  // measure 28
0100
1000
0010
1000
0000
0000
0000
0000
,  // measure 29
0001
0100
0000
1010
0000
0101
0000
0001
,  // measure 30
0010
1000
0010
0100
0000
0000
0000
0000
,  // measure 31
1000
0100
0000
0011
0000
1100
0000
0100
,  // measure 32
0010
0001
1000
0001
0000
0000
0000
0000
,  // measure 33
0100
0010
0001
0010
,  // measure 34
1000
0000
0000
0010
0000
0000
0100
0000
0001
0000
0000
0000
0010
0000
0000
0000
,  // measure 35
1000
0010
0100
1000
,  // measure 36
0010
0000
0000
0100
0001
0000
0010
0000
0100
0000
0000
0000
0010
0000
0000
0000
,  // measure 37
0011
0000
0000
0001
0010
0001
1000
0100
,  // measure 38
1100
1010
1002
0003
,  // measure 39
0101
0000
0000
0001
1000
0010
1000
0100
,  // measure 40
1100
0000
0000
0000
0011
0000
0000
0000
1100
0000
0000
0000
0000
0000
0001
1000
,  // measure 41
0001
0000
1000
0000
0010
0000
1000
0001
1000
0000
0001
0000
0100
0000
0001
1000
,  // measure 42
0001
0000
1000
0000
0010
0000
1000
0001
1000
0000
0001
0000
0100
0000
0000
0000
,  // measure 43
0001
0000
1000
0000
0010
0000
1000
0001
1000
0000
0001
0000
0100
0000
0001
1000
,  // measure 44
0010
0000
0100
0000
0010
0000
0100
0000
0010
0000
0100
0000
0010
0000
1000
0100
,  // measure 45
1000
0000
0100
0000
0010
0000
0001
0010
0001
0000
0010
0000
0100
0000
1000
0100
,  // measure 46
1000
0000
0100
0000
0010
0000
0001
0010
0001
0000
0010
0000
0100
0000
0000
0000
,  // measure 47
1000
0000
0100
0000
0010
0000
0001
0010
0001
0000
0010
0000
0100
0000
1000
0000
,  // measure 48
0020
0000
0000
0000
0030
1000
0001
0001
,  // measure 49
1001
1000
0000
0010
0000
1000
0000
0001
,  // measure 50
1001
1000
0100
1000
0000
0000
0000
0000
,  // measure 51
1001
0100
1001
0010
,  // measure 52
1001
0000
0000
0000
0110
0000
0000
0000
1001
0000
0000
0010
0100
0000
0001
1000
,  // measure 53
0001
0000
0100
0000
0100
0000
0001
1000
0001
0000
0010
0000
0010
0000
0001
1000
,  // measure 54
0001
0000
0100
0000
0100
0000
0001
1000
0001
0000
0010
0000
0010
0000
0100
1000
,  // measure 55
0100
0000
0010
0000
0010
0000
0001
0100
0001
0000
1000
0000
1000
0000
0001
0100
,  // measure 56
0001
0000
0010
0000
0010
0000
0100
1000
0100
0000
1000
0000
1000
0000
0001
1000
,  // measure 57
0001
0000
0010
0000
0010
0000
0001
1000
0001
0000
0100
0000
0100
0000
0001
1000
,  // measure 58
0001
0000
0010
0000
0010
0000
0001
1000
0001
0000
0100
0000
0100
0000
0001
0100
,  // measure 59
0010
0000
1000
0000
0010
0000
0100
0001
0010
0000
0100
0000
1000
0000
0100
1000
,  // measure 60
0010
0000
0100
0000
0001
0000
1000
0001
0100
0010
0000
1000
0001
0000
1000
0000
,  // measure 61
0020
0000
0000
0000
0000
0000
0000
0000
0000
0000
0000
0000
0000
0000
0000
0000
0000
0000
0000
0000
0000
0000
0000
0000
0000
0000
0000
0000
0000
0000
0000
0000
0000
0000
0000
0000
0100
0000
0000
0000
0000
0000
0000
0000
0000
0000
0000
0000
0000
0000
0000
0000
0000
0000
0000
0000
0000
0000
0000
0000
0000
0000
0000
0000
0100
0000
0000
0000
0000
0000
0000
0000
0000
0000
0000
0000
0000
0000
0000
0000
0000
0000
0000
0000
0000
0000
0000
0000
0000
0000
0100
0000
0000
0000
0000
0000
0000
0000
0000
0000
0000
0000
0000
0000
0000
0000
0000
0000
0000
0000
0000
0000
0000
0000
0000
0000
0000
0000
0000
0000
0100
0000
0000
0000
0000
0000
0000
0000
0000
0000
0000
0000
0000
0000
0000
0000
0000
0000
0000
0000
0000
0000
0000
0000
0000
0000
0000
0000
0000
0000
0000
0000
0100
0000
0000
0000
0000
0000
0000
0000
0000
0000
0000
0000
0000
0000
0000
0000
0000
0000
0000
0000
0000
0000
0000
0000
0000
0000
0000
0000
0000
0000
0000
0000
0000
0000
0100
0000
0000
0000
0000
0000
,  // measure 62
0000
0000
0000
0000
0100
0000
0030
0000
0000
2002
0000
0000
0000
0000
0000
0000
0000
0000
0000
0000
0000
0000
0000
0000
,  // measure 63
3003
0000
0000
0000
;

//---------------dance-single - ----------------
#NOTES:
     dance-single:
     :
     Medium:
     5:
     0.325776,0.426193,0.520998,0.324556,0.000000,267.000000,206.000000,61.000000,38.000000,0.000000,0.000000,0.325776,0.426193,0.520998,0.324556,0.000000,267.000000,206.000000,61.000000,38.000000,0.000000,0.000000:
0000
0000
0000
0000
,
0000
0000
0000
0000
,
0000
0000
0000
0000
,
0000
0000
0000
0000
,
0000
0000
0000
0000
,
1000
0010
1000
0100
,
1000
0001
1000
0001
,
0010
0001
0100
0001
,
0010
0001
1000
0001
,
1000
0100
0001
0100
,
0010
0001
1000
1001
,
0001
0010
1000
0010
,
0100
0000
1000
0010
1000
0000
0010
0000
,
0101
0000
0001
1000
,
1100
0011
1100
0000
,
1001
0000
0001
1000
,
1010
0101
1010
0000
,
1002
0013
1002
0013
,
2001
3100
2001
3100
,
1020
0130
1020
1030
,
1000
0010
1000
0010
1000
0010
1000
0000
,
0102
0013
0102
0013
,
2100
3010
2100
3010
,
1002
0000
0013
0000
1002
0000
1003
0001
,
0200
0000
0000
0300
,
0010
0000
0000
0000
,
1000
0000
0000
0000
,
0001
0000
0010
0000
,
0001
1000
0010
0100
,
0001
0100
0010
0010
,
1000
0001
0100
0100
,
0010
1000
0100
0100
,
0010
0100
1000
0001
,
0100
0001
0010
1000
,
0010
0100
0010
0001
,
0100
1000
0100
0001
,
0010
0000
0100
0010
0001
0000
1000
0000
,
1001
0000
0001
0010
,
0110
1100
1010
0000
,
1001
0000
1000
0001
,
0011
0110
1001
0000
,
0102
0103
2100
3100
,
1020
1030
0021
0031
,
1002
0103
2001
3010
,
1000
0010
1000
0010
1000
0010
1000
0000
,
0102
0103
1020
1030
,
0201
0301
1020
1030
,
2100
0000
3100
0000
1200
0000
1300
0100
,
0020
0000
0000
0030
,
1001
0000
0000
0000
,
0110
0000
0000
0000
,
1001
0000
0110
0000
,
1001
0110
1001
0110
,
0102
0013
2100
3010
,
2100
3001
0102
1003
,
1200
0310
0021
0130
,
2100
3010
0102
0013
,
1002
0100
0010
0103
,
2001
0100
0010
3100
,
1020
0001
1000
0031
,
0210
0000
1000
0000
0001
0000
1300
0100
,
0040
0000
0000
0000
,
0000
0000
0000
0030
0000
0000
0000
0000
;

//---------------dance-single - ----------------
#NOTES:
     dance-single:
     :
     Beginner:
     1:
     0.102491,0.182349,0.025623,0.000000,0.000000,84.000000,81.000000,3.000000,0.000000,0.000000,0.000000,0.102491,0.182349,0.025623,0.000000,0.000000,84.000000,81.000000,3.000000,0.000000,0.000000,0.000000:
0000
0000
0000
0000
,
0000
0000
0000
0000
,
0000
0000
0000
0000
,
0000
0000
0000
0000
,
0000
0000
0000
0000
,
0010
0000
0000
0000
,
1000
0000
0000
0000
,
0010
0000
0000
0000
,
1000
0000
0000
0000
,
0001
0000
0000
0000
,
0100
0000
0000
0000
,
0001
0000
0000
0000
,
1000
0000
0000
0000
,
0010
0000
0000
0000
,
0100
0100
0100
0000
,
0001
0000
0000
0000
,
1000
0001
1000
0000
,
0010
0000
0000
0000
,
0100
0000
0000
0000
,
0010
0000
0000
0000
,
1001
0000
0000
0000
,
1000
0000
0000
0000
,
0001
0000
0000
0000
,
1000
0000
0000
0000
,
0010
0000
0000
0000
,
0100
0000
0000
0000
,
0001
0000
0000
0000
,
1000
0000
1000
0000
,
1000
0001
1000
0000
,
0010
0000
0000
0000
,
0100
0000
0000
0000
,
0001
0000
0000
0000
,
1000
0000
0000
0000
,
0010
0000
0000
0000
,
1000
0000
0000
0000
,
0001
0000
0000
0000
,
0100
0000
0000
0000
,
0010
0000
0000
0000
,
1000
1000
1000
0000
,
0001
0000
0000
0000
,
0010
0100
0010
0000
,
0100
0000
0000
0000
,
1000
0000
0000
0000
,
0001
0000
0000
0000
,
1001
0000
0000
0000
,
0010
0000
0000
0000
,
0100
0000
0000
0000
,
0001
0000
1000
0000
,
0100
0000
0000
0000
,
1000
0000
0000
0000
,
0001
0000
0000
0000
,
1000
0000
1000
0000
,
0001
0001
0001
0000
,
0100
0000
0100
0000
,
0100
0000
0100
0000
,
0010
0000
0010
0000
,
0010
0000
0010
0000
,
1000
0000
1000
0000
,
1000
0000
1000
0000
,
0001
0000
0001
0000
,
0001
0000
0001
1000
,
0110
0000
0000
0000
;

//---------------dance-single - ----------------
#NOTES:
     dance-single:
     :
     Easy:
     3:
     0.251348,0.346282,0.196442,0.059787,0.000000,206.000000,183.000000,23.000000,7.000000,0.000000,0.000000,0.251348,0.346282,0.196442,0.059787,0.000000,206.000000,183.000000,23.000000,7.000000,0.000000,0.000000:
0000
0000
0000
0000
,
0000
0000
0000
0000
,
0000
0000
0000
0000
,
0000
0000
0000
0000
,
0000
0000
0000
0000
,
1000
0000
0001
0000
,
1000
0001
1000
0000
,
0010
0000
0100
0000
,
0010
0100
0010
0000
,
1000
0010
1000
0010
,
1000
0001
1000
1000
,
0001
0010
0001
0010
,
0001
0100
0100
0010
,
1001
0000
1000
0001
,
0100
0100
0100
0000
,
1001
0000
0001
1000
,
0010
0010
0010
0000
,
1000
0001
1000
0001
,
1000
0001
1000
0001
,
0100
0010
0100
0010
,
2002
0000
0000
3003
,
0001
0100
0001
0100
,
0001
0100
0001
0100
,
0010
1000
0010
0100
,
0002
0000
0000
0003
,
1001
0000
0000
0000
,
0110
0000
0000
0000
,
1001
0000
0110
0000
,
1001
0110
1001
0110
,
1000
0010
0010
0010
,
1000
0001
0001
0001
,
0100
0010
0010
0010
,
1000
0100
0100
0100
,
1000
0001
0010
0001
,
1000
0001
1000
0001
,
1000
0010
1000
0100
,
0010
0100
0100
0010
,
1001
0000
1000
0001
,
0010
0100
0010
0000
,
1001
0000
1000
0001
,
0100
0010
0100
0000
,
0001
0010
0001
1000
,
0001
0100
0001
1000
,
1000
0001
1000
0010
,
2002
0000
0000
3003
,
1000
0010
1000
0001
,
1000
0100
1000
0001
,
0001
1000
0001
0100
,
0020
0000
0000
0030
,
1001
0000
0000
0000
,
0110
0000
0000
0000
,
1001
0000
0110
0000
,
1001
0110
1001
0110
,
1000
1000
0001
0001
,
1000
1000
0001
0001
,
0100
0100
0010
0010
,
0100
0100
0010
0010
,
1000
0001
0010
0001
,
1000
0010
1000
0001
,
1000
0100
1000
0001
,
0100
0001
1000
0001
,
0120
0000
0000
0000
,
0000
0000
0000
0030
0000
0000
0000
0000
;
