#VERSION:0.83;
#TITLE:Neba;
#SUBTITLE:;
#ARTIST:Ferry Corsten presents Gouryella;
#TITLETRANSLIT:;
#SUBTITLETRANSLIT:;
#ARTISTTRANSLIT:;
#GENRE:;
#ORIGIN:;
#CREDIT:;
#BANNER:Neba.png;
#BACKGROUND:Neba-bg.png;
#PREVIEWVID:;
#JACKET:Neba-jacket.png;
#CDIMAGE:;
#DISCIMAGE:;
#LYRICSPATH:;
#CDTITLE:;
#MUSIC:Neba.ogg;
#OFFSET:1.590000;
#SAMPLESTART:57.708179;
#SAMPLELENGTH:15.227276;
#SELECTABLE:YES;
#BPMS:0.000=132.000;
#STOPS:;
#DELAYS:;
#WARPS:;
#TIMESIGNATURES:0.000=4=4;
#TICKCOUNTS:0.000=4;
#COMBOS:0.000=1;
#SPEEDS:0.000=1.000=0.000=0;
#SCROLLS:0.000=1.000;
#FAKES:;
#LABELS:0.000=Song Start;
#BGCHANGES:;
#KEYSOUNDS:;
#ATTACKS:
;

//---------------dance-single - ----------------
#NOTEDATA:;
#CHARTNAME:;
#STEPSTYPE:dance-single;
#DESCRIPTION:;
#CHARTSTYLE:;
#DIFFICULTY:Hard;
#METER:6;
#RADARVALUES:0.340190,0.416292,0.070558,0.097017,0.119067,270.000000,262.000000,8.000000,11.000000,0.000000,0.000000,0.000000,0.000000,0.000000,0.340190,0.416292,0.070558,0.097017,0.119067,270.000000,262.000000,8.000000,11.000000,0.000000,0.000000,0.000000,0.000000,0.000000;
#CREDIT:;
#NOTES:
0000
0000
0000
0000
,
0000
0000
0000
0000
,
0000
0000
0000
0000
,
0000
0000
0000
0000
,
0000
0000
0000
0000
,
0000
0000
0000
0000
,
0000
0000
0000
0000
,
0000
0000
0000
0000
,
0000
0000
0000
0100
,
1002
0000
0000
0013
0000
0000
0000
0100
,
1000
0000
0001
1000
0000
0000
0000
0001
,
0010
0000
0010
0001
0000
0000
0000
0010
,
0100
0000
1000
0001
0000
0000
1000
0000
,
0001
0000
0010
0100
0000
0000
0000
1000
,
0100
0000
1000
0001
0000
0000
0000
0001
,
0100
0000
0001
1000
0000
0000
0000
0010
,
0100
0000
0001
1000
0000
0000
0200
0000
,
0310
0000
0000
0001
0000
0000
0010
0000
0001
0000
0000
1000
0000
0000
0010
0000
,
1000
0000
0000
0100
0000
0000
1000
0000
0001
0000
1000
0000
0001
0000
1000
0000
,
0010
0000
0000
1000
0000
0000
0100
0000
1000
0000
0000
0001
0000
0000
0010
0000
,
0001
0000
0000
1000
0000
0000
0001
0000
0200
0000
0000
0000
0320
0000
0000
0000
,
1030
0000
0000
0001
0000
0000
0010
0000
0001
0000
0000
0100
0000
0000
0010
0000
,
0100
0000
0000
0010
0000
0000
1000
0000
0001
0000
0010
0000
0001
0000
0010
0000
,
0100
0000
0000
0010
0000
0000
0001
0000
0010
0000
0000
0001
0000
0000
1000
0000
,
0001
0000
0000
0100
0000
0000
0010
0000
2000
0000
0000
0000
3002
0000
0000
0000
,
0103
0000
0000
0010
0000
0000
1000
0000
0100
0000
0000
0010
0000
0000
0001
0000
,
0100
0000
0000
0001
0000
0000
0100
0000
0010
0000
1000
0000
0010
0000
1000
0000
,
0100
0000
0000
0010
0000
0000
0001
0000
1000
0000
0000
0100
0000
0000
1000
0000
,
0001
0000
0000
1000
0000
0000
0001
0000
2000
0000
0000
0000
3200
0000
0000
0000
,
1300
0000
0000
0001
0000
0000
0100
0000
0010
0000
0000
1000
0000
0000
0010
0000
,
0100
0000
0000
0001
0000
0000
0010
0000
0100
0000
1000
0000
0100
0000
1000
0000
,
0001
0000
0000
0100
0000
0000
0010
0000
1000
0000
0000
0100
0000
0000
1000
0000
,
0020
0000
0000
0000
0000
0000
0000
0000
0000
0000
0130
0000
0001
1000
0001
1000
,
0001
1000
0100
1000
0000
0000
0000
0100
,
1000
0010
1000
0100
0000
0000
0000
0010
,
0001
0100
0001
0010
0000
0000
0000
0100
,
0010
0001
1000
0001
0000
0000
0101
0000
,
1010
1000
0001
0010
0000
0000
0000
0100
,
0010
0001
1000
0100
0000
0000
0000
1000
,
0010
0100
0010
1000
0000
0000
0000
0001
,
0010
0100
0010
0001
0000
0000
0101
0000
,
0011
0010
0001
1000
0000
0000
0000
0100
,
1000
0010
0100
0001
0000
0000
0000
0010
,
0001
0100
0001
0010
0000
0000
0000
0010
,
0100
1000
0001
0100
0000
0000
1010
0000
,
1100
0100
0010
0100
0000
0000
0000
0010
,
0001
0100
0010
0100
0000
0000
0000
0010
,
1000
0100
0010
0001
0000
0000
0000
0010
,
0001
0000
0010
0000
0100
0000
1000
0000
0000
0000
0000
0000
0001
0100
0001
0100
,
0001
1000
0100
0010
0000
0010
0001
0100
,
0000
0010
1000
0100
0000
0010
0001
0100
,
0000
0010
1000
0100
0000
0010
0001
0100
,
0000
0010
1000
0100
0000
0010
0001
0100
,
0000
0001
1000
0010
0000
1000
0001
0010
,
0000
0001
1000
0010
0000
1000
0001
0010
,
0000
0001
1000
0100
0000
1000
0001
0100
,
0000
0001
1000
0100
0000
1000
0001
0100
,
2002
0000
0000
0000
,
0000
0000
0000
0000
,
3003
0000
0000
0000
;

//---------------dance-single - ----------------
#NOTEDATA:;
#CHARTNAME:;
#STEPSTYPE:dance-single;
#DESCRIPTION:;
#CHARTSTYLE:;
#DIFFICULTY:Medium;
#METER:4;
#RADARVALUES:0.217974,0.312219,0.097017,0.167575,0.000000,173.000000,162.000000,11.000000,19.000000,0.000000,0.000000,0.000000,0.000000,0.000000,0.217974,0.312219,0.097017,0.167575,0.000000,173.000000,162.000000,11.000000,19.000000,0.000000,0.000000,0.000000,0.000000,0.000000;
#CREDIT:;
#NOTES:
0000
0000
0000
0000
,
0000
0000
0000
0000
,
0000
0000
0000
0000
,
0000
0000
0000
0000
,
0000
0000
0000
0000
,
0000
0000
0000
0000
,
0000
0000
0000
0000
,
0000
0000
0000
0000
,
0000
0000
0000
0010
,
1001
0000
0000
0000
,
0100
0000
0000
0000
,
0010
0000
0000
0000
,
1000
0000
0000
0001
,
0010
0000
0000
0000
,
0001
0000
0000
0000
,
1000
0000
0000
0000
,
0010
0000
0000
0000
,
1000
0010
0100
0001
,
0010
0000
0100
0000
1000
0100
1000
0100
,
1000
0010
0100
0001
,
1000
0010
1010
0101
,
1010
1000
0010
0100
,
0001
0000
0010
0000
0100
0010
0100
0010
,
0100
0010
0001
1000
,
0100
1000
1010
0011
,
1001
0001
1000
0010
,
1000
0000
0100
0000
0010
0001
0010
0001
,
0010
0100
0010
0001
,
1000
0001
0011
1010
,
1001
0001
1000
0010
,
1000
0000
0010
0000
0100
0001
0100
0001
,
0100
0001
0010
0001
,
1000
0000
0000
0000
0000
0001
0100
0000
,
0020
0000
0000
1030
0000
0000
0000
0100
,
2000
0000
0000
3001
0000
0000
0000
0100
,
0020
0000
0000
1030
0000
0000
0000
0100
,
0020
0000
0000
0031
0000
0000
0001
0000
,
0200
0000
0000
0310
0000
0000
0000
0100
,
0002
0000
0000
1003
0000
0000
0000
0100
,
0020
0000
0000
0130
0000
0000
0000
0100
,
2000
0000
0000
3001
0000
0000
1000
0000
,
0020
0000
0000
1030
0000
0000
0000
0010
,
0200
0000
0000
0301
0000
0000
0000
0010
,
0200
0000
0000
1300
0000
0000
0000
0100
,
0020
0000
0000
0031
0000
0000
0100
0000
,
0020
0000
0000
0031
0000
0000
0000
1000
,
0002
0000
0000
0103
0000
0000
0000
0001
,
2000
0000
0000
3100
0000
0000
0000
1000
,
0020
0000
0000
0230
0000
0000
0301
0000
,
1000
0100
1000
0100
,
0010
0100
0010
0100
,
0001
0010
0001
0010
,
0001
0100
0001
0100
,
0001
1000
0010
1000
,
0001
0100
0001
1000
,
0001
0010
0100
1000
,
0010
0100
0001
1000
,
2002
0000
0000
0000
,
0000
0000
0000
0000
,
3003
0000
0000
0000
;

//---------------dance-single - ----------------
#NOTEDATA:;
#CHARTNAME:;
#STEPSTYPE:dance-single;
#DESCRIPTION:;
#CHARTSTYLE:;
#DIFFICULTY:Easy;
#METER:2;
#RADARVALUES:0.133556,0.150818,0.008820,0.008820,0.000000,106.000000,105.000000,1.000000,1.000000,0.000000,0.000000,0.000000,0.000000,0.000000,0.133556,0.150818,0.008820,0.008820,0.000000,106.000000,105.000000,1.000000,1.000000,0.000000,0.000000,0.000000,0.000000,0.000000;
#CREDIT:;
#NOTES:
0000
0000
0000
0000
,
0000
0000
0000
0000
,
0000
0000
0000
0000
,
0000
0000
0000
0000
,
0000
0000
0000
0000
,
1000
0000
0000
0000
,
0100
0000
0000
0000
,
1000
0000
0000
0000
,
0010
0000
0000
0100
,
0010
0000
0000
0000
,
1000
0000
0000
0000
,
0001
0000
0000
0000
,
0100
0000
0000
0010
,
1000
0000
0000
0000
,
0001
0000
0000
0000
,
1000
0000
0000
0000
,
0100
0000
0000
0000
,
1000
0000
1000
0000
,
1000
0000
0001
1000
,
0001
0000
0001
0000
,
0001
0000
0100
0010
,
0100
0000
0010
0000
,
0100
0000
0010
0100
,
0010
0000
1000
0000
,
0010
0000
1000
0010
,
0100
0000
0001
0000
,
0010
0000
0001
1000
,
0001
0000
1000
0000
,
0100
0000
1000
0010
,
1000
0000
0010
0000
,
0100
0000
0001
1000
,
0001
0000
1000
0000
,
0200
0000
0000
1300
,
0001
0000
0000
0001
0000
0000
0000
0000
,
0100
0000
0000
0100
0000
0000
0000
0000
,
0010
0000
0000
0010
0000
0000
0000
0000
,
1000
0000
0000
1000
0000
0000
0001
0000
,
1000
0000
0000
1000
0000
0000
0000
0000
,
0010
0000
0000
0010
0000
0000
0000
0000
,
0100
0000
0000
0100
0000
0000
0000
0000
,
0001
0000
0000
0001
0000
0000
1000
0000
,
0001
0000
0000
0001
0000
0000
0000
0000
,
0010
0000
0000
0010
0000
0000
0000
0000
,
0100
0000
0000
0100
0000
0000
0000
0000
,
1000
0000
0000
1000
0000
0000
0001
0000
,
1000
0000
0000
1000
0000
0000
0000
0000
,
0010
0000
0000
0010
0000
0000
0000
0000
,
0100
0000
0000
0100
0000
0000
0000
0000
,
0001
0000
0000
0001
0000
0000
0000
0000
,
1000
0000
0001
0000
,
1000
0000
0001
0000
,
1000
0000
0001
0000
,
1000
0000
0001
0000
,
0100
0000
0010
0000
,
0100
0000
0010
0000
,
0100
0000
0010
0000
,
0100
0000
0010
0000
,
1001
0000
0000
0000
;

//---------------dance-single - ----------------
#NOTEDATA:;
#CHARTNAME:;
#STEPSTYPE:dance-single;
#DESCRIPTION:;
#CHARTSTYLE:;
#DIFFICULTY:Beginner;
#METER:1;
#RADARVALUES:0.071818,0.125681,0.026459,0.000000,0.000000,57.000000,54.000000,3.000000,0.000000,0.000000,0.000000,0.000000,0.000000,0.000000,0.071818,0.125681,0.026459,0.000000,0.000000,57.000000,54.000000,3.000000,0.000000,0.000000,0.000000,0.000000,0.000000,0.000000;
#CREDIT:;
#NOTES:
// measure 0
0000
0000
0000
0000
,  // measure 1
0000
0000
0000
0000
,  // measure 2
0000
0000
0000
0000
,  // measure 3
0000
0000
0000
0000
,  // measure 4
0000
0000
0000
0000
,  // measure 5
0000
0000
0000
0000
,  // measure 6
0000
0000
0000
0000
,  // measure 7
0000
0000
0000
0000
,  // measure 8
0000
0000
0000
0000
,  // measure 9
0010
0000
0000
0000
,  // measure 10
1000
0000
0000
0000
,  // measure 11
0010
0000
0000
0000
,  // measure 12
0100
0000
0000
0000
,  // measure 13
0001
0000
0000
0000
,  // measure 14
1000
0000
0000
0000
,  // measure 15
0100
0000
0000
0000
,  // measure 16
1000
0000
0000
0000
,  // measure 17
1001
0000
0000
0000
,  // measure 18
0001
0000
0000
0000
,  // measure 19
0100
0000
0000
0000
,  // measure 20
0010
0000
1000
1000
,  // measure 21
1000
0000
0000
0000
,  // measure 22
0001
0000
0000
0000
,  // measure 23
0010
0000
0000
0000
,  // measure 24
0001
0000
0100
0100
,  // measure 25
0100
0000
0000
0000
,  // measure 26
0010
0000
0000
0000
,  // measure 27
1000
0000
0000
0000
,  // measure 28
0001
0000
1000
1000
,  // measure 29
1000
0000
0000
0000
,  // measure 30
0010
0000
0000
0000
,  // measure 31
1000
0000
0000
0000
,  // measure 32
0100
0000
0000
0000
,  // measure 33
1001
0000
0000
0000
,  // measure 34
0001
0000
0000
0000
,  // measure 35
0010
0000
0000
0000
,  // measure 36
0001
0000
0000
1000
,  // measure 37
1000
0000
0000
0000
,  // measure 38
0010
0000
0000
0000
,  // measure 39
0100
0000
0000
0000
,  // measure 40
0010
0000
0000
0100
,  // measure 41
0100
0000
0000
0000
,  // measure 42
0001
0000
0000
0000
,  // measure 43
1000
0000
0000
0000
,  // measure 44
0100
0000
0000
1000
,  // measure 45
1000
0000
0000
0000
,  // measure 46
0010
0000
0000
0000
,  // measure 47
0100
0000
0000
0000
,  // measure 48
0001
0000
0000
0000
,  // measure 49
1000
0000
0000
0000
,  // measure 50
0000
0000
0000
0000
,  // measure 51
0001
0000
0000
0000
,  // measure 52
0000
0000
0000
0000
,  // measure 53
0100
0000
0000
0000
,  // measure 54
0000
0000
0000
0000
,  // measure 55
0010
0000
0000
0000
,  // measure 56
0000
0000
0000
0000
,  // measure 57
1001
0000
0000
0000
;
