#VERSION:0.82;
#TITLE:Namaste, Alvida;
#SUBTITLE:;
#ARTIST:MitiS;
#TITLETRANSLIT:;
#SUBTITLETRANSLIT:;
#ARTISTTRANSLIT:;
#GENRE:;
#ORIGIN:;
#CREDIT:;
#BANNER:Namaste, Alvida.png;
#BACKGROUND:Namaste, Alvida-bg.png;
#PREVIEWVID:;
#JACKET:Namaste, Alvida-jacket.png;
#CDIMAGE:;
#DISCIMAGE:;
#LYRICSPATH:;
#CDTITLE:;
#MUSIC:Namaste, Alvida.ogg;
#OFFSET:-3.284000;
#SAMPLESTART:55.884739;
#SAMPLELENGTH:13.150681;
#SELECTABLE:YES;
#BPMS:0.000=146.000;
#STOPS:124.000=1.233;
#DELAYS:;
#WARPS:;
#TIMESIGNATURES:0.000=4=4;
#TICKCOUNTS:0.000=4;
#COMBOS:0.000=1;
#SPEEDS:0.000=1.000=0.000=0;
#SCROLLS:0.000=1.000;
#FAKES:;
#LABELS:0.000=Song Start;
#BGCHANGES:;
#KEYSOUNDS:;
#ATTACKS:
;

//---------------dance-single - ----------------
#NOTEDATA:;
#CHARTNAME:;
#STEPSTYPE:dance-single;
#DESCRIPTION:;
#CHARTSTYLE:;
#DIFFICULTY:Hard;
#METER:7;
#RADARVALUES:0.462902,0.484547,0.008001,0.528051,0.132013,338.000000,1.000000,66.000000,0.000000,0.000000,0.000000,0.000000,0.000000,0.462902,0.484547,0.008001,0.528051,0.132013,338.000000,1.000000,66.000000,0.000000,0.000000,0.000000,0.000000,0.000000;
#CREDIT:;
#NOTES:
0020
0000
0000
0000
0130
0001
2000
0000
,
0000
0000
0000
3100
0010
0000
0000
0000
,
0200
0000
0000
0000
1300
0001
0200
0000
,
0000
0000
0000
0000
0000
0000
0000
0310
1000
0000
0000
0000
1000
0000
0000
0000
,
0200
0000
0000
0000
0310
0001
2000
0000
,
0000
0000
0000
3001
1000
0000
0000
0000
,
0020
0000
0000
0230
,
0000
0000
0302
0000
,
0013
0000
0000
0010
0000
0000
0010
0000
0000
0010
0000
0000
0001
0000
0000
0001
,
0000
0000
0001
0000
0000
0001
0000
0000
0001
0000
0000
0001
0000
0000
0001
0000
,
1000
0000
0000
1000
0000
0000
1000
0000
0000
1000
0000
0000
0100
0000
0000
0100
,
0000
0000
0100
0000
0000
0100
0000
0000
0100
0000
0000
0000
0000
0000
0000
0000
,
0010
0000
0000
0010
0000
0000
0010
0000
0000
0010
0000
0000
0100
0000
0000
0100
,
0000
0000
0100
0000
0000
0100
0000
0000
0100
0000
0000
0100
0000
0000
1000
0000
,
0001
0000
0000
1000
0000
0000
0010
0000
0000
0100
0000
0000
0001
0000
0000
0001
,
0000
0000
0100
0000
0000
0100
0000
0000
0010
0000
0000
0010
0000
0000
1000
0000
,
0020
0000
1000
0230
,
0001
0000
0010
0300
,
0020
0000
0100
0230
,
0001
0000
0320
0000
,
2030
0000
0001
3002
,
0010
0000
0010
0003
,
0200
0000
0010
0320
,
1000
0000
0230
0000
,
0310
0000
0000
0100
0000
0000
0010
0000
0000
0100
0000
0000
0010
0000
0000
1000
,
0010
0000
0100
0000
0000
0001
0000
0000
1000
0000
0000
0010
0000
0000
0100
0000
,
0001
0000
0000
0001
0000
0000
1000
0000
0000
0100
0000
0000
0100
0000
0000
0010
,
0001
0000
0000
0010
0000
0000
0100
0000
0000
1000
0000
0000
0001
0000
1000
0000
,
0100
0010
0100
0000
0010
0001
0010
0000
,
0001
0100
0001
0000
1000
0001
1000
0000
,
0001
1000
0100
1000
0001
0010
0100
1000
,
1001
0000
0002
0000
2003
0000
3010
0100
,
0001
0000
0020
0000
0230
0000
1300
0001
,
0100
0000
0020
0000
1030
0001
0200
0000
,
0010
0000
0302
0000
1003
0000
0001
0010
,
1000
0010
0200
0000
1000
0000
0310
0001
,
1000
0000
0020
0000
0001
0000
0130
0001
,
1000
0000
0002
0000
1003
0100
2000
0000
,
3100
0000
0010
0100
0000
0010
0100
0000
,
2000
0000
3010
0100
0001
0020
0100
0000
,
0130
0000
0010
0001
1000
0002
0100
0000
,
0103
0000
0001
0100
0010
2000
0100
0000
,
3100
0000
1000
0010
0100
0001
0010
1000
,
0010
0100
2000
0000
3001
0200
0010
0000
,
0310
0000
0200
0000
0301
2000
0010
0000
,
3010
0200
0002
0000
,
0303
0000
0002
0000
0000
0000
2003
3200
,
0320
0032
1003
0010
0200
0000
0301
2000
,
0000
0000
3100
1000
0010
2000
0001
0000
,
3000
0000
0001
0100
0001
0010
0200
0000
,
2300
0000
3010
0000
1000
0000
0001
0100
,
0001
1000
0200
0000
0310
0000
0001
2000
,
0100
0000
3010
0100
0001
0100
0010
0000
,
1000
0000
0001
0000
0010
0100
0010
0000
,
0001
0000
0000
0000
2000
0000
0000
0000
3020
0000
0000
0000
0130
0001
0100
0000
,
0001
0010
0100
0000
1000
0100
0010
0200
,
0000
0000
1300
0010
0100
0002
0000
0000
,
0000
0000
0013
0000
0100
1000
0020
0000
,
0230
0000
0301
1000
0000
0001
0100
0010
,
0100
0001
1000
0020
0000
0130
0020
1000
,
0000
0000
1030
0100
0010
0200
1000
0000
,
1300
0000
0100
0000
0010
0001
0000
0001
,
0100
0000
0020
0000
0000
0000
0130
0001
,
0010
0100
1000
0000
0000
0001
0100
0000
,
0010
1000
0000
1000
,
0001
0000
1000
0001
0010
0000
0100
0000
,
1000
0000
0000
0000
0010
0000
0000
0100
0000
0000
0010
0000
0100
0000
0001
0000
,
1000
0100
0020
0000
0230
0000
1300
0000
,
0001
0000
0000
0000
0100
0000
0000
0001
0000
0000
1000
0000
0001
0000
0000
0000
,
0001
0000
0100
0010
2000
0000
3100
0000
,
0010
0000
0001
0100
0000
0010
1000
0000
,
0002
0003
0000
0000
;

//---------------dance-single - ----------------
#NOTEDATA:;
#CHARTNAME:;
#STEPSTYPE:dance-single;
#DESCRIPTION:;
#CHARTSTYLE:;
#DIFFICULTY:Medium;
#METER:5;
#RADARVALUES:0.315459,0.345633,0.024002,0.128012,0.000000,257.000000,3.000000,16.000000,0.000000,0.000000,0.000000,0.000000,0.000000,0.315459,0.345633,0.024002,0.128012,0.000000,257.000000,3.000000,16.000000,0.000000,0.000000,0.000000,0.000000,0.000000;
#CREDIT:;
#NOTES:
2002
0000
0000
0000
,
0000
0000
3003
0000
,
0220
0000
0000
0000
,
0000
0000
0300
0030
,
2002
0000
0000
0000
,
0000
0000
3003
0000
,
0200
0000
0000
0020
,
0000
0000
0330
0000
,
0001
0000
1000
0000
0000
0100
0000
1000
,
0010
0000
0100
0000
0000
0010
0000
0100
,
0001
0000
0100
0000
0000
0001
0000
1000
,
0100
0000
1000
0000
0000
0010
0000
0100
,
0001
0000
0100
0000
0000
0010
0000
0100
,
0001
0000
1000
0000
0000
0100
0000
1000
,
0100
0000
1000
0000
0000
0010
0000
0100
,
0001
0000
1000
0000
0000
0010
0000
0100
,
0001
0000
1000
0000
,
0100
0000
1000
0000
,
0010
0000
0100
0000
,
0001
0000
1000
0001
,
0100
0000
0001
0000
,
0010
0000
0001
0000
,
1000
0000
0100
0000
,
1000
0000
0010
0000
,
0100
0001
1000
0100
,
1000
0100
0001
0100
,
1000
1000
0010
0100
,
0001
0010
0010
1000
,
0001
1000
0010
0000
0100
0010
0100
0000
,
0001
0100
0001
0000
1000
0001
1000
0000
,
0001
0010
0100
1000
0001
0010
0100
1000
,
0001
0000
1000
0000
0000
0010
1000
0000
,
0010
0000
0100
0000
0000
0001
0100
0000
,
0000
0000
0010
0000
0000
1000
0100
0000
,
1000
0000
0001
0000
0000
0100
0010
0000
,
0010
0000
0100
0000
0000
0001
1000
0000
,
0100
0000
1000
0000
0000
0001
0010
0000
,
0000
0000
0100
0000
0000
1000
0100
0000
,
1000
0000
0010
0100
0000
0100
0010
0000
,
2000
0000
3001
0000
0000
1000
0100
0000
,
1000
0000
0010
0000
0100
0001
1000
0000
,
0000
0000
0100
0000
0000
1000
0100
0000
,
1000
0000
0010
0000
0100
0001
1000
0000
,
0100
0000
1000
0000
0000
0010
0100
0000
,
0001
0000
1000
0000
0001
0100
0001
0000
,
0000
0200
0020
0000
,
0330
0000
0200
0000
0300
0000
0001
0100
,
1000
0100
0001
0000
1000
0000
0100
2000
,
0000
3100
1000
0010
,
0000
0100
0001
0100
,
0010
1000
0001
0010
,
0100
0000
1000
0000
0100
0000
1000
0020
,
0000
0130
0001
1000
,
0100
1000
0010
0100
,
0001
0000
1000
0000
0010
0000
0100
0100
,
0001
1000
0001
0000
0010
0000
0100
0020
,
0000
0130
1000
0100
,
1000
0000
0010
0000
0100
0001
1000
0000
,
0100
0000
1000
0100
0000
0100
1000
0000
,
0100
0000
0010
0000
0001
0000
0010
0001
,
0100
0000
0010
0000
0100
0001
1000
0000
,
0000
0000
0001
0000
1000
0001
0000
1000
,
0001
0000
1000
0000
0000
0000
0001
0100
,
0010
1000
0001
0000
0000
0000
1000
0000
,
0100
1000
0000
0010
,
0100
0000
0001
0100
0010
0000
1000
0000
,
0000
0001
1000
0100
,
1000
0000
0010
0000
0000
0100
0010
0000
,
0100
0000
0001
0000
0000
1000
0100
0000
,
0100
0000
1000
0100
0010
0000
0001
0000
,
0010
0000
0100
0010
0000
0010
0001
0000
,
1000
0020
0000
0000
,
0030
0000
0000
0000
;

//---------------dance-single - ----------------
#NOTEDATA:;
#CHARTNAME:;
#STEPSTYPE:dance-single;
#DESCRIPTION:;
#CHARTSTYLE:;
#DIFFICULTY:Easy;
#METER:3;
#RADARVALUES:0.244595,0.259225,0.040004,0.136013,0.000000,192.000000,5.000000,17.000000,0.000000,0.000000,0.000000,0.000000,0.000000,0.244595,0.259225,0.040004,0.136013,0.000000,192.000000,5.000000,17.000000,0.000000,0.000000,0.000000,0.000000,0.000000;
#CREDIT:;
#NOTES:
0002
0000
0000
2000
,
0000
0000
3003
0000
,
2000
0000
0000
0002
,
0000
0000
3003
0000
,
0200
0000
0000
0020
,
0000
0000
0330
0000
,
0020
0000
0000
0200
,
0000
0000
0330
0000
,
1001
0000
0000
1000
,
0000
0000
0001
0000
,
0100
0000
0000
0010
,
0000
0000
1000
0000
,
0001
0000
0000
1000
,
0000
0000
0100
0000
,
1000
0000
0000
0010
,
0000
0000
0100
0000
,
0002
0000
0000
1000
,
0000
0000
1003
0000
,
2000
0000
0000
0001
,
0000
0000
3001
1000
,
0020
0000
0000
0100
,
0000
0000
0130
0000
,
0200
0000
0000
0010
,
0000
0000
0310
0000
,
0100
0000
0001
0000
,
1000
0001
1000
0100
,
1000
0000
0010
0000
,
0100
0001
0010
0100
,
0010
0001
0010
0001
,
0010
0100
1000
0100
,
1000
0100
0010
0001
,
1001
0001
0100
0001
,
1000
0001
0100
0001
,
1000
0001
0100
0001
,
1000
0001
0010
0100
,
1000
1000
0001
1000
,
0100
1000
0001
1000
,
0010
1000
0001
2000
,
0000
3001
0100
0010
,
0200
0301
0100
1000
,
0100
0010
1000
0010
,
0100
0001
0010
1000
,
0010
0100
1000
0001
,
0100
0001
1000
0100
,
1000
0010
0100
0001
,
0010
0100
2000
0000
,
0000
3002
0000
1003
,
0101
0011
0010
0100
,
0000
0010
0001
1000
,
0000
0001
1000
0010
,
0000
0100
0001
0010
,
0000
0100
1000
0010
,
0000
0100
0001
1000
,
0000
0100
1000
0010
,
0000
0100
0010
1000
,
0001
1000
0100
1000
,
0000
0010
0100
0010
,
0000
0100
0001
0010
,
0000
0100
1000
0001
,
1000
0001
0100
0001
,
0100
0010
1000
0010
,
0000
0000
0100
0000
0000
0010
0000
0000
,
1000
0001
0000
1000
,
0100
0010
0000
0110
,
0000
0010
0000
0001
,
1000
0001
0100
0001
,
0000
1000
0000
0010
,
0100
0001
0000
1000
,
0000
0100
0000
1000
,
0001
0010
0100
0010
,
0000
0100
0000
1000
,
0001
0020
0000
0000
,
0030
0000
0000
0000
;

//---------------dance-single - ----------------
#NOTEDATA:;
#CHARTNAME:;
#STEPSTYPE:dance-single;
#DESCRIPTION:;
#CHARTSTYLE:;
#DIFFICULTY:Beginner;
#METER:1;
#RADARVALUES:0.118869,0.171016,0.008001,0.000000,0.000000,103.000000,1.000000,0.000000,0.000000,0.000000,0.000000,0.000000,0.000000,0.118869,0.171016,0.008001,0.000000,0.000000,103.000000,1.000000,0.000000,0.000000,0.000000,0.000000,0.000000,0.000000;
#CREDIT:;
#NOTES:
// measure 0
0010
0000
0000
0100
,  // measure 1
0000
0000
0000
0000
,  // measure 2
0010
0000
0000
1000
,  // measure 3
0000
0000
0001
0000
,  // measure 4
0010
0000
0000
0001
,  // measure 5
0000
0000
0000
0000
,  // measure 6
1000
0000
0000
0100
,  // measure 7
0000
0000
1000
0000
,  // measure 8
0010
0000
0000
0000
,  // measure 9
0100
0000
0000
0000
,  // measure 10
0001
0000
0000
0000
,  // measure 11
0001
0000
0000
0000
,  // measure 12
1000
0000
0000
0000
,  // measure 13
0100
0000
0000
0000
,  // measure 14
1000
0000
0000
0000
,  // measure 15
0010
0000
0000
0000
,  // measure 16
0100
0000
0000
0000
,  // measure 17
0000
0000
0000
0000
,  // measure 18
0001
0000
0000
0000
,  // measure 19
0000
0000
1000
0000
,  // measure 20
0010
0000
0000
0100
,  // measure 21
0000
0000
0000
0000
,  // measure 22
0010
0000
0000
1000
,  // measure 23
0000
0000
0001
0000
,  // measure 24
1000
0000
0000
0000
,  // measure 25
0001
0000
0000
0000
,  // measure 26
1000
0000
0000
0000
,  // measure 27
0001
0000
0000
0000
,  // measure 28
1000
0000
1000
0000
,  // measure 29
0001
0000
0001
0000
,  // measure 30
1000
0000
0001
0000
,  // measure 31
1001
0010
0000
0010
,  // measure 32
0000
0100
0000
0000
,  // measure 33
0000
0010
0000
0010
,  // measure 34
0000
1000
0000
0000
,  // measure 35
0000
0001
0000
0001
,  // measure 36
0000
1000
0000
0000
,  // measure 37
0000
0010
0000
0100
,  // measure 38
0000
0010
0000
0000
,  // measure 39
1000
0001
0000
0000
,  // measure 40
0000
1000
0000
0001
,  // measure 41
0000
0100
0000
0000
,  // measure 42
0000
0010
0000
0100
,  // measure 43
0100
0100
0000
0010
,  // measure 44
0000
0010
0000
0000
,  // measure 45
0000
1000
0000
0000
,  // measure 46
0000
0001
0000
1000
,  // measure 47
1000
0010
0000
0000
,  // measure 48
0000
0100
0000
0000
,  // measure 49
0000
0001
0001
0000
,  // measure 50
0000
1000
0000
1000
,  // measure 51
0000
0010
0000
0000
,  // measure 52
0010
0000
0000
1000
,  // measure 53
0000
0001
0001
0000
,  // measure 54
0000
1000
0000
0010
,  // measure 55
0010
0100
0000
0010
,  // measure 56
0000
1000
0000
0000
,  // measure 57
0000
0001
0001
0000
,  // measure 58
0000
0100
0000
0000
,  // measure 59
0000
0010
0000
0000
,  // measure 60
0100
0000
0000
0010
,  // measure 61
0000
1000
0000
0000
,  // measure 62
0000
0001
0000
1000
,  // measure 63
0000
0010
0000
0100
,  // measure 64
0000
0010
0000
1000
,  // measure 65
0000
1000
0000
0000
,  // measure 66
0000
0001
0000
0100
,  // measure 67
0000
0001
0000
0000
,  // measure 68
0000
1000
0000
0000
,  // measure 69
0000
0010
0000
0000
,  // measure 70
0000
0100
0000
0010
,  // measure 71
0000
1000
0000
0000
;
